osu file format v14

[General]
AudioFilename: audio.mp3
AudioLeadIn: 0
PreviewTime: 47744
Countdown: 0
SampleSet: Soft
StackLeniency: 0.7
Mode: 0
LetterboxInBreaks: 0
WidescreenStoryboard: 1

[Editor]
DistanceSpacing: 1
BeatDivisor: 4
GridSize: 4
TimelineZoom: 1

[Metadata]
Title:Identity (TV Size)
TitleUnicode:アイデンティティ (TV Size)
Artist:Akiyama Kiro
ArtistUnicode:秋山黄色
Creator:AirinCat
Version:Easy
Source:約束のネバーランド
Tags:The Promised Neverland Season 2 Yakusoku no second anime opening pop japanese jpop kiiro
BeatmapID:2822673
BeatmapSetID:1359545

[Difficulty]
HPDrainRate:2
CircleSize:3
OverallDifficulty:2
ApproachRate:4
SliderMultiplier:1.1
SliderTickRate:1

[Events]
//Background and Video events
0,0,"Yakusoku.no.Neverland.full.2570843.jpg",0,0
Video,-76,"neverland.mp4"
//Break Periods
//Storyboard Layer 0 (Background)
//Storyboard Layer 1 (Fail)
//Storyboard Layer 2 (Pass)
//Storyboard Layer 3 (Foreground)
//Storyboard Layer 4 (Overlay)
//Storyboard Sound Samples

[TimingPoints]
500,500,4,2,1,50,1,0
500,-100,4,2,1,50,0,0
6500,-100,4,2,1,70,0,0
8375,-100,4,2,1,70,0,0
16000,-100,4,2,1,70,0,0
16500,-100,4,2,1,50,0,0
31000,-100,4,2,1,70,0,0
31375,-100,4,2,1,60,0,0
32500,-100,4,2,1,60,0,0
46500,-100,4,2,2,50,0,0
47000,-100,4,2,2,60,0,0
47500,-100,4,2,2,70,0,0
48000,-100,4,2,1,70,0,0
48375,-100,4,2,1,80,0,1
51500,-100,4,2,2,80,0,1
52375,-100,4,2,1,80,0,1
63750,-100,4,2,1,80,0,1
64000,-100,4,2,1,80,0,1
67500,-100,4,2,2,80,0,1
68375,-100,4,2,1,80,0,1
79250,-100,4,2,1,70,0,0
80375,-100,4,2,1,70,0,0
83625,-100,4,2,1,70,0,0
83750,-100,4,2,1,5,0,0
85500,-100,4,2,1,70,0,0
85625,-100,4,2,1,20,0,0

[Colours]
Combo1 : 255,196,196
Combo2 : 228,192,124
Combo3 : 141,185,186

[HitObjects]
12,381,500,6,0,L|142:359,1,110,2|0,1:2|1:2,0:2:0:0:
194,281,1500,2,0,L|174:165,1,110,2|2,1:2|1:2,0:0:0:0:
86,107,2500,1,2,1:2:0:0:
148,16,3000,1,0,1:2:0:0:
250,55,3500,2,0,L|342:39,2,82.5,2|2|2,1:3|1:3|1:3,0:2:0:0:
224,103,4500,2,0,L|243:224,1,110,2|0,1:2|1:2,0:2:0:0:
175,299,5500,1,2,1:2:0:0:
247,382,6000,1,2,1:2:0:0:
342,327,6500,6,0,B|385:318|385:318|416:359,2,82.5,12|12|12,0:2|0:2|0:2,0:2:0:0:
304,286,7500,2,0,L|313:228,1,55,2|2,1:3|1:3,0:0:0:0:
393,120,8375,6,0,P|332:82|270:107,1,137.5,6|10,1:2|0:2,0:2:0:0:
201,140,9375,2,0,L|115:120,1,82.5,2|2,1:2|1:2,0:2:0:0:
76,88,10000,1,10,0:2:0:0:
15,145,10375,2,0,L|34:285,1,137.5,2|10,1:2|0:2,0:2:0:0:
102,326,11375,2,0,L|189:310,1,82.5,2|2,1:2|1:2,0:2:0:0:
221,271,12000,1,10,0:2:0:0:
290,315,12375,6,0,P|349:343|408:310,1,137.5,6|10,1:2|0:2,0:2:0:0:
465,251,13375,2,0,B|451:213|451:213|458:158|458:158|444:117,1,137.5,6|10,1:2|0:2,0:2:0:0:
423,35,14375,2,0,B|379:46|379:46|353:81|353:81|306:97,1,137.5,6|4,1:2|0:3,0:2:0:0:
227,77,15375,2,0,L|210:15,1,55,8|6,0:2|1:2,0:0:0:0:
50,127,16500,6,0,P|37:184|77:228,2,110,6|2|0,1:2|1:2|1:2,0:2:0:0:
157,152,18000,1,2,1:2:0:0:
240,81,18500,2,0,P|292:64|339:89,2,110,2|2|0,1:2|1:2|1:2,0:2:0:0:
282,183,20000,1,2,1:2:0:0:
391,178,20500,6,0,L|512:200,1,110,2|0,1:2|1:2,0:2:0:0:
480,306,21500,2,0,L|359:284,1,110,0|2,1:2|1:2,0:2:0:0:
262,277,22500,2,0,P|212:313|211:367,2,110,2|0|0,1:2|1:2|1:2,0:2:0:0:
371,286,24000,1,2,1:2:0:0:
339,180,24500,6,0,P|350:126|364:73,2,110,2|2|0,1:2|1:2|1:2,0:2:0:0:
244,236,26000,1,2,1:2:0:0:
154,172,26500,2,0,P|147:117|139:61,2,110,2|2|0,1:2|1:2|1:2,0:2:0:0:
75,249,28000,1,2,1:2:0:0:
142,336,28500,6,0,L|255:351,1,110,2|0,1:2|1:2,0:2:0:0:
356,318,29500,2,0,P|389:276|373:218,1,110,0|2,1:2|1:2,0:2:0:0:
310,136,30500,1,2,1:3:0:0:
380,51,31000,2,0,P|423:47|474:42,1,82.5,6|4,1:2|0:3,0:2:0:0:
495,176,32000,2,0,L|433:183,1,55,8|8,0:0|0:0,0:0:0:0:
402,222,32500,6,0,P|359:253|304:237,1,110,6|8,1:2|0:2,0:2:0:0:
209,189,33500,1,2,0:2:0:0:
140,274,34000,2,0,L|150:342,2,55,10|2|2,0:2|1:2|1:2,0:2:0:0:
42,224,35000,2,0,P|9:181|26:125,1,110,10|0,0:2|0:0,0:2:0:0:
86,40,36000,1,8,0:2:0:0:
186,85,36500,6,0,P|235:73|297:60,1,110,6|10,1:2|0:2,0:2:0:0:
396,23,37500,1,2,0:2:0:0:
496,67,38000,1,10,0:2:0:0:
452,167,38500,2,0,L|462:231,2,55,2|2|10,1:2|1:2|0:2,0:2:0:0:
348,127,39500,1,2,1:2:0:0:
282,215,40000,2,0,L|228:220,1,55,10|10,0:0|0:0,0:0:0:0:
172,221,40500,6,0,P|121:201|75:229,1,110,6|10,1:2|0:2,0:2:0:0:
87,339,41500,2,0,P|135:357|182:330,1,110,2|10,0:2|0:2,0:2:0:0:
266,257,42500,1,2,1:2:0:0:
344,334,43000,1,10,0:2:0:0:
445,291,43500,2,0,P|455:236|473:175,1,110,2|10,0:2|0:2,0:0:0:0:
435,78,44500,5,8,1:3:0:0:
327,103,45000,1,8,0:3:0:0:
217,88,45500,2,0,B|201:130|201:130|233:169,2,82.5,8|8|12,0:2|0:2|0:2,0:0:0:0:
245,40,46500,1,2,1:2:0:0:
63,316,48000,1,10,0:2:0:0:
7,254,48375,6,0,P|74:231|133:271,1,137.5,6|8,1:2|0:2,0:2:0:0:
188,318,49375,2,0,P|231:305|274:298,1,82.5,2|2,1:2|0:2,0:2:0:0:
314,328,50000,1,10,0:2:0:0:
422,346,50500,1,2,1:2:0:0:
485,256,51000,1,10,0:2:0:0:
419,167,51500,2,0,P|365:181|305:196,1,110,2|10,1:2|0:2,0:0:0:0:
272,266,52375,6,0,P|226:211|247:144,1,137.5,6|10,1:2|0:2,0:2:0:0:
202,78,53375,2,0,L|116:62,1,82.5,2|2,1:2|0:2,0:2:0:0:
67,77,54000,1,10,0:2:0:0:
5,168,54500,2,0,P|11:213|19:284,1,110,2|10,1:2|0:2,0:2:0:0:
79,332,55375,2,0,P|144:347|197:293,1,137.5,4|10,1:2|0:2,0:2:0:0:
234,233,56375,6,0,L|373:260,1,137.5,6|10,1:2|0:2,0:2:0:0:
441,220,57375,2,0,L|457:123,1,82.5,2|2,1:2|0:2,0:2:0:0:
488,94,58000,1,10,0:2:0:0:
419,7,58500,2,0,L|297:31,1,110,2|10,1:2|0:2,0:2:0:0:
230,46,59375,2,0,P|201:105|235:162,1,137.5,2|10,1:2|0:2,0:2:0:0:
326,223,60500,5,6,1:2:0:0:
308,331,61000,1,10,0:2:0:0:
202,361,61500,1,2,1:2:0:0:
126,280,62000,1,2,1:2:0:0:
183,186,62500,2,0,B|154:157|154:157|109:170,2,82.5,6|4|4,1:2|1:2|1:2,0:0:0:0:
316,283,64000,1,10,0:2:0:0:
397,268,64375,6,0,P|441:214|425:147,1,137.5,6|10,1:2|0:2,0:2:0:0:
369,94,65375,2,0,L|282:109,1,82.5,2|2,1:2|0:2,0:2:0:0:
238,82,66000,1,10,0:2:0:0:
141,29,66500,1,2,1:2:0:0:
55,98,67000,1,10,0:2:0:0:
90,202,67500,2,0,L|76:320,1,110,2|10,1:2|0:2,0:0:0:0:
149,350,68375,6,0,P|212:366|260:320,1,137.5,6|10,1:2|0:2,0:2:0:0:
311,255,69375,2,0,L|405:276,1,82.5,2|2,1:2|0:2,0:2:0:0:
443,255,70000,1,10,0:2:0:0:
501,161,70500,2,0,L|478:45,1,110,2|10,1:2|0:2,0:2:0:0:
406,14,71375,2,0,P|335:23|319:90,1,137.5,6|8,1:2|0:2,0:2:0:0:
347,154,72375,6,0,P|282:169|214:194,1,137.5,6|10,1:2|0:2,0:2:0:0:
133,192,73375,2,0,P|120:149|106:102,1,82.5,2|2,1:2|0:2,0:2:0:0:
133,63,74000,1,10,0:2:0:0:
230,11,74500,2,0,P|286:20|350:31,1,110,2|10,1:2|0:2,0:2:0:0:
405,76,75375,2,0,P|473:89|494:152,1,137.5,2|10,1:2|0:2,0:2:0:0:
483,256,76500,5,6,1:2:0:0:
395,322,77000,1,10,0:2:0:0:
302,262,77500,1,2,1:2:0:0:
325,154,78000,1,10,0:2:0:0:
434,145,78500,2,0,B|446:106|446:106|419:73,2,82.5,6|4|4,1:2|1:2|1:2,0:0:0:0:
359,292,80000,1,8,0:3:0:0:
283,258,80375,6,0,P|220:268|141:294,1,137.5,6|10,1:2|0:2,0:2:0:0:
68,280,81375,2,0,B|39:251|39:251|57:213,1,82.5,6|8,1:2|0:2,0:2:0:0:
95,173,82000,1,6,1:2:0:0:
164,128,82375,2,0,B|202:131|202:131|241:174|241:174|281:180,1,137.5,6|8,1:2|0:2,0:2:0:0:
355,144,83375,2,0,L|361:84,1,55,10|6,0:2|1:2,0:2:0:0:
256,192,84000,12,14,85500,0:2:0:0:
