osu file format v14

[General]
AudioFilename: audio.mp3
AudioLeadIn: 0
PreviewTime: 47744
Countdown: 0
SampleSet: Soft
StackLeniency: 0.7
Mode: 0
LetterboxInBreaks: 0
WidescreenStoryboard: 0

[Editor]
DistanceSpacing: 0.7
BeatDivisor: 4
GridSize: 4
TimelineZoom: 1

[Metadata]
Title:Identity (TV Size)
TitleUnicode:アイデンティティ (TV Size)
Artist:Akiyama Kiro
ArtistUnicode:秋山黄色
Creator:AirinCat
Version:Another
Source:約束のネバーランド
Tags:The Promised Neverland Season 2 Yakusoku no second anime opening pop japanese jpop kiiro
BeatmapID:2813274
BeatmapSetID:1359545

[Difficulty]
HPDrainRate:5
CircleSize:4
OverallDifficulty:8
ApproachRate:9
SliderMultiplier:1.8
SliderTickRate:1

[Events]
//Background and Video events
0,0,"Yakusoku.no.Neverland.full.2570843.jpg",0,0
Video,-76,"neverland.mp4"
//Break Periods
//Storyboard Layer 0 (Background)
//Storyboard Layer 1 (Fail)
//Storyboard Layer 2 (Pass)
//Storyboard Layer 3 (Foreground)
//Storyboard Layer 4 (Overlay)
//Storyboard Sound Samples

[TimingPoints]
500,500,4,2,1,50,1,0
500,-111.111111111111,4,2,1,50,0,0
6500,-58.8235294117647,4,2,1,70,0,0
8375,-58.8235294117647,4,2,1,70,0,0
16000,-111.111111111111,4,2,1,70,0,0
16500,-90.9090909090909,4,2,1,50,0,0
31000,-55.5555555555556,4,2,1,70,0,0
31375,-66.6666666666667,4,2,1,60,0,0
32500,-66.6666666666667,4,2,1,60,0,0
46500,-250,4,2,2,50,0,0
47000,-166.666666666667,4,2,2,60,0,0
47500,-71.4285714285714,4,2,2,70,0,0
48000,-52.6315789473684,4,2,1,70,0,0
48375,-52.6315789473684,4,2,1,80,0,1
51500,-52.6315789473684,4,2,2,80,0,1
52375,-52.6315789473684,4,2,1,80,0,1
63750,-76.9230769230769,4,2,1,80,0,1
64000,-52.6315789473684,4,2,1,80,0,1
67500,-52.6315789473684,4,2,2,80,0,1
68375,-52.6315789473684,4,2,1,80,0,1
79250,-100,4,2,1,70,0,0
79750,-100,4,2,1,5,0,0
80000,-100,4,2,1,70,0,0
80375,-58.8235294117647,4,2,1,70,0,0
83625,-90.9090909090909,4,2,1,70,0,0
83750,-90.9090909090909,4,2,1,5,0,0
85375,-90.9090909090909,4,2,1,25,0,0
85500,-90.9090909090909,4,2,1,70,0,0
85625,-90.9090909090909,4,2,1,20,0,0

[Colours]
Combo1 : 255,196,196
Combo2 : 228,192,124
Combo3 : 141,185,186

[HitObjects]
45,184,500,6,0,L|-4:170,2,40.4999987640381,2|0|0,1:2|0:2|0:2,0:2:0:0:
77,256,875,2,0,P|69:274|67:294,1,40.4999987640381,2|0,0:2|1:2,0:2:0:0:
143,315,1125,2,0,P|151:296|153:276,1,40.4999987640381,2|0,0:2|0:2,0:2:0:0:
217,232,1375,2,0,P|258:230|291:259,1,80.9999975280763,2|0,0:2|0:2,0:2:0:0:
344,309,1750,2,0,P|338:325|332:350,1,40.4999987640381,2|0,0:2|0:2,0:2:0:0:
428,287,2000,1,2,1:2:0:0:
428,287,2125,1,2,0:2:0:0:
428,287,2250,1,2,0:2:0:0:
243,329,2500,6,0,L|234:371,2,40.4999987640381,2|0|0,1:2|0:2|0:2,0:2:0:0:
193,270,2875,2,0,P|172:270|152:259,1,40.4999987640381,2|0,0:2|1:2,0:2:0:0:
182,186,3125,2,0,P|203:186|223:197,1,40.4999987640381,2|0,0:2|0:2,0:2:0:0:
106,128,3375,5,2,0:0:0:0:
106,128,3500,2,0,B|93:88|93:88|124:60,1,80.9999975280763,2|0,1:3|0:2,0:2:0:0:
209,18,3875,2,0,B|248:25|248:25|252:27|252:27|303:37,1,80.9999975280763,2|0,1:3|0:2,0:2:0:0:
369,103,4250,1,2,1:3:0:0:
369,103,4375,1,2,0:3:0:0:
369,103,4500,6,0,L|425:86,2,40.4999987640381,2|0|0,1:2|0:2|0:2,0:2:0:0:
322,168,4875,2,0,P|334:184|334:205,1,40.4999987640381,2|0,0:2|1:2,0:2:0:0:
263,232,5125,2,0,P|251:216|250:194,1,40.4999987640381,2|0,0:2|0:2,0:2:0:0:
189,148,5375,2,0,P|150:140|117:162,1,80.9999975280763,2|0,0:2|0:2,0:2:0:0:
73,225,5750,2,0,L|86:274,1,40.4999987640381,2|0,0:2|0:2,0:2:0:0:
64,343,6000,1,2,1:2:0:0:
64,343,6125,1,2,0:2:0:0:
64,343,6250,2,0,L|16:357,1,40.4999987640381,2|2,0:2|0:2,0:2:0:0:
163,237,6500,6,0,B|212:256|212:256|225:306|225:306|273:327,1,153.000002918243,12|0,0:2|1:2,0:2:0:0:
416,150,6875,2,0,B|366:169|366:169|353:219|353:219|305:240,1,153.000002918243,12|0,0:2|1:2,0:2:0:0:
352,371,7250,2,0,B|381:346|381:346|361:300,1,76.5000014591217,12|0,0:2|0:2,0:2:0:0:
87,191,7500,5,2,1:3:0:0:
87,191,7750,2,0,P|96:225|107:274,1,76.5000014591217,2|0,1:3|0:2,0:2:0:0:
244,83,8000,1,10,0:2:0:0:
154,122,8125,1,10,0:2:0:0:
241,185,8250,1,10,0:2:0:0:
244,83,8375,6,0,P|302:38|370:65,1,153.000002918243,6|0,1:2|0:2,0:2:0:0:
444,124,8750,2,0,P|485:114|532:107,1,76.5000014591217,2|0,1:2|0:2,0:2:0:0:
371,189,9000,2,0,P|378:225|388:268,1,76.5000014591217,10|0,0:2|0:2,0:2:0:0:
329,343,9250,1,2,0:2:0:0:
223,290,9375,6,0,B|186:268|136:301|172:310|139:346|90:332,1,153.000002918243,2|0,1:2|0:2,0:2:0:0:
9,265,9750,1,2,1:2:0:0:
9,265,10000,2,0,P|34:237|34:199,1,76.5000014591217,10|0,0:2|1:2,0:2:0:0:
4,107,10250,1,2,0:2:0:0:
102,72,10375,6,0,P|174:94|256:112,1,153.000002918243,2|0,1:2|0:2,0:2:0:0:
333,178,10750,2,0,P|359:142|351:104,1,76.5000014591217,2|0,1:2|0:2,0:2:0:0:
213,205,11000,2,0,L|233:292,1,76.5000014591217,10|0,0:2|0:2,0:2:0:0:
153,338,11250,1,2,0:2:0:0:
231,278,11375,6,0,P|303:259|360:317,1,153.000002918243,2|0,1:2|0:2,0:2:0:0:
469,329,11750,1,2,1:2:0:0:
469,329,11875,1,0,1:2:0:0:
469,329,12000,2,0,P|480:287|491:247,1,76.5000014591217,10|0,0:2|1:2,0:2:0:0:
459,155,12250,1,10,0:2:0:0:
340,196,12375,6,0,B|292:183|292:183|263:132|263:132|215:122,1,153.000002918243,6|0,1:2|0:2,0:2:0:0:
148,61,12750,2,0,B|113:82|113:82|126:114,1,76.5000014591217,2|0,1:2|0:2,0:2:0:0:
161,274,13000,2,0,B|175:236|175:236|142:221,1,76.5000014591217,10|0,0:2|0:2,0:2:0:0:
61,282,13250,1,2,0:2:0:0:
182,360,13375,6,0,B|227:369|255:322|222:321|248:271|294:282,1,153.000002918243,6|8,1:2|0:2,0:2:0:0:
373,234,13750,1,2,1:2:0:0:
444,291,13875,1,0,1:2:0:0:
498,214,14000,2,0,L|515:128,1,76.5000014591217,10|4,0:2|0:3,0:2:0:0:
471,50,14250,1,8,0:3:0:0:
354,127,14375,6,0,B|284:151|284:151|231:130|245:70,1,153.000002918243,6|8,1:2|0:2,0:2:0:0:
259,0,14750,2,0,B|300:-7|300:-7|309:35,1,76.5000014591217,2|0,1:2|1:2,0:0:0:0:
140,85,15000,2,0,L|100:77,2,38.2500007295609,4|4|4,0:3|0:3|0:3,0:0:0:0:
185,169,15250,1,8,0:3:0:0:
91,201,15375,1,8,0:2:0:0:
91,201,15625,2,0,B|97:237|97:237|96:240|96:240|104:285,1,76.5000014591217,6|0,1:2|0:2,0:2:0:0:
324,364,16000,6,0,P|326:342|330:324,1,40.4999987640381,2|0,0:2|0:2,0:2:0:0:
214,254,16250,2,0,P|211:275|207:293,1,40.4999987640381,2|2,0:2|0:2,0:2:0:0:
323,243,16500,6,0,B|282:234|250:268|278:285|253:322|208:312,1,148.50000453186,6|0,1:2|0:2,0:2:0:0:
132,294,17000,2,0,P|96:252|107:206,1,99.0000030212403,2|2,1:2|0:3,0:2:0:0:
158,155,17375,1,2,0:2:0:0:
100,106,17500,2,0,P|52:96|-5:83,1,99.0000030212403,0|2,1:2|0:3,0:0:0:0:
3,85,18000,1,2,1:2:0:0:
3,85,18250,1,2,0:3:0:0:
188,29,18500,6,0,P|261:30|293:103,1,148.50000453186,2|0,1:2|0:2,0:2:0:0:
272,166,19000,2,0,P|259:213|250:279,1,99.0000030212403,2|2,1:2|0:3,0:2:0:0:
292,331,19375,1,2,0:2:0:0:
361,292,19500,2,0,P|406:278|444:308,1,99.0000030212403,0|2,1:2|0:3,0:0:0:0:
444,308,20000,1,2,1:2:0:0:
444,308,20250,1,2,0:3:0:0:
247,384,20500,6,0,P|237:334|231:281,1,99.0000030212403,2|2,1:2|0:2,0:2:0:0:
172,232,20875,2,0,P|148:227|125:234,1,49.5000015106202,2|0,0:2|1:2,0:2:0:0:
57,203,21125,2,0,P|45:181|48:157,1,49.5000015106202,2|2,0:2|0:3,0:2:0:0:
14,92,21375,1,2,0:2:0:0:
14,92,21500,2,0,P|61:109|110:83,1,99.0000030212403,0|2,1:2|0:3,0:2:0:0:
103,91,22000,1,2,1:2:0:0:
103,91,22250,1,2,0:3:0:0:
385,45,22500,6,0,L|268:20,1,99.0000030212403,2|2,1:2|0:2,0:2:0:0:
214,47,22875,2,0,P|199:65|199:90,1,49.5000015106202,2|0,0:2|1:2,0:2:0:0:
236,159,23125,2,0,P|245:179|241:207,1,49.5000015106202,2|2,0:2|0:3,0:2:0:0:
192,264,23375,1,2,0:2:0:0:
192,264,23500,2,0,P|239:246|285:279,1,99.0000030212403,0|2,1:2|0:3,0:2:0:0:
278,268,24000,1,2,1:2:0:0:
465,230,24250,2,0,P|470:203|475:179,1,49.5000015106202,2|0,0:3|0:2,0:2:0:0:
401,166,24500,6,0,P|470:166|496:101,1,148.50000453186,2|0,1:2|0:2,0:2:0:0:
465,26,25000,2,0,L|356:48,1,99.0000030212403,2|2,1:2|0:3,0:2:0:0:
295,19,25375,1,2,0:2:0:0:
236,70,25500,2,0,P|214:113|233:157,1,99.0000030212403,0|2,1:2|0:3,0:0:0:0:
232,156,26000,1,2,1:2:0:0:
232,156,26250,1,2,0:3:0:0:
91,49,26500,6,0,P|101:122|112:195,1,148.50000453186,2|0,1:2|0:2,0:2:0:0:
161,254,27000,2,0,P|121:280|75:265,1,99.0000030212403,2|2,1:2|0:3,0:2:0:0:
20,207,27375,1,2,0:2:0:0:
75,265,27500,2,0,L|51:369,1,99.0000030212403,0|2,1:2|0:3,0:0:0:0:
51,361,28000,1,2,1:2:0:0:
51,361,28250,1,2,0:3:0:0:
277,284,28500,6,0,L|398:309,1,99.0000030212403,2|2,1:2|0:2,0:2:0:0:
447,276,28875,2,0,P|460:255|461:228,1,49.5000015106202,2|0,0:2|1:2,0:2:0:0:
509,166,29125,2,0,P|502:143|505:119,1,49.5000015106202,2|2,0:2|0:3,0:2:0:0:
458,57,29375,1,2,0:2:0:0:
458,57,29500,2,0,P|418:84|370:77,1,99.0000030212403,0|2,1:2|0:3,0:2:0:0:
370,77,30000,1,2,1:2:0:0:
370,77,30250,1,2,0:3:0:0:
391,285,30500,5,2,1:3:0:0:
391,285,31000,6,0,B|312:304|312:304|274:340|317:383,1,161.999995056153,6|0,1:2|0:2,0:2:0:0:
316,383,31375,6,0,B|322:353|322:353|321:347|321:347|329:309,1,67.5000025749208,4|0,0:3|0:2,0:2:0:0:
208,198,31625,2,0,B|202:228|202:228|202:233|202:233|195:272,2,67.5000025749208,4|0|0,0:3|1:2|0:2,0:2:0:0:
288,114,32000,5,8,0:2:0:0:
337,196,32125,1,8,0:2:0:0:
415,147,32250,1,8,0:2:0:0:
372,72,32375,1,8,0:2:0:0:
288,114,32500,6,0,P|226:102|149:86,1,135.000005149842,6|0,1:2|0:2,0:2:0:0:
76,38,32875,1,0,1:2:0:0:
29,115,33000,2,0,L|41:181,1,67.5000025749208,8|0,0:2|0:2,0:2:0:0:
30,292,33250,1,2,0:2:0:0:
30,292,33375,1,2,1:2:0:0:
30,292,33500,2,0,P|83:255|141:282,1,135.000005149842,2|0,0:2|0:0,0:0:0:0:
203,353,33875,1,0,1:2:0:0:
266,278,34000,2,0,P|275:240|290:202,1,67.5000025749208,10|0,0:2|0:2,0:2:0:0:
200,120,34250,2,0,P|190:157|176:196,1,67.5000025749208,2|0,1:2|0:2,0:2:0:0:
303,79,34500,6,0,P|342:131|407:121,1,135.000005149842,2|0,1:2|0:2,0:2:0:0:
482,75,34875,1,0,1:2:0:0:
406,123,35000,2,0,P|374:181|411:237,1,135.000005149842,10|0,0:2|0:2,0:2:0:0:
482,295,35375,1,0,1:2:0:0:
482,295,35625,2,0,B|510:273|510:273|500:240,1,67.5000025749208,0|0,1:2|0:2,0:2:0:0:
406,234,35875,1,0,1:2:0:0:
338,307,36000,2,0,L|259:290,1,67.5000025749208,8|0,0:2|1:2,0:0:0:0:
182,240,36250,1,4,0:3:0:0:
266,187,36375,1,8,0:2:0:0:
177,334,36500,6,0,B|140:344|98:311|130:309|101:272|63:278,1,135.000005149842,6|0,1:2|0:2,0:2:0:0:
0,223,36875,1,0,1:2:0:0:
64,152,37000,2,0,P|55:119|48:86,1,67.5000025749208,10|0,0:2|0:2,0:2:0:0:
124,23,37250,1,2,1:2:0:0:
124,23,37375,1,2,1:2:0:0:
123,23,37500,2,0,L|199:33,1,67.5000025749208,2|0,0:2|1:2,0:2:0:0:
273,81,37750,2,0,B|299:58|299:58|283:27,1,67.5000025749208,2|0,0:2|1:2,0:2:0:0:
181,130,38000,2,0,B|229:168|229:168|239:206|205:233,1,135.000005149842,10|0,0:2|0:2,0:2:0:0:
123,281,38375,1,8,0:2:0:0:
191,352,38500,6,0,L|268:369,1,67.5000025749208,2|0,1:2|0:2,0:2:0:0:
358,282,38750,2,0,L|281:265,1,67.5000025749208,2|0,1:2|0:2,0:2:0:0:
389,384,39000,1,10,0:2:0:0:
453,317,39125,2,0,P|461:245|485:174,1,135.000005149842,0|8,1:2|0:2,0:2:0:0:
375,49,39500,5,2,1:2:0:0:
375,49,39625,1,8,0:2:0:0:
375,49,39750,2,0,P|384:81|390:114,1,67.5000025749208,2|0,1:2|0:0,0:0:0:0:
511,87,40000,2,0,P|501:52|494:2,1,67.5000025749208,10|0,0:2|1:2,0:2:0:0:
293,128,40250,1,10,0:2:0:0:
352,207,40375,1,8,0:2:0:0:
259,247,40500,6,0,P|192:239|128:260,1,135.000005149842,6|0,1:2|0:2,0:2:0:0:
53,313,40875,1,0,1:2:0:0:
128,260,41000,2,0,P|138:195|82:149,1,135.000005149842,10|0,0:2|0:2,0:2:0:0:
0,101,41375,1,0,1:2:0:0:
84,43,41500,2,0,P|117:54|152:61,1,67.5000025749208,2|0,0:2|1:2,0:2:0:0:
245,124,41750,1,2,0:2:0:0:
245,124,41875,1,0,1:2:0:0:
245,124,42000,2,0,P|289:77|353:90,1,135.000005149842,10|0,0:2|0:2,0:2:0:0:
441,43,42375,1,0,1:2:0:0:
444,156,42500,6,0,P|453:222|468:288,1,135.000005149842,2|0,1:2|0:2,0:2:0:0:
414,362,42875,1,0,1:2:0:0:
334,315,43000,2,0,P|324:248|309:182,1,135.000005149842,10|0,0:2|1:2,0:2:0:0:
220,134,43375,1,0,1:2:0:0:
148,209,43500,5,2,0:2:0:0:
55,188,43625,2,0,P|5:138|33:73,1,135.000005149842,0|0,1:2|1:2,0:2:0:0:
87,23,44000,2,0,L|164:37,1,67.5000025749208,10|0,0:2|1:2,0:2:0:0:
257,1,44250,1,8,0:2:0:0:
307,99,44375,1,8,0:2:0:0:
407,40,44500,5,8,1:3:0:0:
407,40,44750,1,4,1:3:0:0:
183,180,45000,5,8,0:3:0:0:
183,180,45250,1,4,1:3:0:0:
352,355,45500,5,8,0:2:0:0:
352,355,45750,5,0,1:2:0:0:
448,274,45875,1,8,0:2:0:0:
448,274,46125,5,0,1:2:0:0:
350,185,46250,1,12,0:2:0:0:
350,185,46500,6,0,L|357:153,1,18,2|2,1:2|0:2,0:0:0:0:
424,111,46750,2,0,L|431:79,1,18,2|2,0:2|0:2,0:0:0:0:
380,6,47000,5,2,0:2:0:0:
354,0,47125,1,2,0:2:0:0:
329,8,47250,1,2,0:2:0:0:
308,31,47375,1,2,0:2:0:0:
262,89,47500,5,2,0:2:0:0:
188,92,47625,1,2,0:2:0:0:
138,34,47750,2,0,P|109:31|76:23,1,62.9999980773926,2|2,0:2|0:2,0:2:0:0:
45,274,48000,5,10,0:2:0:0:
146,189,48125,1,10,0:2:0:0:
51,280,48250,1,10,0:2:0:0:
152,196,48375,6,0,P|232:183|285:246,1,170.999995433807,6|0,1:2|0:2,0:2:0:0:
211,362,48750,2,0,P|205:319|196:278,1,85.4999977169037,2|0,0:2|0:2,0:2:0:0:
380,278,49000,2,0,P|370:320|365:363,1,85.4999977169037,8|0,0:2|0:2,0:2:0:0:
512,157,49250,1,2,0:2:0:0:
401,172,49375,6,0,P|333:134|357:46,1,170.999995433807,2|0,1:2|0:2,0:2:0:0:
431,4,49750,2,0,B|473:18|473:18|437:45,1,85.4999977169037,2|0,0:2|0:2,0:2:0:0:
258,1,50000,2,0,L|167:21,1,85.4999977169037,10|0,0:2|0:2,0:2:0:0:
53,91,50250,2,0,B|148:108,1,85.4999977169037,2|0,0:2|0:2,0:2:0:0:
129,267,50500,6,0,P|153:232|144:192,1,85.4999977169037,2|0,1:2|0:2,0:2:0:0:
17,175,50750,2,0,P|-5:209|3:249,1,85.4999977169037,2|0,0:2|0:2,0:2:0:0:
87,354,51000,2,0,P|137:289|216:309,1,170.999995433807,10|0,0:2|0:0,0:0:0:0:
512,299,51500,5,2,1:2:0:0:
491,339,51625,1,2,0:2:0:0:
439,366,51750,1,2,0:2:0:0:
364,337,51875,1,2,0:2:0:0:
339,264,52000,2,0,P|346:220|355:175,1,85.4999977169037,10|2,0:2|0:2,0:2:0:0:
450,134,52250,1,2,0:2:0:0:
273,73,52375,6,0,B|227:57|185:89|210:106|181:147|129:137,1,170.999995433807,6|0,1:2|0:2,0:2:0:0:
114,48,52750,2,0,B|99:41|106:11|106:11|131:32|117:50,1,85.4999977169037,2|0,0:2|0:2,0:2:0:0:
268,158,53000,2,0,P|256:199|248:241,1,85.4999977169037,10|0,0:2|0:2,0:2:0:0:
38,209,53250,1,2,0:2:0:0:
30,296,53375,6,0,P|110:300|144:214,1,170.999995433807,2|0,1:2|0:2,0:2:0:0:
129,137,53750,2,0,L|46:115,1,85.4999977169037,2|0,0:2|0:2,0:2:0:0:
202,330,54000,2,0,L|290:308,1,85.4999977169037,10|0,0:2|0:2,0:2:0:0:
392,219,54250,2,0,P|423:248|423:293,1,85.4999977169037,2|0,0:2|0:2,0:2:0:0:
254,126,54500,6,0,P|235:46|302:-1,1,170.999995433807,2|2,1:2|0:2,0:2:0:0:
463,101,54875,1,2,0:2:0:0:
460,110,55000,2,0,L|371:94,1,85.4999977169037,10|0,0:2|0:2,0:2:0:0:
300,0,55250,1,2,0:2:0:0:
254,126,55375,6,0,B|218:138|218:138|175:223|175:223|138:234,1,170.999995433807,4|8,1:2|0:2,0:2:0:0:
20,102,55750,2,0,B|58:112|58:112|62:115|62:115|104:126,1,85.4999977169037,2|0,1:2|0:2,0:2:0:0:
287,212,56000,5,10,0:2:0:0:
138,233,56125,1,10,0:2:0:0:
289,224,56250,1,10,0:2:0:0:
141,245,56375,6,0,P|69:287|84:380,1,170.999995433807,6|0,1:2|0:2,0:2:0:0:
174,339,56750,2,0,L|263:363,1,85.4999977169037,2|0,0:2|0:2,0:2:0:0:
372,202,57000,2,0,L|283:226,1,85.4999977169037,10|0,0:2|0:2,0:2:0:0:
480,359,57250,1,2,0:2:0:0:
389,371,57375,6,0,P|405:290|485:263,1,170.999995433807,2|0,1:2|0:2,0:2:0:0:
512,174,57750,2,0,P|496:129|487:85,1,85.4999977169037,2|0,0:2|0:2,0:2:0:0:
334,21,58000,2,0,P|291:12|254:43,1,85.4999977169037,10|0,0:2|0:2,0:2:0:0:
286,164,58250,2,0,P|328:173|365:141,1,85.4999977169037,2|2,0:2|0:2,0:0:0:0:
150,118,58500,6,0,B|102:116|79:164|106:172|94:227|44:230,1,170.999995433807,2|2,1:2|0:2,0:2:0:0:
332,320,59000,1,10,0:2:0:0:
248,374,59125,2,0,P|224:335|236:295,1,85.4999977169037,2|0,0:2|0:2,0:2:0:0:
376,234,59375,6,0,P|429:282|413:381,1,170.999995433807,2|0,1:2|0:2,0:2:0:0:
496,154,59750,1,2,0:2:0:0:
496,154,59875,1,2,0:2:0:0:
496,154,60000,2,0,L|513:65,1,85.4999977169037,10|0,0:2|0:2,0:2:0:0:
362,0,60250,2,0,L|345:83,1,85.4999977169037,2|0,1:2|0:2,0:2:0:0:
376,234,60500,6,0,P|341:206|299:212,1,85.4999977169037,6|0,1:2|0:2,0:2:0:0:
140,277,60750,2,0,P|98:280|66:254,1,85.4999977169037,2|0,0:2|0:2,0:2:0:0:
112,145,61000,2,0,P|153:141|185:167,1,85.4999977169037,10|0,0:2|0:2,0:2:0:0:
270,315,61250,2,0,P|302:341|343:337,1,85.4999977169037,2|2,0:2|0:2,0:0:0:0:
469,172,61500,5,2,1:2:0:0:
465,262,61625,2,0,P|382:228|381:151,1,170.999995433807,8|0,0:2|0:2,0:2:0:0:
281,20,62000,1,2,1:2:0:0:
281,20,62125,1,8,0:2:0:0:
281,20,62250,2,0,L|376:42,1,85.4999977169037,8|4,0:3|0:3,0:2:0:0:
145,209,62500,5,6,1:2:0:0:
145,209,62750,5,8,0:2:0:0:
94,92,62875,1,4,1:2:0:0:
305,341,63125,5,8,0:2:0:0:
350,223,63250,1,4,1:2:0:0:
350,223,63750,6,0,P|344:196|340:160,1,58.4999973220826,2|0,0:2|0:2,0:2:0:0:
491,286,64000,5,10,0:2:0:0:
373,348,64125,1,10,0:2:0:0:
491,294,64250,1,10,0:2:0:0:
370,357,64375,6,0,B|319:374|282:335|312:332|268:283|221:305,1,170.999995433807,6|0,1:2|0:2,0:2:0:0:
106,313,64750,2,0,B|76:305|71:326|71:326|85:341|107:317,1,85.4999977169037,2|0,0:2|0:2,0:2:0:0:
192,217,65000,2,0,P|199:174|208:133,1,85.4999977169037,10|0,0:2|0:2,0:2:0:0:
35,42,65250,1,2,0:2:0:0:
0,126,65375,6,0,P|81:133|124:64,1,170.999995433807,2|0,1:2|0:2,0:2:0:0:
209,2,65750,2,0,P|253:11|308:22,1,85.4999977169037,2|0,0:2|0:2,0:2:0:0:
434,113,66000,2,0,P|448:151|431:189,1,85.4999977169037,10|0,0:2|0:2,0:2:0:0:
303,189,66250,2,0,P|287:149|304:111,1,85.4999977169037,2|0,0:2|0:2,0:2:0:0:
450,321,66500,6,0,P|371:294|314:360,1,170.999995433807,2|0,1:2|0:2,0:2:0:0:
94,98,67000,1,10,0:2:0:0:
191,70,67125,2,0,P|178:104|164:171,1,85.4999977169037,2|0,0:2|0:2,0:2:0:0:
12,200,67375,1,2,0:2:0:0:
0,220,67500,5,2,1:2:0:0:
8,251,67625,1,2,0:2:0:0:
51,274,67750,1,2,0:2:0:0:
118,236,67875,1,2,0:2:0:0:
188,266,68000,1,10,0:2:0:0:
183,344,68125,2,0,P|138:352|91:369,1,85.4999977169037,2|2,0:2|0:2,0:2:0:0:
282,251,68375,6,0,P|371:264|458:292,1,170.999995433807,6|0,1:2|0:2,0:2:0:0:
507,201,68750,2,0,B|513:159|513:159|474:186,1,85.4999977169037,2|0,0:2|0:2,0:2:0:0:
307,343,69000,2,0,P|348:350|391:365,1,85.4999977169037,10|0,0:2|0:2,0:2:0:0:
349,175,69250,1,2,0:2:0:0:
282,251,69375,6,0,P|201:255|170:181,1,170.999995433807,2|0,1:2|0:2,0:2:0:0:
207,92,69750,2,0,P|244:73|284:88,1,85.4999977169037,2|0,0:2|0:2,0:2:0:0:
76,170,70000,2,0,P|38:188|-1:174,1,85.4999977169037,10|0,0:2|0:2,0:2:0:0:
83,0,70250,2,0,L|115:94,1,85.4999977169037,2|0,0:2|0:2,0:2:0:0:
282,251,70500,6,0,P|289:205|297:167,1,85.4999977169037,2|0,1:2|0:2,0:2:0:0:
153,333,70750,2,0,P|139:288|119:241,1,85.4999977169037,2|0,0:2|0:2,0:2:0:0:
315,382,71000,1,10,0:2:0:0:
388,317,71125,2,0,P|429:339|468:323,1,85.4999977169037,2|0,0:2|0:2,0:2:0:0:
296,165,71375,6,0,P|230:118|155:152,1,170.999995433807,6|8,1:2|0:2,0:2:0:0:
37,262,71750,2,0,B|26:226|26:226|26:220|26:220|14:171,2,85.4999977169037,0|4|8,1:2|0:3|0:2,0:2:0:0:
154,152,72125,1,10,0:2:0:0:
51,77,72250,1,10,0:2:0:0:
162,145,72375,6,0,P|226:125|330:117,1,170.999995433807,6|0,1:2|0:2,0:2:0:0:
428,139,72750,2,0,P|455:170|451:211,1,85.4999977169037,2|0,0:2|0:2,0:2:0:0:
304,308,73000,2,0,P|276:276|280:235,1,85.4999977169037,10|0,0:2|0:2,0:2:0:0:
483,332,73250,1,2,0:2:0:0:
391,383,73375,6,0,P|323:336|250:378,1,170.999995433807,2|0,1:2|0:2,0:2:0:0:
155,351,73750,2,0,L|138:260,1,85.4999977169037,2|0,0:2|0:2,0:2:0:0:
185,97,74000,2,0,P|197:57|173:24,1,85.4999977169037,10|0,0:2|0:2,0:2:0:0:
44,49,74250,2,0,P|31:88|55:121,1,85.4999977169037,2|0,0:2|0:2,0:2:0:0:
258,158,74500,6,0,B|317:171|338:119|316:109|361:75|399:95,1,170.999995433807,2|0,1:2|0:2,0:2:0:0:
254,361,75000,1,10,0:2:0:0:
351,377,75125,2,0,P|355:335|328:303,1,85.4999977169037,2|0,0:2|0:2,0:2:0:0:
178,269,75375,6,0,P|85:285|-5:316,1,170.999995433807,2|0,1:2|0:2,0:2:0:0:
6,144,75750,1,2,0:2:0:0:
6,144,75875,1,2,0:2:0:0:
6,144,76000,2,0,P|43:154|107:164,1,85.4999977169037,10|0,0:2|0:2,0:2:0:0:
124,18,76250,2,0,P|81:10|40:0,1,85.4999977169037,2|0,1:2|0:2,0:2:0:0:
313,163,76500,6,0,P|339:130|332:89,1,85.4999977169037,6|0,1:2|0:2,0:2:0:0:
208,69,76750,2,0,P|182:101|189:142,1,85.4999977169037,2|0,0:2|0:2,0:2:0:0:
95,285,77000,2,0,P|138:277|193:267,1,85.4999977169037,10|0,0:2|0:2,0:2:0:0:
339,372,77250,2,0,P|297:364|255:357,1,85.4999977169037,2|0,0:2|0:2,0:2:0:0:
369,230,77500,5,2,1:2:0:0:
432,303,77625,2,0,P|496:253|485:172,1,170.999995433807,8|0,0:2|0:2,0:2:0:0:
339,56,78000,1,10,0:2:0:0:
339,56,78125,1,4,0:3:0:0:
339,56,78250,2,0,L|440:33,1,85.4999977169037,8|0,0:3|0:2,0:2:0:0:
207,168,78500,5,6,1:2:0:0:
207,168,78750,5,8,0:2:0:0:
161,55,78875,1,4,1:2:0:0:
338,358,79125,5,8,0:2:0:0:
409,248,79250,2,0,B|372:162|297:158|254:217|279:256|301:275|326:266,1,225,4|0,1:2|0:2,0:2:0:0:
311,267,80000,5,8,0:3:0:0:
200,244,80125,1,8,0:3:0:0:
200,244,80375,6,0,P|170:308|98:308,1,153.000002918243,6|0,1:2|0:2,0:2:0:0:
15,269,80750,2,0,P|8:225|-1:193,1,76.5000014591217,2|0,1:2|0:2,0:2:0:0:
42,108,81000,2,0,P|80:102|118:94,1,76.5000014591217,10|0,0:2|0:2,0:2:0:0:
171,4,81250,1,2,1:2:0:0:
267,89,81375,6,0,B|305:101|305:101|338:172|338:172|370:184,1,153.000002918243,6|0,1:2|0:2,0:2:0:0:
493,260,81750,1,8,0:2:0:0:
493,260,82000,2,0,B|524:235|524:235|499:191,1,76.5000014591217,6|0,1:2|0:2,0:2:0:0:
364,328,82250,1,10,0:2:0:0:
286,277,82375,6,0,P|206:273|171:352,1,153.000002918243,6|0,1:2|0:2,0:2:0:0:
46,183,82750,2,0,L|123:206,1,76.5000014591217,8|4,0:3|0:3,0:2:0:0:
236,111,83000,1,8,0:2:0:0:
179,35,83125,1,8,0:3:0:0:
139,110,83250,1,4,0:3:0:0:
236,111,83375,2,0,B|271:103|271:103|274:100|274:100|309:93,1,76.5000014591217,10|0,0:2|0:2,0:2:0:0:
399,194,83625,6,2,B|479:207|552:178|536:119|525:73|448:35|357:64|350:153|389:205|479:219|497:297|438:363|364:382|288:368|249:338|233:300|239:232|278:213|328:210|338:257,1,693.000021148682,6|0,1:2|1:2,0:1:0:0:
331,241,85500,5,14,0:2:0:0:
256,192,85625,12,0,86625,0:2:0:0:
