osu file format v14

[General]
AudioFilename: Music.mp3
AudioLeadIn: 2000
PreviewTime: 17182
Countdown: 0
SampleSet: Soft
StackLeniency: 0.7
Mode: 0
LetterboxInBreaks: 0
WidescreenStoryboard: 0

[Editor]
Bookmarks: 8957,17182,41684,52446
DistanceSpacing: 1.2
BeatDivisor: 4
GridSize: 4
TimelineZoom: 1.3

[Metadata]
Title:Niji no Kanata no Shoujo
TitleUnicode:虹の彼方の少女
Artist:Akiyama Hirokazu
ArtistUnicode:秋山裕和
Creator:kamisamaaa
Version:Hard
Source:美少女万華鏡 -神が造りたもうた少女たち-
Tags:ωstar
BeatmapID:724247
BeatmapSetID:326134

[Difficulty]
HPDrainRate:7
CircleSize:4
OverallDifficulty:6.5
ApproachRate:8
SliderMultiplier:1.4
SliderTickRate:1

[Events]
//Background and Video events
0,0,"01.png",0,0
//Break Periods
//Storyboard Layer 0 (Background)
//Storyboard Layer 1 (Fail)
//Storyboard Layer 2 (Pass)
//Storyboard Layer 3 (Foreground)
//Storyboard Layer 4 (Overlay)
//Storyboard Sound Samples

[TimingPoints]
230,545.454545454546,4,2,1,20,1,0
2889,-100,4,2,1,5,0,0
2957,-100,4,2,1,20,0,0
7252,-100,4,2,1,5,0,0
7320,-100,4,2,1,20,0,0
11616,-100,4,2,1,5,0,0
11684,-100,4,2,1,20,0,0
13798,-100,4,2,1,5,0,0
13866,-100,4,2,1,20,0,0
17684,-100,4,2,1,40,0,0
18161,-100,4,2,1,5,0,0
18230,-100,4,2,1,40,0,0
18707,-100,4,2,1,5,0,0
18775,-100,4,2,1,40,0,0
22525,-100,4,2,1,5,0,0
22593,-100,4,2,1,40,0,0
23070,-100,4,2,1,5,0,0
23139,-100,4,2,1,40,0,0
26889,-100,4,2,1,5,0,0
26957,-100,4,2,1,40,0,0
27434,-100,4,2,1,5,0,0
27502,-100,4,2,1,40,0,0
33502,-125,4,2,1,40,0,0
34048,-166.666666666667,4,2,1,40,0,0
34593,-250,4,2,1,40,0,0
35139,-100,4,2,1,40,0,0
50411,566.037735849057,4,2,1,20,1,0
52675,545.454545454546,4,2,1,20,1,0
70135,545.454545454546,4,2,1,20,1,0
71089,-100,4,2,1,5,0,0
71225,-100,4,2,1,20,0,0
71635,-100,4,2,1,5,0,0
71771,-100,4,2,1,20,0,0
72180,-100,4,2,1,5,0,0
72316,-100,4,2,1,20,0,0
75453,-100,4,2,1,5,0,0
75589,-100,4,2,1,20,0,0
75998,-100,4,2,1,5,0,0
76135,-100,4,2,1,20,0,0
76544,-100,4,2,1,5,0,0
76680,-100,4,2,1,20,0,0
79816,-100,4,2,1,5,0,0
79953,-100,4,2,1,20,0,0
80362,-100,4,2,1,5,0,0
80498,-100,4,2,1,20,0,0
80907,-100,4,2,1,5,0,0
81044,-100,4,2,1,20,0,0
83225,566.037735849057,4,2,1,20,1,0
83649,-100,4,2,1,5,0,0
83791,-100,4,2,1,20,0,0
84215,-100,4,2,1,5,0,0
84357,-100,4,2,1,20,0,0
84781,-100,4,2,1,5,0,0
84923,-100,4,2,1,20,0,0
85347,-100,4,2,1,5,0,0
85489,571.428571428571,4,2,1,20,1,0
85489,-100,4,2,1,20,0,0
86060,576.923076923077,4,2,1,20,1,0
86060,-117.647058823529,4,2,1,20,0,0
86636,631.578947368421,4,2,1,20,1,0
86636,-166.666666666667,4,2,1,20,0,0
87267,937.5,4,2,1,20,1,0
87267,-222.222222222222,4,2,1,20,0,0
88204,594.059405940594,4,2,1,20,1,0
88204,-133.333333333333,4,2,1,20,0,0
90580,612.244897959184,4,2,1,20,1,0
92416,631.578947368421,4,2,1,20,1,0
92731,338.983050847458,4,2,1,20,1,0
95779,-100,4,2,1,5,0,0

[HitObjects]
118,225,230,5,0,0:0:0:0:
282,191,502,1,0,0:0:0:0:
200,171,775,2,0,P|200:209|217:245,1,70
360,342,1320,1,0,0:0:0:0:
282,191,1592,1,0,0:0:0:0:
284,275,1865,2,0,P|320:265|351:239,1,70
252,112,2411,6,0,P|313:113|356:152,1,122.5
371,167,2957,2,0,P|408:174|443:165,1,70
406,93,3502,1,0,0:0:0:0:
345,245,3775,1,0,0:0:0:0:
439,166,4048,1,0,0:0:0:0:
282,191,4320,1,0,0:0:0:0:
358,341,4593,5,0,0:0:0:0:
282,191,4865,1,0,0:0:0:0:
284,275,5138,2,0,P|320:265|351:239,1,70
408,76,5684,1,0,0:0:0:0:
282,191,5955,1,0,0:0:0:0:
363,167,6228,2,0,P|344:134|311:111,1,70
214,240,6774,6,0,P|199:180|225:129,1,122.5
238,111,7320,1,0,0:0:0:0:
131,252,7593,1,0,0:0:0:0:
155,96,7865,1,0,0:0:0:0:
282,191,8138,1,0,0:0:0:0:
217,46,8411,2,0,P|189:22|147:15,1,70
1,162,8957,5,0,0:0:0:0:
155,96,9229,1,0,0:0:0:0:
72,92,9502,2,0,P|79:128|103:161,1,70
309,162,10048,1,0,0:0:0:0:
155,96,10320,1,0,0:0:0:0:
238,92,10593,2,0,P|230:128|206:161,1,70
54,227,11139,6,0,P|115:209|174:229,1,122.5
185,240,11684,2,0,P|216:258|254:255,1,70
332,244,12230,1,0,0:0:0:0:
115,296,12502,1,0,0:0:0:0:
235,180,12775,1,0,0:0:0:0:
302,323,13048,1,0,0:0:0:0:
501,358,13320,6,0,P|446:309|386:317,1,122.5
380,318,13866,1,0,0:0:0:0:
512,278,14139,1,0,0:0:0:0:
427,384,14411,1,0,0:0:0:0:
492,196,14684,1,0,0:0:0:0:
296,233,14957,1,0,0:0:0:0:
404,347,15230,1,0,0:0:0:0:
471,155,15502,5,0,0:0:0:0:
404,347,15775,1,0,0:0:0:0:
345,152,16048,1,0,0:0:0:0:
512,278,16320,1,0,0:0:0:0:
304,272,16593,1,0,0:0:0:0:
304,272,17411,1,0,0:0:0:0:
248,182,17684,6,0,P|192:161|132:177,1,122.5
132,202,18230,2,0,P|73:217|17:196,1,122.5
11,170,18775,2,0,B|27:241|5:316,1,140
100,357,19593,1,0,0:0:0:0:
7,308,19866,5,0,0:0:0:0:
189,301,20139,1,0,0:0:0:0:
100,357,20412,1,0,0:0:0:0:
186,196,20684,1,0,0:0:0:0:
189,301,20957,2,0,P|225:312|265:299,1,70
328,380,21502,2,0,P|361:372|394:383,1,70
354,286,22048,6,0,P|333:230|349:170,1,122.5
374,170,22594,2,0,P|389:111|368:55,1,122.5
351,34,23139,1,0,0:0:0:0:
289,118,23412,1,0,0:0:0:0:
185,108,23684,1,0,0:0:0:0:
140,14,23957,1,0,0:0:0:0:
243,51,24230,6,0,P|263:82|267:117,1,70
123,170,24775,2,0,P|103:139|99:104,1,70
267,114,25320,1,0,0:0:0:0:
98,106,25593,1,0,0:0:0:0:
237,215,25866,1,0,0:0:0:0:
186,48,26139,1,0,0:0:0:0:
28,45,26411,6,0,P|7:101|23:161,1,122.5
48,161,26957,2,0,P|63:219|42:275,1,122.5
16,282,27502,2,0,B|87:266|162:288,1,140
251,326,28320,1,0,0:0:0:0:
252,222,28593,5,0,0:0:0:0:
162,381,28866,1,0,0:0:0:0:
160,169,29139,1,0,0:0:0:0:
251,326,29411,1,0,0:0:0:0:
252,222,29684,2,0,P|284:215|329:225,1,70
425,318,30230,2,0,P|391:325|357:319,1,70
412,142,30775,6,0,P|422:176|417:210,1,70
310,121,31320,2,0,P|300:77|311:41,1,70
412,142,31866,1,0,0:0:0:0:
326,203,32139,1,0,0:0:0:0:
221,203,32411,1,0,0:0:0:0:
135,142,32684,1,0,0:0:0:0:
377,81,32957,6,0,L|414:145,1,70
316,147,33502,6,0,L|327:211,1,56
228,161,34048,6,0,L|217:220,1,41.9999987182618
149,117,34593,6,0,L|129:151,1,28
39,77,35139,5,0,0:0:0:0:
39,97,35411,1,0,0:0:0:0:
134,141,35684,1,0,0:0:0:0:
134,161,35956,1,0,0:0:0:0:
39,205,36230,1,0,0:0:0:0:
39,225,36502,1,0,0:0:0:0:
134,269,36775,1,0,0:0:0:0:
134,289,37047,1,0,0:0:0:0:
29,364,37320,6,0,P|70:359|101:369,1,70
201,380,37866,2,0,P|226:347|255:332,1,70
355,349,38411,2,0,P|324:293|340:209,1,140
390,131,39230,1,0,0:0:0:0:
459,237,39502,5,0,0:0:0:0:
440,234,39774,1,0,0:0:0:0:
409,135,40048,1,0,0:0:0:0:
390,131,40320,1,0,0:0:0:0:
332,220,40593,1,0,0:0:0:0:
312,217,40865,1,0,0:0:0:0:
283,116,41139,1,0,0:0:0:0:
264,116,41411,1,0,0:0:0:0:
206,201,41684,6,0,P|177:174|163:135,1,70
62,166,42230,2,0,P|60:126|78:88,1,70
165,146,42775,2,0,P|167:185|150:223,1,70
244,272,43321,2,0,P|217:301|178:316,1,70
290,345,43866,5,0,0:0:0:0:
302,361,44139,1,0,0:0:0:0:
389,303,44411,1,0,0:0:0:0:
391,322,44684,1,0,0:0:0:0:
497,323,44957,2,0,P|467:253|484:188,1,140
506,91,45775,1,0,0:0:0:0:
406,123,46048,5,0,0:0:0:0:
385,128,46320,1,0,0:0:0:0:
313,50,46593,1,0,0:0:0:0:
296,64,46865,1,0,0:0:0:0:
193,40,47139,2,0,P|197:74|186:107,1,70
275,164,47684,2,0,P|264:196|267:238,1,70
371,210,48230,5,0,0:0:0:0:
161,209,48502,1,0,0:0:0:0:
265,231,48775,1,0,0:0:0:0:
186,107,49048,1,0,0:0:0:0:
87,71,49320,2,0,P|80:113|86:144,1,70
161,209,49866,1,0,0:0:0:0:
161,209,50411,6,0,P|158:250|171:283,1,70
370,253,50977,2,0,P|373:212|360:179,1,70
265,231,51543,1,0,0:0:0:0:
265,231,52675,6,0,P|281:297|349:339,1,140
388,270,53493,1,0,0:0:0:0:
375,352,53765,2,0,P|440:371|511:333,1,140
502,342,54856,5,0,0:0:0:0:
388,270,55129,1,0,0:0:0:0:
472,263,55402,1,0,0:0:0:0:
342,198,55675,1,0,0:0:0:0:
388,270,55947,5,0,0:0:0:0:
265,231,56220,1,0,0:0:0:0:
367,118,56493,1,0,0:0:0:0:
259,210,56765,1,0,0:0:0:0:
240,48,57038,6,0,P|279:103|266:182,1,140
189,165,57856,1,0,0:0:0:0:
259,210,58128,2,0,P|230:272|155:300,1,140
168,299,59219,5,0,0:0:0:0:
189,165,59492,1,0,0:0:0:0:
128,225,59765,1,0,0:0:0:0:
164,83,60038,1,0,0:0:0:0:
189,165,60310,5,0,0:0:0:0:
240,48,60583,1,0,0:0:0:0:
87,50,60856,1,0,0:0:0:0:
227,29,61128,1,0,0:0:0:0:
86,50,61402,6,0,P|53:109|75:175,1,140
140,118,62220,1,0,0:0:0:0:
207,61,62493,2,0,P|227:126|194:186,1,140
194,185,63584,5,0,0:0:0:0:
74,174,63856,1,0,0:0:0:0:
140,118,64129,1,0,0:0:0:0:
129,238,64402,1,0,0:0:0:0:
63,94,64675,5,0,0:0:0:0:
221,108,64947,1,0,0:0:0:0:
129,238,65220,1,0,0:0:0:0:
221,108,65493,1,0,0:0:0:0:
411,71,65765,6,0,P|430:136|394:195,1,140
343,124,66583,1,0,0:0:0:0:
290,54,66856,2,0,P|255:112|274:178,1,140
275,177,67947,5,0,0:0:0:0:
395,193,68219,1,0,0:0:0:0:
343,124,68492,1,0,0:0:0:0:
327,243,68765,1,0,0:0:0:0:
423,118,69038,5,0,0:0:0:0:
266,96,69310,1,0,0:0:0:0:
327,243,69583,1,0,0:0:0:0:
266,96,69856,1,0,0:0:0:0:
112,45,70135,5,0,0:0:0:0:
112,45,70680,2,0,P|119:100|95:151,1,105
58,151,71225,2,0,P|91:195|96:251,1,105
64,269,71771,2,0,P|115:290|147:336,1,105
161,367,72316,5,0,0:0:0:0:
180,252,72589,1,0,0:0:0:0:
58,362,72862,1,0,0:0:0:0:
233,320,73135,1,0,0:0:0:0:
407,364,73407,5,0,0:0:0:0:
352,215,73680,1,0,0:0:0:0:
233,320,73953,1,0,0:0:0:0:
339,183,74225,1,0,0:0:0:0:
512,180,74498,5,0,0:0:0:0:
512,180,75044,2,0,P|458:165|420:124,1,105
432,87,75589,2,0,P|378:101|324:84,1,105
321,49,76135,2,0,P|281:88|227:100,1,105
193,102,76680,5,0,0:0:0:0:
292,164,76953,1,0,0:0:0:0:
237,9,77226,1,0,0:0:0:0:
210,187,77499,1,0,0:0:0:0:
84,78,77771,5,0,0:0:0:0:
235,101,78044,1,0,0:0:0:0:
51,155,78316,1,0,0:0:0:0:
166,55,78589,1,0,0:0:0:0:
185,273,78862,5,0,0:0:0:0:
185,273,79407,2,0,P|238:260|292:278,1,105
299,317,79952,2,0,P|339:279|394:268,1,105
415,298,80498,2,0,P|430:244|473:208,1,105
502,190,81044,5,0,0:0:0:0:
358,90,81316,1,0,0:0:0:0:
182,90,81589,1,0,0:0:0:0:
38,190,81861,1,0,0:0:0:0:
124,296,82135,5,0,0:0:0:0:
210,356,82407,1,0,0:0:0:0:
316,356,82680,1,0,0:0:0:0:
403,296,82952,1,0,0:0:0:0:
438,197,83225,6,0,P|415:249|398:312,1,105
403,296,83791,2,0,P|355:326|304:368,1,105
316,356,84357,2,0,P|259:353|193:358,1,105
211,355,84923,2,0,P|166:320|109:286,1,105
107,256,85489,6,0,L|142:195,1,70
211,236,86060,6,0,L|222:177,1,59.5000011348725,0|0,2:0|2:0,2:0:0:0:
301,183,86636,6,0,L|294:141,1,41.9999987182618
365,115,87267,6,0,L|349:87,1,31.4999990386963
349,87,88204,6,0,P|298:64|244:82,1,105.000004005432
134,119,89392,2,0,P|83:130|37:107,1,105.000004005432
93,30,90580,5,0,0:0:0:0:
31,231,91192,2,0,P|60:201|73:168,1,70
134,119,91804,2,0,L|161:193,1,70
115,263,92416,2,0,P|155:261|187:278,1,70
256,192,93408,12,0,96120,0:0:0:0:
