osu file format v14

[General]
AudioFilename: audio.mp3
AudioLeadIn: 0
PreviewTime: 397
Countdown: 0
SampleSet: Soft
StackLeniency: 0.4
Mode: 0
LetterboxInBreaks: 0
WidescreenStoryboard: 1

[Editor]
Bookmarks: 12904
DistanceSpacing: 1
BeatDivisor: 4
GridSize: 4
TimelineZoom: 1

[Metadata]
Title:London no Shi
TitleUnicode:ロンドンの死
Artist:Akiyama Hirokazu
ArtistUnicode:秋山裕和
Creator:Imakuri
Version:Nely's Normal
Source:Misao
Tags:操 main theme ost horror video game instrumental xinely
BeatmapID:2327849
BeatmapSetID:1113832

[Difficulty]
HPDrainRate:4
CircleSize:3
OverallDifficulty:4
ApproachRate:5
SliderMultiplier:1.3
SliderTickRate:1

[Events]
//Background and Video events
0,0,"DN4ypP0UMAAiPyc.jpg",0,0
//Break Periods
//Storyboard Layer 0 (Background)
//Storyboard Layer 1 (Fail)
//Storyboard Layer 2 (Pass)
//Storyboard Layer 3 (Foreground)
//Storyboard Layer 4 (Overlay)
//Storyboard Sound Samples

[TimingPoints]
397,500,3,2,1,75,1,0
877,500,3,2,1,75,1,0
2397,500,3,2,1,75,1,8
2897,480,3,2,1,75,1,8
3377,500,3,2,1,75,1,8
4377,533.333333333333,3,2,1,75,1,8
5397,500,3,2,1,75,1,8
5897,480,3,2,1,75,1,8
6377,500,3,2,1,75,1,8
6877,500,3,2,1,75,1,0
7377,533.333333333333,3,2,1,75,1,8
8397,500,3,2,1,75,1,8
8897,480,3,2,1,75,1,8
9377,500,3,2,1,75,1,8
11397,500,3,2,1,75,1,8
11897,510.63829787234,3,2,1,75,1,8
12407,441.176470588235,3,2,1,75,1,8
12627,500,3,2,1,75,1,0
12877,500,3,2,1,75,1,0
14397,500,3,2,1,75,1,8
15377,500,3,2,1,75,1,8
15877,500,3,2,1,75,1,8
17397,500,3,2,1,75,1,0
18377,500,3,2,1,75,1,8
18877,500,3,2,1,75,1,0
20397,500,3,2,1,75,1,8
21377,500,3,2,1,75,1,8
21877,500,3,2,1,75,1,8
23397,500,3,2,1,75,1,8
24937,500,3,2,1,75,1,0
32937,477.13717693837,3,2,1,75,1,8
33414,500,3,2,1,15,1,8
33937,500,3,2,1,75,1,8
35937,477.13717693837,3,2,1,75,1,8
36414,500,3,2,1,15,1,8
36937,500,3,2,1,75,1,0
36937,-90.9090909090909,3,2,1,75,0,1
48912,500,3,2,1,75,1,0
48912,-100,3,2,1,75,0,0
72412,-100,3,2,1,60,0,0
72912,-100,3,2,1,50,0,0
73412,-100,3,2,1,40,0,0
73912,-100,3,2,1,30,0,0
74412,-100,3,2,1,20,0,0
74912,-100,3,2,1,10,0,0
75412,-100,3,2,1,5,0,0

[Colours]
Combo1 : 157,79,79
Combo2 : 130,61,156
Combo3 : 128,128,128
Combo4 : 168,0,0

[HitObjects]
225,145,397,5,0,0:0:0:0:
345,192,877,2,0,P|403:205|492:171,2,130,2|2|0,0:0|0:0|0:0,0:0:0:0:
225,145,2397,2,0,P|159:119|93:125,1,130,6|4,0:0|0:0,0:0:0:0:
24,228,3377,1,2,0:0:0:0:
81,345,3877,6,0,P|137:365|216:348,1,130,2|2,0:0|0:0,0:0:0:0:
294,259,4910,1,0,0:0:0:0:
200,175,5397,2,0,P|190:116|206:39,1,130,6|4,0:0|0:0,0:0:0:0:
322,12,6377,1,2,0:0:0:0:
444,52,6877,6,0,P|461:119|440:199,1,130,2|2,0:0|0:0,0:0:0:0:
341,247,7910,1,0,0:0:0:0:
407,355,8397,2,0,B|341:368|341:368|278:355,1,130,6|4,0:0|0:0,0:0:0:0:
157,337,9377,1,2,0:0:0:0:
72,239,9877,6,0,P|64:192|79:92,1,130,2|2,0:0|0:0,0:0:0:0:
200,83,10877,2,0,P|233:98|281:100,1,65,0|0,0:0|0:0,0:0:0:0:
322,87,11397,2,0,B|383:74|383:74|460:101,1,130,6|4,0:0|0:0,0:0:0:0:
473,223,12407,2,0,L|472:307,1,65,2|0,0:0|0:0,0:0:0:0:
422,329,12877,6,0,P|379:356|336:352,1,65,2|0,0:0|0:0,0:0:0:0:
301,344,13377,2,0,P|268:341|224:346,2,65,2|0|2,0:0|0:0|0:0,0:0:0:0:
371,234,14397,1,6,0:0:0:0:
241,245,14897,1,6,0:0:0:0:
51,79,15877,6,0,P|94:52|137:56,1,65,2|0,0:0|0:0,0:0:0:0:
173,54,16377,2,0,L|250:56,1,65,2|0,0:0|0:0,0:0:0:0:
295,84,16877,2,0,L|372:86,1,65,2|2,0:0|0:0,0:0:0:0:
430,86,17397,1,6,0:0:0:0:
480,204,17897,1,6,0:0:0:0:
259,340,18877,6,0,L|179:338,1,65,2|0,0:0|0:0,0:0:0:0:
141,300,19377,2,0,P|127:243|130:222,2,65,2|0|2,0:0|0:0|0:0,0:0:0:0:
259,233,20397,1,6,0:0:0:0:
343,132,20897,1,6,0:0:0:0:
98,64,21877,6,0,P|53:67|13:87,1,65,2|0,0:0|0:0,0:0:0:0:
12,135,22377,2,0,L|17:214,1,65,2|0,0:0|0:0,0:0:0:0:
25,264,22877,2,0,P|50:298|93:314,1,65,2|2,0:0|0:0,0:0:0:0:
131,343,23397,1,6,0:0:0:0:
208,238,23897,1,6,0:0:0:0:
442,124,24937,6,0,P|442:65|435:44,1,65,2|0,0:0|0:0,0:0:0:0:
381,31,25437,2,0,L|305:31,1,65,2|2,0:0|0:0,0:0:0:0:
263,69,25937,2,0,P|236:87|196:88,1,65,0|2,0:0|0:0,0:0:0:0:
144,63,26437,1,6,0:0:0:0:
39,140,26937,2,0,P|26:221|51:289,1,130,6|0,0:0|0:0,0:0:0:0:
144,341,27937,5,2,0:0:0:0:
207,353,28187,1,0,0:0:0:0:
261,317,28437,2,0,P|289:309|341:312,1,65,2|2,0:0|0:0,0:0:0:0:
386,330,28937,2,0,P|454:344|477:338,1,65,0|2,0:0|0:0,0:0:0:0:
490,295,29437,2,0,B|472:237|472:237|480:157,1,130,6|6,0:0|0:0,0:0:0:0:
248,46,30937,6,0,L|169:45,1,65,2|0,0:0|0:0,0:0:0:0:
122,69,31437,2,0,P|113:107|122:145,1,65,2|2,0:0|0:0,0:0:0:0:
154,185,31937,2,0,P|164:232|157:264,1,65,0|2,0:0|0:0,0:0:0:0:
110,288,32437,1,6,0:0:0:0:
227,342,32937,2,0,L|360:344,1,130,6|0,0:0|0:0,0:0:0:0:
469,268,33937,5,2,0:0:0:0:
496,209,34187,1,0,0:0:0:0:
448,165,34437,2,0,P|417:183|379:189,1,65,2|2,0:0|0:0,0:0:0:0:
325,173,34937,2,0,P|287:174|253:188,1,65,0|2,0:0|0:0,0:0:0:0:
205,214,35437,1,6,0:0:0:0:
72,187,35937,2,0,P|67:139|83:46,1,130,6|0,0:0|0:0,0:0:0:0:
220,40,36937,6,0,L|318:41,1,71.5000021820069,2|2,0:0|0:0,0:0:0:0:
353,100,37437,2,0,P|358:143|343:189,1,71.5000021820069,2|2,0:0|0:0,0:0:0:0:
287,227,37937,2,0,P|240:224|196:229,1,71.5000021820069,4|0,0:0|0:0,0:0:0:0:
131,240,38437,2,0,L|122:154,2,71.5000021820069,6|2|6,0:0|0:0|0:0,0:0:0:0:
244,330,39437,1,0,0:0:0:0:
377,263,39937,6,0,P|412:255|452:254,1,71.5000021820069,2|2,0:0|0:0,0:0:0:0:
483,175,40437,2,0,P|480:139|468:95,1,71.5000021820069,2|2,0:0|0:0,0:0:0:0:
421,34,40937,2,0,P|388:48|334:46,1,71.5000021820069,4|0,0:0|0:0,0:0:0:0:
271,77,41437,2,0,P|256:114|258:167,1,71.5000021820069,6|2,0:0|0:0,0:0:0:0:
200,212,41937,2,0,L|121:213,2,71.5000021820069,6|2|0,0:0|0:0|0:0,0:0:0:0:
296,328,42937,6,0,P|258:338|202:327,1,71.5000021820069,2|2,0:0|0:0,0:0:0:0:
146,302,43437,2,0,P|108:295|62:303,1,71.5000021820069,2|2,0:0|0:0,0:0:0:0:
10,354,43937,1,4,0:0:0:0:
20,214,44437,2,0,P|20:176|33:114,1,71.5000021820069,6|2,0:0|0:0,0:0:0:0:
84,80,44937,2,0,P|117:92|153:94,1,71.5000021820069,6|2,0:0|0:0,0:0:0:0:
236,75,45437,1,0,0:0:0:0:
359,146,45937,6,0,L|361:244,1,71.5000021820069,2|2,0:0|0:0,0:0:0:0:
331,298,46437,2,0,P|300:328|249:341,1,71.5000021820069,2|2,0:0|0:0,0:0:0:0:
199,296,46937,2,0,P|164:288|129:288,1,71.5000021820069,4|0,0:0|0:0,0:0:0:0:
51,250,47437,2,0,L|45:173,1,71.5000021820069,2|2,0:0|0:0,0:0:0:0:
49,92,47937,2,0,P|100:116|203:97,1,143.000004364014,2|0,0:0|0:0,0:0:0:0:
297,43,48912,5,2,0:0:0:0:
390,133,49412,2,0,P|411:199|392:256,1,130,0|2,0:0|0:0,0:0:0:0:
277,193,50412,1,4,0:0:0:0:
190,290,50912,2,0,P|113:316|55:300,1,130,4|0,0:0|0:0,0:0:0:0:
25,183,51912,5,0,0:0:0:0:
31,53,52412,2,0,P|108:27|166:43,1,130,2|2,0:0|0:0,0:0:0:0:
261,109,53412,2,0,P|333:125|400:87,2,130,4|4|0,0:0|0:0|0:0,0:0:0:0:
137,149,54912,6,0,L|144:301,1,130,2|0,0:0|0:0,0:0:0:0:
244,360,55912,1,2,0:0:0:0:
336,268,56412,2,0,P|396:286|471:265,2,130,6|4|0,0:0|0:0|0:0,0:0:0:0:
243,176,57912,6,0,L|243:106,1,65
243,46,58412,1,2,0:0:0:0:
114,28,58912,1,2,0:0:0:0:
30,127,59412,2,0,P|31:208|28:216,1,65,4|0,0:0|0:0,0:0:0:0:
27,255,59912,2,0,P|68:293|155:293,1,130,4|0,0:0|0:0,0:0:0:0:
243,221,60912,6,0,P|306:207|371:241,2,130,2|2|2,0:0|0:0|0:0,0:0:0:0:
114,202,62412,2,0,P|108:169|121:128,1,65,2|2,0:0|0:0,0:0:0:0:
139,78,62912,2,0,P|181:55|201:53,1,65,2|2,0:0|0:0,0:0:0:0:
261,40,63412,1,2,0:0:0:0:
355,129,63912,6,0,P|411:143|489:114,2,130,2|2|2,0:0|0:0|0:0,0:0:0:0:
238,182,65412,2,0,P|243:227|239:274,1,65,2|2,0:0|0:0,0:0:0:0:
240,311,65912,2,0,L|151:301,2,65,2|2|2,0:0|0:0|0:0,0:0:0:0:
369,327,66912,6,0,P|391:285|376:187,2,130,2|2|2,0:0|0:0|0:0,0:0:0:0:
246,354,68412,2,0,P|211:349|178:354,1,65,2|2,0:0|0:0,0:0:0:0:
116,348,68912,2,0,L|109:258,1,65,2|2,0:0|0:0,0:0:0:0:
108,218,69412,1,2,0:0:0:0:
117,88,69912,6,0,P|149:92|185:91,1,65,2|2,0:0|0:0,0:0:0:0:
245,77,70412,2,0,P|278:74|336:82,1,65,2|2,0:0|0:0,0:0:0:0:
356,121,70912,2,0,P|355:159|367:201,1,65,2|0,0:0|0:0,0:0:0:0:
365,250,71412,2,0,P|322:309|242:301,1,130,2|4,0:0|0:0,0:0:0:0:
256,192,72162,12,0,75412,0:0:0:0:
