osu file format v14

[General]
AudioFilename: audio.mp3
AudioLeadIn: 0
PreviewTime: 397
Countdown: 0
SampleSet: Soft
StackLeniency: 0.4
Mode: 0
LetterboxInBreaks: 0
WidescreenStoryboard: 0

[Editor]
DistanceSpacing: 1.1
BeatDivisor: 4
GridSize: 32
TimelineZoom: 2.2

[Metadata]
Title:London no Shi
TitleUnicode:ロンドンの死
Artist:Akiyama Hirokazu
ArtistUnicode:秋山裕和
Creator:Imakuri
Version:FiND mE
Source:Misao
Tags:操 main theme ost horror video game instrumental xinely
BeatmapID:2326949
BeatmapSetID:1113832

[Difficulty]
HPDrainRate:7
CircleSize:5
OverallDifficulty:7
ApproachRate:8
SliderMultiplier:1.7
SliderTickRate:1

[Events]
//Background and Video events
0,0,"DN4ypP0UMAAiPyc.jpg",0,0
//Break Periods
//Storyboard Layer 0 (Background)
//Storyboard Layer 1 (Fail)
//Storyboard Layer 2 (Pass)
//Storyboard Layer 3 (Foreground)
//Storyboard Layer 4 (Overlay)
//Storyboard Sound Samples

[TimingPoints]
397,500,3,2,1,75,1,0
397,-200,3,2,1,75,0,0
772,-200,3,2,1,5,0,0
877,500,3,2,1,75,1,0
877,-100,3,2,1,75,0,0
2397,500,3,2,1,75,1,8
2397,-66.6666666666667,3,2,1,75,0,0
2772,-66.6666666666667,3,2,1,5,0,0
2897,480,3,2,1,75,1,8
2897,-66.6666666666667,3,2,1,75,0,0
3257,-66.6666666666667,3,2,1,5,0,0
3377,500,3,2,1,75,1,8
3377,-100,3,2,1,75,0,0
4377,533.333333333333,3,2,1,75,1,8
5397,500,3,2,1,75,1,8
5397,-66.6666666666667,3,2,1,75,0,0
5772,-66.6666666666667,3,2,1,5,0,0
5897,480,3,2,1,75,1,8
5897,-66.6666666666667,3,2,1,75,0,0
6252,-66.6666666666667,3,2,1,5,0,0
6377,500,3,2,1,75,1,8
6377,-100,3,2,1,75,0,0
6877,500,3,2,1,75,1,0
7377,533.333333333333,3,2,1,75,1,8
8397,500,3,2,1,75,1,8
8397,-66.6666666666667,3,2,1,75,0,0
8772,-66.6666666666667,3,2,1,5,0,0
8897,480,3,2,1,75,1,8
8897,-66.6666666666667,3,2,1,75,0,0
9257,-66.6666666666667,3,2,1,5,0,0
9377,500,3,2,1,75,1,8
9377,-100,3,2,1,75,0,0
11397,500,3,2,1,75,1,8
11397,-66.6666666666667,3,2,1,75,0,0
11772,-66.6666666666667,3,2,1,5,0,0
11897,510.63829787234,3,2,1,75,1,8
11897,-66.6666666666667,3,2,1,75,0,0
12279,-66.6666666666667,3,2,1,5,0,0
12407,441.176470588235,3,2,1,75,1,8
12407,-100,3,2,1,75,0,0
12627,500,3,2,1,75,1,0
12877,500,3,2,1,75,1,0
14397,500,3,2,1,75,1,8
14397,-66.6666666666667,3,2,1,75,0,0
14772,-66.6666666666667,3,2,1,5,0,0
14897,-66.6666666666667,3,2,1,75,0,0
15272,-66.6666666666667,3,2,1,5,0,0
15377,500,3,2,1,75,1,8
15377,-100,3,2,1,75,0,0
15877,500,3,2,1,75,1,8
17397,500,3,2,1,75,1,0
17397,-66.6666666666667,3,2,1,75,0,0
17772,-66.6666666666667,3,2,1,5,0,0
17897,-66.6666666666667,3,2,1,75,0,0
18272,-66.6666666666667,3,2,1,5,0,0
18377,500,3,2,1,75,1,8
18377,-100,3,2,1,75,0,0
18877,500,3,2,1,75,1,0
20397,500,3,2,1,75,1,8
20397,-66.6666666666667,3,2,1,75,0,0
20772,-66.6666666666667,3,2,1,5,0,0
20897,-66.6666666666667,3,2,1,75,0,0
21272,-66.6666666666667,3,2,1,5,0,0
21377,500,3,2,1,75,1,8
21377,-100,3,2,1,75,0,0
21877,500,3,2,1,75,1,8
23397,500,3,2,1,75,1,8
23397,-66.6666666666667,3,2,1,75,0,0
23772,-66.6666666666667,3,2,1,5,0,0
23897,-66.6666666666667,3,2,1,75,0,0
24272,-66.6666666666667,3,2,1,5,0,0
24397,-100,3,2,1,75,0,0
24937,500,3,2,1,75,1,0
26437,-54.054054054054,3,2,1,75,0,0
26687,-54.054054054054,3,2,1,15,0,0
26937,-54.054054054054,3,2,1,75,0,0
27187,-54.054054054054,3,2,1,15,0,0
27437,-100,3,2,1,75,0,0
29437,-54.054054054054,3,2,1,75,0,0
29687,-54.054054054054,3,2,1,15,0,0
29937,-54.054054054054,3,2,1,75,0,0
30187,-54.054054054054,3,2,1,15,0,0
30437,-100,3,2,1,75,0,0
32437,-54.054054054054,3,2,1,75,0,0
32687,-54.054054054054,3,2,1,15,0,0
32937,477.13717693837,3,2,1,75,1,8
32937,-54.054054054054,3,2,1,75,0,0
33175,-54.054054054054,3,2,1,15,0,0
33414,500,3,2,1,15,1,8
33414,-100,3,2,1,75,0,0
33937,500,3,2,1,75,1,8
35437,-54.054054054054,3,2,1,75,0,0
35687,-54.054054054054,3,2,1,15,0,0
35937,477.13717693837,3,2,1,75,1,8
35937,-54.054054054054,3,2,1,75,0,0
36175,-54.054054054054,3,2,1,15,0,0
36414,500,3,2,1,15,1,8
36414,-100,3,2,1,75,0,0
36937,500,3,2,1,75,1,0
36937,-80,3,2,1,75,0,1
38437,-86.9565217391304,3,2,1,75,0,1
39937,-100,3,2,1,75,0,1
41437,-105.263157894737,3,2,1,75,0,1
42937,-80,3,2,1,75,0,1
44437,-86.9565217391304,3,2,1,75,0,1
45937,-100,3,2,1,75,0,1
48912,500,3,2,1,75,1,0
48912,-100,3,2,1,75,0,0
50412,-66.6666666666667,3,2,1,75,0,0
50787,-66.6666666666667,3,2,1,5,0,0
50912,-66.6666666666667,3,2,1,75,0,0
51287,-66.6666666666667,3,2,1,5,0,0
51412,-100,3,2,1,75,0,0
53412,-66.6666666666667,3,2,1,75,0,0
53787,-66.6666666666667,3,2,1,5,0,0
53912,-66.6666666666667,3,2,1,75,0,0
54287,-66.6666666666667,3,2,1,5,0,0
54412,-100,3,2,1,75,0,0
56412,-66.6666666666667,3,2,1,75,0,0
56787,-66.6666666666667,3,2,1,5,0,0
56912,-66.6666666666667,3,2,1,75,0,0
57287,-66.6666666666667,3,2,1,5,0,0
57412,-100,3,2,1,75,0,0
59412,-66.6666666666667,3,2,1,75,0,0
59787,-66.6666666666667,3,2,1,5,0,0
59912,-66.6666666666667,3,2,1,75,0,0
60287,-66.6666666666667,3,2,1,5,0,0
60412,-100,3,2,1,75,0,0
72412,-100,3,2,1,60,0,0
72912,-100,3,2,1,50,0,0
73412,-100,3,2,1,40,0,0
73912,-100,3,2,1,30,0,0
74412,-100,3,2,1,20,0,0
74912,-100,3,2,1,10,0,0
75412,-100,3,2,1,5,0,0

[Colours]
Combo1 : 157,79,79
Combo2 : 130,61,156
Combo3 : 128,128,128
Combo4 : 168,0,0

[HitObjects]
72,57,397,6,0,L|79:124,1,63.75
84,150,877,5,2,0:0:0:0:
63,306,1127,1,0,0:0:0:0:
184,191,1377,2,0,L|169:16,1,170,2|0,0:0|0:0,0:0:0:0:
433,109,2397,6,0,B|382:83|341:109|341:109|295:135|243:105,1,191.250007295609,4|0,0:0|0:0,0:0:0:0:
250,109,2897,2,0,B|301:83|342:109|342:109|388:135|440:105,1,191.250007295609,4|0,0:0|0:0,0:0:0:0:
463,85,3377,1,2,0:0:0:0:
349,337,3877,5,2,0:0:0:0:
496,261,4127,1,0,0:0:0:0:
339,197,4377,2,0,B|291:197|255:179|255:179|222:198|167:198,1,170,2|0,0:0|0:0,0:0:0:0:
13,98,5397,6,0,P|-1:40|76:94,1,191.250007295609,4|0,0:0|0:0,0:0:0:0:
95,49,5897,2,0,P|16:20|7:102,1,191.250007295609,4|0,0:0|0:0,0:0:0:0:
37,116,6377,1,2,0:0:0:0:
255,55,6877,5,2,0:0:0:0:
177,198,7127,1,0,0:0:0:0:
338,198,7377,2,0,P|390:186|486:107,1,170,2|0,0:0|0:0,0:0:0:0:
234,13,8397,6,0,L|251:212,1,191.250007295609,4|0,0:0|0:0,0:0:0:0:
269,237,8897,2,0,L|252:38,1,191.250007295609,4|0,0:0|0:0,0:0:0:0:
234,13,9377,1,2,0:0:0:0:
150,180,9877,5,2,0:0:0:0:
337,200,10127,1,0,0:0:0:0:
200,317,10377,2,0,P|156:314|31:278,1,170,2|2,0:0|0:0,0:0:0:0:
150,180,11127,1,2,0:0:0:0:
269,269,11397,6,0,P|334:285|481:285,1,191.250007295609,4|0,0:0|0:0,0:0:0:0:
486,270,11897,2,0,P|421:286|274:286,1,191.250007295609,4|0,0:0|0:0,0:0:0:0:
269,269,12407,1,2,0:0:0:0:
314,173,12627,1,0,0:0:0:0:
235,92,12877,6,0,P|189:99|138:101,1,85,2|0,0:0|0:0,0:0:0:0:
312,22,13377,2,0,P|368:28|413:26,1,85,2|0,0:0|0:0,0:0:0:0:
512,115,13877,1,2,0:0:0:0:
424,219,14127,1,2,0:0:0:0:
496,335,14397,6,0,B|376:328|376:328|304:300,1,191.250007295609,6|0,0:0|0:0,0:0:0:0:
309,302,14897,2,0,B|242:327|242:327|122:334,1,191.250007295609,6|0,0:0|0:0,0:0:0:0:
73,124,15877,6,0,P|64:80|77:36,1,85,2|0,0:0|0:0,0:0:0:0:
208,172,16377,2,0,P|218:219|204:258,1,85,2|0,0:0|0:0,0:0:0:0:
50,203,16877,1,2,0:0:0:0:
144,83,17127,1,2,0:0:0:0:
206,253,17397,6,0,P|277:258|359:162,1,191.250007295609,6|0,0:0|0:0,0:0:0:0:
356,177,17897,2,0,P|285:172|203:268,1,191.250007295609,6|0,0:0|0:0,0:0:0:0:
478,346,18877,6,0,P|464:289|465:246,1,85,2|0,0:0|0:0,0:0:0:0:
356,177,19377,2,0,P|367:122|364:79,1,85,2|0,0:0|0:0,0:0:0:0:
176,50,19877,1,2,0:0:0:0:
341,13,20127,1,2,0:0:0:0:
198,125,20397,6,0,B|128:133|106:80|106:80|76:115|14:106,1,191.250007295609,6|0,0:0|0:0,0:0:0:0:
33,107,20897,2,0,B|96:97|125:152|125:152|155:117|217:126,1,191.250007295609,6|0,0:0|0:0,0:0:0:0:
354,256,21877,6,0,P|363:303|347:353,1,85,2|0,0:0|0:0,0:0:0:0:
157,338,22377,2,0,P|148:297|158:256,1,85,2|0,0:0|0:0,0:0:0:0:
327,171,22877,1,2,0:0:0:0:
229,297,23127,1,2,0:0:0:0:
327,171,23397,6,0,P|258:134|261:24,1,191.250007295609,6|0,0:0|0:0,0:0:0:0:
255,30,23897,2,0,P|261:121|185:171,1,191.250007295609,4|0,0:0|0:0,0:0:0:0:
58,91,24937,5,2,0:0:0:0:
6,175,25187,1,0,0:0:0:0:
57,255,25437,1,2,0:0:0:0:
154,240,25687,1,2,0:0:0:0:
221,312,25937,2,0,P|276:315|314:297,1,85,0|2,0:0|0:0,0:0:0:0:
239,76,26437,6,0,L|254:233,1,157.249999400139,6|0,0:0|0:0,0:0:0:0:
338,20,26937,2,0,L|325:197,1,157.249999400139,6|0,0:0|0:0,0:0:0:0:
403,324,27937,5,2,0:0:0:0:
476,243,28187,1,0,0:0:0:0:
427,147,28437,1,2,0:0:0:0:
316,167,28687,1,2,0:0:0:0:
304,272,28937,2,0,P|299:332|279:366,1,85,0|2,0:0|0:0,0:0:0:0:
52,267,29437,6,0,P|136:267|231:297,1,157.249999400139,6|0,0:0|0:0,0:0:0:0:
316,167,29937,2,0,P|237:166|161:185,1,157.249999400139,6|0,0:0|0:0,0:0:0:0:
108,64,30937,5,2,0:0:0:0:
212,24,31187,1,0,0:0:0:0:
289,103,31437,1,2,0:0:0:0:
389,64,31687,1,2,0:0:0:0:
465,145,31937,2,0,P|473:189|451:251,1,85,0|2,0:0|0:0,0:0:0:0:
225,190,32437,6,0,L|404:183,1,157.249999400139,6|0,0:0|0:0,0:0:0:0:
282,269,32937,2,0,L|109:258,1,157.249999400139,6|0,0:0|0:0,0:0:0:0:
22,183,33414,2,0,P|15:139|25:94,1,85
125,259,33937,5,2,0:0:0:0:
225,190,34187,1,0,0:0:0:0:
153,89,34437,1,2,0:0:0:0:
229,2,34687,1,2,0:0:0:0:
343,44,34937,2,0,P|361:86|371:124,1,85,0|2,0:0|0:0,0:0:0:0:
328,315,35437,6,0,L|484:332,1,157.249999400139,6|0,0:0|0:0,0:0:0:0:
421,193,35937,2,0,L|264:206,1,157.249999400139,6|0,0:0|0:0,0:0:0:0:
132,273,36414,2,0,P|181:277|220:295,1,85
101,359,36937,5,2,0:0:0:0:
44,163,37187,1,2,0:0:0:0:
101,359,37437,1,2,0:0:0:0:
150,162,37687,1,2,0:0:0:0:
0,272,37937,2,0,P|51:275|106:259,1,106.25,6|0,0:0|0:0,0:0:0:0:
220,198,38437,5,6,0:0:0:0:
98,80,38687,1,2,0:0:0:0:
220,198,38937,1,6,0:0:0:0:
201,24,39187,1,2,0:0:0:0:
146,162,39437,2,0,P|215:116|249:119,1,97.7500018644333
351,224,39937,5,2,0:0:0:0:
387,96,40187,1,2,0:0:0:0:
351,224,40437,1,2,0:0:0:0:
387,96,40687,1,2,0:0:0:0:
433,220,40937,2,0,P|389:230|345:221,1,85,4|0,0:0|0:0,0:0:0:0:
249,193,41437,5,6,0:0:0:0:
252,292,41687,1,2,0:0:0:0:
249,193,41937,1,6,0:0:0:0:
252,292,42187,1,2,0:0:0:0:
290,135,42437,2,0,P|235:125|201:140,1,80.7499978437424
28,242,42937,5,2,0:0:0:0:
249,193,43187,1,2,0:0:0:0:
28,242,43437,1,2,0:0:0:0:
252,292,43687,1,2,0:0:0:0:
89,156,43937,2,0,B|73:107|73:107|90:47,1,106.25,4|0,0:0|0:0,0:0:0:0:
355,114,44437,5,6,0:0:0:0:
205,45,44687,1,2,0:0:0:0:
355,114,44937,1,6,0:0:0:0:
206,177,45187,1,2,0:0:0:0:
302,22,45437,2,0,P|348:9|411:24,1,97.7500018644333
486,143,45937,5,2,0:0:0:0:
449,266,46187,1,2,0:0:0:0:
486,143,46437,1,2,0:0:0:0:
449,266,46687,1,2,0:0:0:0:
336,308,46937,2,0,P|326:253|335:211,1,85,4|0,0:0|0:0,0:0:0:0:
449,266,47437,5,6,0:0:0:0:
427,372,47687,1,2,0:0:0:0:
336,308,47937,1,6,0:0:0:0:
336,308,48912,6,0,B|291:300|291:300|240:311,1,85,2|0,0:0|0:0,0:0:0:0:
158,355,49412,2,0,B|112:364|112:364|68:352,1,85,2|0,0:0|0:0,0:0:0:0:
20,264,49912,2,0,L|14:165,1,85,2|0,0:0|0:0,0:0:0:0:
82,56,50412,6,0,P|141:78|194:190,1,191.250007295609,4|0,0:0|0:0,0:0:0:0:
193,187,50912,2,0,P|223:98|306:55,1,191.250007295609,4|0,0:0|0:0,0:0:0:0:
337,56,51412,1,2,0:0:0:0:
450,128,51662,1,2,0:0:0:0:
325,185,51912,6,0,P|324:237|334:273,1,85,2|0,0:0|0:0,0:0:0:0:
433,359,52412,2,0,P|373:342|268:387,1,170,2|2,0:0|0:0,0:0:0:0:
190,322,53162,1,0,0:0:0:0:
113,266,53412,6,0,B|91:145|91:145|115:67,1,191.250007295609,4|0,0:0|0:0,0:0:0:0:
112,80,53912,2,0,B|135:145|135:145|113:266,1,191.250007295609,4|0,0:0|0:0,0:0:0:0:
107,292,54412,1,2,0:0:0:0:
188,324,54662,1,2,0:0:0:0:
222,241,54912,6,0,P|226:195|220:143,1,85,2|0,0:0|0:0,0:0:0:0:
297,61,55412,2,0,P|298:113|305:156,1,85,2|0,0:0|0:0,0:0:0:0:
370,211,55912,2,0,L|457:204,1,85,2|0,0:0|0:0,0:0:0:0:
415,304,56412,6,0,P|337:299|266:208,1,191.250007295609,4|0,0:0|0:0,0:0:0:0:
268,217,56912,2,0,P|212:292|120:304,1,191.250007295609,4|0,0:0|0:0,0:0:0:0:
54,233,57412,1,2,0:0:0:0:
153,189,57662,1,2,0:0:0:0:
68,113,57912,6,0,P|102:88|227:100,1,170,2|0,0:0|0:0,0:0:0:0:
311,157,58662,1,0,0:0:0:0:
395,105,58912,2,0,P|406:55|391:11,1,85,2|0,0:0|0:0,0:0:0:0:
311,157,59412,6,0,L|328:347,1,191.250007295609,4|0,0:0|0:0,0:0:0:0:
302,375,59912,2,0,L|283:175,1,191.250007295609,4|0,0:0|0:0,0:0:0:0:
311,157,60412,1,0,0:0:0:0:
221,103,60662,1,0,0:0:0:0:
181,206,60912,5,2,0:0:0:0:
29,239,61162,1,2,0:0:0:0:
181,206,61412,1,2,0:0:0:0:
29,151,61662,1,2,0:0:0:0:
181,206,61912,2,0,P|231:211|277:202,1,85,2|0,0:0|0:0,0:0:0:0:
385,111,62412,5,2,0:0:0:0:
427,240,62662,1,2,0:0:0:0:
385,111,62912,1,2,0:0:0:0:
347,245,63162,1,2,0:0:0:0:
385,111,63412,2,0,P|395:67|377:9,1,85,2|0,0:0|0:0,0:0:0:0:
171,76,63912,5,2,0:0:0:0:
290,67,64162,1,2,0:0:0:0:
171,76,64412,1,2,0:0:0:0:
290,67,64662,1,2,0:0:0:0:
171,76,64912,2,0,P|111:86|82:97,1,85,2|0,0:0|0:0,0:0:0:0:
196,187,65412,5,2,0:0:0:0:
281,180,65662,1,2,0:0:0:0:
196,187,65912,1,2,0:0:0:0:
281,180,66162,1,2,0:0:0:0:
196,187,66412,2,0,P|187:237|198:273,1,85,2|0,0:0|0:0,0:0:0:0:
327,301,66912,5,2,0:0:0:0:
488,237,67162,1,2,0:0:0:0:
327,301,67412,1,2,0:0:0:0:
501,343,67662,1,2,0:0:0:0:
360,368,67912,2,0,P|309:371|275:353,1,85,2|0,0:0|0:0,0:0:0:0:
232,227,68412,5,2,0:0:0:0:
188,355,68662,1,2,0:0:0:0:
232,227,68912,1,2,0:0:0:0:
279,356,69162,1,2,0:0:0:0:
161,275,69412,2,0,L|65:279,1,85,2|0,0:0|0:0,0:0:0:0:
13,166,69912,5,2,0:0:0:0:
76,277,70162,1,2,0:0:0:0:
13,166,70412,1,2,0:0:0:0:
76,277,70662,1,2,0:0:0:0:
99,150,70912,2,0,P|104:98|92:55,1,85,2|0,0:0|0:0,0:0:0:0:
36,27,71412,5,2,0:0:0:0:
152,22,71662,1,2,0:0:0:0:
97,68,71912,1,6,0:0:0:0:
256,192,72037,12,0,75412,0:0:0:0:
