osu file format v14

[General]
AudioFilename: audio.mp3
AudioLeadIn: 0
PreviewTime: 58635
Countdown: 0
SampleSet: Soft
StackLeniency: 0.7
Mode: 3
LetterboxInBreaks: 0
SpecialStyle: 0
WidescreenStoryboard: 1

[Editor]
DistanceSpacing: 1.4
BeatDivisor: 4
GridSize: 8
TimelineZoom: 3

[Metadata]
Title:Climber's High! (The Fallen Moon Version)
TitleUnicode:Climber's High! (The Fallen Moon Version)
Artist:Akitsuki Fuuka (CV:Lynn)
ArtistUnicode:Akitsuki Fuuka (CV:Lynn)
Creator:-I K I-
Version:Emperor's MX
Source:風夏
Tags:Fuuka
BeatmapID:1384643
BeatmapSetID:637665

[Difficulty]
HPDrainRate:8.1
CircleSize:4
OverallDifficulty:8.1
ApproachRate:5
SliderMultiplier:1.4
SliderTickRate:1

[Events]
//Background and Video events
0,0,"rip.jpg",0,0
//Break Periods
//Storyboard Layer 0 (Background)
//Storyboard Layer 1 (Fail)
//Storyboard Layer 2 (Pass)
//Storyboard Layer 3 (Foreground)
//Storyboard Sound Samples

[TimingPoints]
736,335.195530726257,4,2,1,20,1,0
59060,-181.818181818181,4,2,1,20,0,0
59562,-100,4,2,1,20,0,1
81015,-100,4,2,1,20,0,0

[HitObjects]
64,192,736,128,0,1741:0:0:0:0:
320,192,903,128,0,1071:0:0:0:0:
192,192,1071,128,0,1238:0:0:0:0:
448,192,1238,128,0,1909:0:0:0:0:
320,192,1406,128,0,1573:0:0:0:0:
192,192,1573,128,0,1741:0:0:0:0:
320,192,1741,128,0,1909:0:0:0:0:
64,192,1909,1,0,0:0:0:0:
192,192,1909,1,0,0:0:0:40:hitwhistle.wav
192,192,1992,1,0,0:0:0:40:hitwhistle.wav
320,192,1992,1,0,0:0:0:0:
320,192,2076,1,0,0:0:0:0:
64,192,2076,1,0,0:0:0:0:
448,192,2076,1,0,0:0:0:0:
320,192,2244,1,0,0:0:0:40:hitwhistle.wav
448,192,2244,1,0,0:0:0:40:hitwhistle.wav
192,192,2411,1,0,0:0:0:40:hitwhistle.wav
64,192,2411,1,0,0:0:0:40:hitwhistle.wav
448,192,2579,1,0,0:0:0:0:
320,192,2579,1,0,0:0:0:0:
192,192,2747,1,0,0:0:0:40:hitwhistle.wav
320,192,2747,1,0,0:0:0:40:hitwhistle.wav
64,192,2914,1,0,0:0:0:40:hitwhistle.wav
192,192,2914,1,0,0:0:0:40:hitwhistle.wav
448,192,3082,1,0,0:0:0:40:hitwhistle.wav
320,192,3082,1,0,0:0:0:40:hitwhistle.wav
320,192,3249,1,0,0:0:0:40:hitwhistle.wav
448,192,3249,1,0,0:0:0:40:hitwhistle.wav
192,192,3417,128,0,4758:0:0:0:40:hitfinish3.wav
64,192,3585,128,0,3752:0:0:0:40:hitfinish2.wav
448,192,3752,128,0,3920:0:0:0:40:hitfinish2.wav
320,192,3920,128,0,4087:0:0:0:40:hitfinish3.wav
64,192,4087,128,0,4255:0:0:0:40:hitfinish2.wav
448,192,4255,128,0,4423:0:0:0:40:hitfinish2.wav
64,192,4423,128,0,4590:0:0:0:40:hitfinish3.wav
320,192,4590,128,0,4758:0:0:0:40:hitfinish2.wav
448,192,4758,1,0,0:0:0:40:hitwhistle.wav
64,192,4758,1,0,0:0:0:0:
192,192,4842,1,0,0:0:0:0:
320,192,4925,1,0,0:0:0:0:
448,192,5009,1,0,0:0:0:0:
192,192,5093,1,0,0:0:0:0:
320,192,5093,128,0,5931:0:0:0:0:
64,192,5261,128,0,5428:0:0:0:0:
192,192,5428,128,0,5596:0:0:0:0:
448,192,5596,128,0,5763:0:0:0:0:
192,192,5763,128,0,5931:0:0:0:0:
448,192,5931,1,0,0:0:0:40:hitwhistle.wav
64,192,5931,128,0,7439:0:0:0:40:hitfinish0.wav
192,192,6266,1,0,0:0:0:40:hitwhistle.wav
320,192,6434,1,0,0:0:0:0:
448,192,6434,1,0,0:0:0:0:
192,192,6601,1,0,0:0:0:40:hitwhistle.wav
448,192,6769,1,0,0:0:0:40:hitwhistle.wav
320,192,6937,1,0,0:0:0:40:hitwhistle.wav
448,192,7104,1,0,0:0:0:0:
192,192,7104,1,0,0:0:0:0:
320,192,7272,1,0,0:0:0:0:
192,192,7439,128,0,8613:0:0:0:0:
448,192,7439,1,0,0:0:0:40:hitwhistle.wav
64,192,7607,1,0,0:0:0:40:hitwhistle.wav
448,192,7775,1,0,0:0:0:0:
320,192,7775,1,0,0:0:0:0:
64,192,7942,1,0,0:0:0:0:
320,192,8110,1,0,0:0:0:40:hitwhistle.wav
448,192,8277,1,0,0:0:0:40:hitwhistle.wav
320,192,8445,1,0,0:0:0:40:hitwhistle.wav
64,192,8445,1,0,0:0:0:0:
320,192,8613,128,0,10121:0:0:0:40:hitfinish1.wav
448,192,8613,1,0,0:0:0:40:hitfinish0.wav
64,192,8613,1,0,0:0:0:40:hitwhistle.wav
64,192,8948,1,0,0:0:0:40:hitwhistle.wav
192,192,9115,1,0,0:0:0:0:
448,192,9115,1,0,0:0:0:0:
192,192,9451,1,0,0:0:0:40:hitwhistle.wav
192,192,9618,1,0,0:0:0:40:hitwhistle.wav
64,192,9786,1,0,0:0:0:0:
448,192,9786,1,0,0:0:0:0:
192,192,9953,1,0,0:0:0:0:
448,192,10121,128,0,11294:0:0:0:0:
64,192,10121,1,0,0:0:0:40:hitwhistle.wav
192,192,10289,1,0,0:0:0:40:hitwhistle.wav
320,192,10456,1,0,0:0:0:0:
64,192,10456,1,0,0:0:0:0:
320,192,10624,1,0,0:0:0:0:
192,192,10791,1,0,0:0:0:40:hitwhistle.wav
64,192,10959,1,0,0:0:0:40:hitwhistle.wav
320,192,11127,1,0,0:0:0:0:
192,192,11127,1,0,0:0:0:0:
192,192,11294,128,0,12803:0:0:0:40:hitfinish0.wav
64,192,11294,1,0,0:0:0:40:hitwhistle.wav
448,192,11462,1,0,0:0:0:0:
320,192,11629,1,0,0:0:0:40:hitwhistle.wav
448,192,11797,1,0,0:0:0:0:
64,192,11797,1,0,0:0:0:0:
320,192,11965,1,0,0:0:0:0:
448,192,12132,1,0,0:0:0:40:hitwhistle.wav
64,192,12300,1,0,0:0:0:40:hitwhistle.wav
320,192,12467,1,0,0:0:0:0:
448,192,12467,1,0,0:0:0:0:
64,192,12635,1,0,0:0:0:0:
448,192,12803,128,0,13976:0:0:0:0:
320,192,12803,1,0,0:0:0:40:hitwhistle.wav
64,192,12970,1,0,0:0:0:40:hitwhistle.wav
192,192,13138,1,0,0:0:0:0:
320,192,13138,1,0,0:0:0:0:
192,192,13305,1,0,0:0:0:0:
320,192,13473,1,0,0:0:0:40:hitwhistle.wav
64,192,13641,1,0,0:0:0:40:hitwhistle.wav
192,192,13808,1,0,0:0:0:0:
320,192,13808,1,0,0:0:0:0:
64,192,13976,128,0,15317:0:0:0:40:hitfinish0.wav
192,192,13976,1,0,0:0:0:40:hitwhistle.wav
448,192,14311,1,0,0:0:0:40:hitwhistle.wav
320,192,14479,1,0,0:0:0:0:
192,192,14479,1,0,0:0:0:0:
192,192,14646,1,0,0:0:0:0:
448,192,14814,1,0,0:0:0:40:hitwhistle.wav
192,192,14981,1,0,0:0:0:40:hitwhistle.wav
320,192,15149,1,0,0:0:0:0:
448,192,15149,1,0,0:0:0:0:
320,192,15317,1,0,0:0:0:0:
448,192,15317,1,0,0:0:0:40:hitwhistle.wav
192,192,15484,1,0,0:0:0:0:
64,192,15484,1,0,0:0:0:0:
320,192,15652,1,0,0:0:0:0:
64,192,15819,1,0,0:0:0:0:
192,192,15819,1,0,0:0:0:40:hitwhistle.wav
448,192,15987,1,0,0:0:0:0:
320,192,15987,1,0,0:0:0:0:
192,192,16154,1,0,0:0:0:0:
192,192,16322,1,0,0:0:0:0:
64,192,16322,1,0,0:0:0:40:hitwhistle.wav
448,192,16490,1,0,0:0:0:0:
320,192,16490,1,0,0:0:0:40:hitwhistle.wav
64,192,16657,1,0,0:0:0:40:hitfinish0.wav
448,192,16657,1,0,0:0:0:40:hitwhistle.wav
320,192,16657,1,0,0:0:0:40:hitwhistle.wav
64,192,16992,1,0,0:0:0:0:
192,192,16992,1,0,0:0:0:0:
192,192,17160,1,0,0:0:0:0:
320,192,17160,1,0,0:0:0:0:
448,192,17160,1,0,0:0:0:0:
64,192,17328,1,0,0:0:0:0:
192,192,17495,1,0,0:0:0:0:
320,192,17663,1,0,0:0:0:0:
448,192,17663,1,0,0:0:0:0:
192,192,17830,1,0,0:0:0:0:
320,192,17998,1,0,0:0:0:0:
192,192,17998,1,0,0:0:0:0:
64,192,17998,1,0,0:0:0:0:
448,192,18166,1,0,0:0:0:0:
320,192,18333,1,0,0:0:0:40:hitwhistle.wav
64,192,18333,1,0,0:0:0:0:
192,192,18501,1,0,0:0:0:0:
448,192,18501,1,0,0:0:0:0:
64,192,18501,1,0,0:0:0:0:
448,192,18752,1,0,0:0:0:40:hitwhistle.wav
320,192,18836,1,0,0:0:0:40:hitwhistle.wav
192,192,18836,1,0,0:0:0:0:
192,192,19004,1,0,0:0:0:40:hitwhistle.wav
320,192,19004,1,0,0:0:0:0:
448,192,19171,1,0,0:0:0:0:
320,192,19171,1,0,0:0:0:0:
64,192,19171,1,0,0:0:0:0:
192,192,19339,1,0,0:0:0:0:
448,192,19506,1,0,0:0:0:40:hitwhistle.wav
64,192,19506,1,0,0:0:0:0:
192,192,19674,1,0,0:0:0:0:
320,192,19674,1,0,0:0:0:40:hitwhistle.wav
192,192,19842,1,0,0:0:0:0:
320,192,19842,1,0,0:0:0:0:
448,192,19842,1,0,0:0:0:0:
64,192,20009,1,0,0:0:0:0:
320,192,20177,1,0,0:0:0:0:
64,192,20344,1,0,0:0:0:40:hitwhistle.wav
192,192,20344,1,0,0:0:0:40:hitwhistle.wav
320,192,20512,1,0,0:0:0:0:
64,192,20680,1,0,0:0:0:0:
192,192,20680,1,0,0:0:0:0:
448,192,20680,1,0,0:0:0:0:
192,192,20847,1,0,0:0:0:0:
448,192,21015,1,0,0:0:0:0:
320,192,21015,1,0,0:0:0:40:hitwhistle.wav
64,192,21182,1,0,0:0:0:0:
192,192,21182,1,0,0:0:0:0:
448,192,21182,1,0,0:0:0:0:
192,192,21350,1,0,0:0:0:0:
320,192,21518,1,0,0:0:0:40:hitwhistle.wav
448,192,21518,1,0,0:0:0:0:
192,192,21685,1,0,0:0:0:40:hitwhistle.wav
64,192,21685,1,0,0:0:0:0:
64,192,21853,1,0,0:0:0:0:
320,192,21853,1,0,0:0:0:0:
448,192,21853,1,0,0:0:0:0:
192,192,22188,1,0,0:0:0:40:hitwhistle.wav
320,192,22188,1,0,0:0:0:0:
64,192,22356,1,0,0:0:0:40:hitwhistle.wav
448,192,22356,1,0,0:0:0:0:
192,192,22523,1,0,0:0:0:0:
320,192,22523,1,0,0:0:0:0:
448,192,22523,1,0,0:0:0:0:
320,192,22691,1,0,0:0:0:0:
192,192,22858,1,0,0:0:0:0:
192,192,23026,1,0,0:0:0:0:
64,192,23026,1,0,0:0:0:40:hitfinish2.wav
320,192,23194,1,0,0:0:0:0:
448,192,23361,1,0,0:0:0:0:
320,192,23361,1,0,0:0:0:0:
192,192,23361,1,0,0:0:0:0:
64,192,23529,1,0,0:0:0:0:
320,192,23696,1,0,0:0:0:0:
192,192,23696,1,0,0:0:0:40:hitwhistle.wav
448,192,23864,1,0,0:0:0:0:
64,192,23864,1,0,0:0:0:0:
192,192,23864,1,0,0:0:0:0:
64,192,24115,1,0,0:0:0:0:
192,192,24199,1,0,0:0:0:40:hitwhistle.wav
320,192,24199,1,0,0:0:0:0:
448,192,24367,1,0,0:0:0:0:
320,192,24367,1,0,0:0:0:40:hitwhistle.wav
64,192,24534,1,0,0:0:0:0:
192,192,24534,1,0,0:0:0:0:
448,192,24534,1,0,0:0:0:0:
320,192,24702,1,0,0:0:0:0:
448,192,24870,1,0,0:0:0:40:hitwhistle.wav
192,192,24870,1,0,0:0:0:0:
192,192,25037,1,0,0:0:0:0:
64,192,25037,1,0,0:0:0:0:
64,192,25205,1,0,0:0:0:0:
320,192,25205,1,0,0:0:0:0:
448,192,25205,1,0,0:0:0:0:
192,192,25372,1,0,0:0:0:0:
320,192,25540,1,0,0:0:0:0:
64,192,25708,1,0,0:0:0:40:hitwhistle.wav
192,192,25708,1,0,0:0:0:40:hitwhistle.wav
320,192,25875,1,0,0:0:0:0:
448,192,26043,1,0,0:0:0:0:
192,192,26043,1,0,0:0:0:0:
320,192,26043,1,0,0:0:0:0:
64,192,26210,1,0,0:0:0:0:
192,192,26378,1,0,0:0:0:40:hitwhistle.wav
448,192,26378,1,0,0:0:0:40:hitwhistle.wav
320,192,26546,1,0,0:0:0:0:
192,192,26546,1,0,0:0:0:0:
64,192,26546,1,0,0:0:0:0:
448,192,26713,1,0,0:0:0:0:
320,192,26881,1,0,0:0:0:40:hitwhistle.wav
192,192,26881,1,0,0:0:0:0:
64,192,27048,1,0,0:0:0:0:
192,192,27048,1,0,0:0:0:40:hitwhistle.wav
320,192,27216,1,0,0:0:0:0:
192,192,27216,1,0,0:0:0:0:
448,192,27216,1,0,0:0:0:0:
320,192,27384,1,0,0:0:0:0:
64,192,27551,1,0,0:0:0:40:hitwhistle.wav
448,192,27551,1,0,0:0:0:0:
192,192,27551,1,0,0:0:0:0:
64,192,27719,1,0,0:0:0:40:hitwhistle.wav
192,192,27719,1,0,0:0:0:0:
192,192,27886,1,0,0:0:0:0:
320,192,27886,1,0,0:0:0:0:
448,192,27886,1,0,0:0:0:0:
320,192,28054,1,0,0:0:0:0:
64,192,28222,1,0,0:0:0:0:
320,192,28389,1,0,0:0:0:40:hitwhistle.wav
448,192,28389,1,0,0:0:0:40:hitwhistle.wav
192,192,28557,1,0,0:0:0:0:
320,192,28724,1,0,0:0:0:0:
192,192,28724,1,0,0:0:0:0:
64,192,28724,1,0,0:0:0:0:
448,192,28892,1,0,0:0:0:0:
320,192,29060,1,0,0:0:0:40:hitwhistle.wav
64,192,29060,1,0,0:0:0:40:hitwhistle.wav
192,192,29227,1,0,0:0:0:0:
448,192,29227,1,0,0:0:0:0:
64,192,29227,1,0,0:0:0:0:
448,192,29479,1,0,0:0:0:0:
320,192,29562,1,0,0:0:0:0:
192,192,29562,1,0,0:0:0:40:hitwhistle.wav
192,192,29730,1,0,0:0:0:40:hitwhistle.wav
320,192,29730,1,0,0:0:0:0:
448,192,29898,1,0,0:0:0:0:
320,192,29898,1,0,0:0:0:0:
64,192,29898,1,0,0:0:0:0:
448,192,30233,1,0,0:0:0:0:
64,192,30233,1,0,0:0:0:40:hitwhistle.wav
192,192,30400,1,0,0:0:0:40:hitwhistle.wav
320,192,30400,1,0,0:0:0:0:
192,192,30568,1,0,0:0:0:0:
320,192,30568,1,0,0:0:0:0:
448,192,30568,1,0,0:0:0:0:
64,192,30736,1,0,0:0:0:0:
320,192,30903,1,0,0:0:0:0:
64,192,31071,1,0,0:0:0:40:hitwhistle.wav
448,192,31071,1,0,0:0:0:0:
320,192,31238,1,0,0:0:0:0:
64,192,31406,1,0,0:0:0:0:
192,192,31406,1,0,0:0:0:0:
448,192,31406,1,0,0:0:0:0:
192,192,31573,1,0,0:0:0:0:
448,192,31741,1,0,0:0:0:40:hitwhistle.wav
320,192,31741,1,0,0:0:0:40:hitwhistle.wav
64,192,31909,1,0,0:0:0:0:
192,192,31909,1,0,0:0:0:0:
448,192,31909,1,0,0:0:0:0:
192,192,32160,1,0,0:0:0:0:
320,192,32244,1,0,0:0:0:40:hitwhistle.wav
448,192,32244,1,0,0:0:0:0:
192,192,32411,1,0,0:0:0:40:hitwhistle.wav
64,192,32411,1,0,0:0:0:0:
64,192,32579,1,0,0:0:0:0:
320,192,32579,1,0,0:0:0:0:
448,192,32579,1,0,0:0:0:0:
192,192,32914,1,0,0:0:0:40:hitwhistle.wav
64,192,32914,1,0,0:0:0:0:
320,192,33082,1,0,0:0:0:40:hitwhistle.wav
448,192,33082,1,0,0:0:0:0:
192,192,33249,1,0,0:0:0:0:
320,192,33249,1,0,0:0:0:0:
448,192,33249,1,0,0:0:0:0:
64,192,33417,1,0,0:0:0:0:
320,192,33585,1,0,0:0:0:0:
448,192,33752,1,0,0:0:0:40:hitwhistle.wav
64,192,33752,1,0,0:0:0:40:hitwhistle.wav
320,192,33920,1,0,0:0:0:0:
448,192,34087,1,0,0:0:0:0:
320,192,34087,1,0,0:0:0:0:
192,192,34087,1,0,0:0:0:0:
64,192,34255,1,0,0:0:0:0:
320,192,34423,1,0,0:0:0:40:hitwhistle.wav
192,192,34423,1,0,0:0:0:40:hitwhistle.wav
448,192,34590,1,0,0:0:0:0:
64,192,34590,1,0,0:0:0:0:
192,192,34590,1,0,0:0:0:0:
64,192,34842,1,0,0:0:0:0:
192,192,34925,1,0,0:0:0:40:hitwhistle.wav
320,192,34925,1,0,0:0:0:0:
448,192,35093,1,0,0:0:0:0:
320,192,35093,1,0,0:0:0:40:hitwhistle.wav
64,192,35261,1,0,0:0:0:0:
192,192,35261,1,0,0:0:0:0:
448,192,35261,1,0,0:0:0:0:
320,192,35428,1,0,0:0:0:0:
448,192,35596,1,0,0:0:0:40:hitwhistle.wav
192,192,35596,1,0,0:0:0:40:hitfinish1.wav
64,192,35596,1,0,0:0:0:40:hitfinish1.wav
192,192,35763,1,0,0:0:0:40:hitwhistle.wav
448,192,35763,1,0,0:0:0:0:
64,192,35931,1,0,0:0:0:40:hitfinish1.wav
320,192,35931,1,0,0:0:0:40:hitfinish1.wav
448,192,35931,1,0,0:0:0:40:hitfinish1.wav
192,192,36099,1,0,0:0:0:0:
320,192,36266,1,0,0:0:0:40:hitwhistle.wav
448,192,36266,1,0,0:0:0:40:hitfinish1.wav
64,192,36434,1,0,0:0:0:0:
192,192,36434,1,0,0:0:0:40:hitwhistle.wav
320,192,36601,1,0,0:0:0:40:hitfinish1.wav
64,192,36601,1,0,0:0:0:40:hitfinish1.wav
448,192,36601,1,0,0:0:0:40:hitfinish1.wav
192,192,36769,1,0,0:0:0:0:
64,192,36937,1,0,0:0:0:40:hitfinish1.wav
320,192,36937,1,0,0:0:0:40:hitfinish1.wav
448,192,36937,1,0,0:0:0:40:hitfinish1.wav
448,192,37104,1,0,0:0:0:0:
320,192,37104,1,0,0:0:0:0:
320,192,37272,1,0,0:0:0:40:hitfinish1.wav
192,192,37272,1,0,0:0:0:40:hitfinish1.wav
64,192,37272,1,0,0:0:0:40:hitfinish1.wav
64,192,37439,1,0,0:0:0:0:
192,192,37439,1,0,0:0:0:0:
320,192,37607,1,0,0:0:0:0:
448,192,37607,1,0,0:0:0:0:
64,192,37691,1,0,0:0:0:0:
192,192,37691,1,0,0:0:0:0:
320,192,37775,1,0,0:0:0:0:
448,192,37775,1,0,0:0:0:0:
192,192,37858,1,0,0:0:0:0:
64,192,37858,1,0,0:0:0:0:
448,192,37942,1,0,0:0:0:0:
320,192,37942,1,0,0:0:0:0:
64,192,38026,1,0,0:0:0:0:
192,192,38026,1,0,0:0:0:0:
448,192,38110,1,0,0:0:0:0:
320,192,38110,1,0,0:0:0:0:
192,192,38194,1,0,0:0:0:0:
448,192,38277,1,0,0:0:0:40:hitwhistle.wav
320,192,38277,1,0,0:0:0:40:hitwhistle.wav
64,192,38277,1,0,0:0:0:0:
192,192,38445,1,0,0:0:0:40:hitwhistle.wav
320,192,38445,1,0,0:0:0:40:hitwhistle.wav
64,192,38613,1,0,0:0:0:0:
320,192,38613,1,0,0:0:0:0:
448,192,38613,1,0,0:0:0:0:
192,192,38780,1,0,0:0:0:0:
64,192,38948,1,0,0:0:0:40:hitwhistle.wav
192,192,38948,1,0,0:0:0:40:hitwhistle.wav
320,192,39115,1,0,0:0:0:40:hitwhistle.wav
448,192,39115,1,0,0:0:0:40:hitwhistle.wav
192,192,39283,1,0,0:0:0:0:
64,192,39283,1,0,0:0:0:0:
448,192,39283,1,0,0:0:0:0:
448,192,39618,1,0,0:0:0:40:hitwhistle.wav
320,192,39618,1,0,0:0:0:40:hitwhistle.wav
320,192,39786,1,0,0:0:0:40:hitwhistle.wav
192,192,39786,1,0,0:0:0:40:hitwhistle.wav
64,192,39953,1,0,0:0:0:0:
192,192,39953,1,0,0:0:0:0:
448,192,39953,1,0,0:0:0:0:
320,192,40289,1,0,0:0:0:40:hitwhistle.wav
448,192,40289,1,0,0:0:0:40:hitwhistle.wav
192,192,40456,1,0,0:0:0:40:hitwhistle.wav
64,192,40456,1,0,0:0:0:40:hitwhistle.wav
192,192,40624,1,0,0:0:0:0:
320,192,40624,1,0,0:0:0:0:
448,192,40624,1,0,0:0:0:0:
192,192,40959,1,0,0:0:0:40:hitwhistle.wav
64,192,40959,1,0,0:0:0:40:hitwhistle.wav
192,192,41127,1,0,0:0:0:0:
320,192,41127,1,0,0:0:0:40:hitwhistle.wav
448,192,41294,1,0,0:0:0:0:
320,192,41294,1,0,0:0:0:0:
64,192,41294,1,0,0:0:0:0:
448,192,41462,1,0,0:0:0:0:
320,192,41629,1,0,0:0:0:0:
192,192,41629,1,0,0:0:0:0:
64,192,41797,1,0,0:0:0:0:
192,192,41797,1,0,0:0:0:0:
64,192,41965,1,0,0:0:0:0:
320,192,41965,1,0,0:0:0:0:
448,192,41965,1,0,0:0:0:0:
320,192,42300,1,0,0:0:0:0:
448,192,42300,1,0,0:0:0:0:
448,192,42467,1,0,0:0:0:0:
320,192,42467,1,0,0:0:0:0:
192,192,42635,1,0,0:0:0:0:
64,192,42635,1,0,0:0:0:0:
448,192,42635,1,0,0:0:0:0:
64,192,42970,1,0,0:0:0:0:
448,192,42970,1,0,0:0:0:40:hitwhistle.wav
192,192,43138,1,0,0:0:0:0:
320,192,43138,1,0,0:0:0:40:hitwhistle.wav
64,192,43305,1,0,0:0:0:0:
320,192,43305,1,0,0:0:0:0:
448,192,43305,1,0,0:0:0:0:
192,192,43641,1,0,0:0:0:0:
64,192,43641,1,0,0:0:0:40:hitwhistle.wav
320,192,43641,1,0,0:0:0:40:hitfinish0.wav
448,192,43641,1,0,0:0:0:0:
192,192,43808,1,0,0:0:0:40:hitwhistle.wav
320,192,43808,1,0,0:0:0:0:
64,192,43976,1,0,0:0:0:0:
320,192,43976,1,0,0:0:0:0:
448,192,43976,1,0,0:0:0:0:
192,192,44143,1,0,0:0:0:0:
64,192,44311,1,0,0:0:0:0:
192,192,44311,1,0,0:0:0:40:hitwhistle.wav
320,192,44479,1,0,0:0:0:40:hitwhistle.wav
448,192,44479,1,0,0:0:0:0:
192,192,44646,1,0,0:0:0:0:
64,192,44646,1,0,0:0:0:0:
448,192,44646,1,0,0:0:0:0:
448,192,44981,1,0,0:0:0:40:hitwhistle.wav
320,192,44981,1,0,0:0:0:0:
320,192,45149,1,0,0:0:0:40:hitwhistle.wav
192,192,45149,1,0,0:0:0:0:
64,192,45317,1,0,0:0:0:0:
192,192,45317,1,0,0:0:0:0:
448,192,45317,1,0,0:0:0:0:
320,192,45652,1,0,0:0:0:0:
448,192,45652,1,0,0:0:0:40:hitwhistle.wav
192,192,45819,1,0,0:0:0:40:hitwhistle.wav
64,192,45819,1,0,0:0:0:0:
192,192,45987,1,0,0:0:0:0:
320,192,45987,1,0,0:0:0:0:
448,192,45987,1,0,0:0:0:0:
192,192,46322,1,0,0:0:0:40:hitwhistle.wav
64,192,46322,1,0,0:0:0:0:
192,192,46490,1,0,0:0:0:0:
320,192,46490,1,0,0:0:0:40:hitwhistle.wav
448,192,46657,1,0,0:0:0:0:
320,192,46657,1,0,0:0:0:0:
64,192,46657,1,0,0:0:0:0:
448,192,46825,1,0,0:0:0:0:
192,192,46992,1,0,0:0:0:40:hitwhistle.wav
64,192,46992,1,0,0:0:0:0:
64,192,47160,1,0,0:0:0:0:
192,192,47160,1,0,0:0:0:40:hitwhistle.wav
320,192,47328,1,0,0:0:0:0:
448,192,47328,1,0,0:0:0:0:
192,192,47328,1,0,0:0:0:0:
320,192,47663,1,0,0:0:0:0:
448,192,47663,1,0,0:0:0:40:hitwhistle.wav
448,192,47830,1,0,0:0:0:0:
320,192,47830,1,0,0:0:0:40:hitwhistle.wav
192,192,47998,1,0,0:0:0:0:
64,192,47998,1,0,0:0:0:0:
448,192,47998,1,0,0:0:0:0:
64,192,48333,1,0,0:0:0:40:hitwhistle.wav
448,192,48333,1,0,0:0:0:0:
192,192,48417,1,0,0:0:0:40:hitwhistle.wav
320,192,48501,1,0,0:0:0:40:hitwhistle.wav
448,192,48585,1,0,0:0:0:40:hitwhistle.wav
192,192,48668,1,0,0:0:0:40:hitwhistle.wav
320,192,48668,1,0,0:0:0:0:
64,192,48752,1,0,0:0:0:40:hitwhistle.wav
192,192,48836,1,0,0:0:0:40:hitwhistle.wav
320,192,48920,1,0,0:0:0:0:
64,192,49004,1,0,0:0:0:40:hitwhistle.wav
448,192,49004,1,0,0:0:0:40:hitfinish1.wav
192,192,49004,1,0,0:0:0:40:hitfinish1.wav
320,192,49171,1,0,0:0:0:0:
448,192,49339,1,0,0:0:0:0:
192,192,49339,1,0,0:0:0:40:hitwhistle.wav
64,192,49339,1,0,0:0:0:0:
192,192,49506,1,0,0:0:0:0:
64,192,49674,1,0,0:0:0:0:
320,192,49674,1,0,0:0:0:40:hitwhistle.wav
448,192,49674,1,0,0:0:0:40:hitwhistle.wav
192,192,49842,1,0,0:0:0:0:
320,192,50009,1,0,0:0:0:40:hitwhistle.wav
448,192,50009,1,0,0:0:0:40:hitwhistle.wav
448,192,50177,1,0,0:0:0:0:
64,192,50177,1,0,0:0:0:0:
320,192,50177,1,0,0:0:0:0:
192,192,50344,1,0,0:0:0:0:
320,192,50344,1,0,0:0:0:40:hitwhistle.wav
64,192,50512,1,0,0:0:0:0:
320,192,50680,1,0,0:0:0:40:hitwhistle.wav
448,192,50680,1,0,0:0:0:40:hitwhistle.wav
64,192,50680,1,0,0:0:0:0:
192,192,50847,1,0,0:0:0:0:
448,192,51015,1,0,0:0:0:40:hitwhistle.wav
320,192,51015,1,0,0:0:0:40:hitwhistle.wav
192,192,51182,1,0,0:0:0:0:
192,192,51350,1,0,0:0:0:40:hitfinish1.wav
448,192,51350,1,0,0:0:0:40:hitfinish1.wav
64,192,51350,1,0,0:0:0:0:
320,192,51518,1,0,0:0:0:0:
64,192,51685,1,0,0:0:0:40:hitwhistle.wav
448,192,51685,1,0,0:0:0:40:hitwhistle.wav
320,192,51853,1,0,0:0:0:0:
64,192,52020,1,0,0:0:0:40:hitwhistle.wav
192,192,52020,1,0,0:0:0:40:hitwhistle.wav
320,192,52188,1,0,0:0:0:0:
192,192,52356,1,0,0:0:0:40:hitwhistle.wav
448,192,52356,1,0,0:0:0:40:hitwhistle.wav
64,192,52523,1,0,0:0:0:0:
320,192,52691,1,0,0:0:0:40:hitwhistle.wav
448,192,52691,1,0,0:0:0:40:hitwhistle.wav
64,192,52858,1,0,0:0:0:40:hitfinish1.wav
192,192,52858,1,0,0:0:0:0:
448,192,52858,1,0,0:0:0:0:
64,192,53026,1,0,0:0:0:40:hitwhistle.wav
192,192,53026,1,0,0:0:0:40:hitwhistle.wav
320,192,53194,1,0,0:0:0:40:hitfinish1.wav
448,192,53194,1,0,0:0:0:0:
64,192,53194,1,0,0:0:0:40:hitfinish1.wav
192,192,53361,1,0,0:0:0:0:
320,192,53361,1,0,0:0:0:0:
448,192,53529,1,0,0:0:0:0:
192,192,53696,1,0,0:0:0:40:hitwhistle.wav
64,192,53696,1,0,0:0:0:40:hitwhistle.wav
320,192,53864,1,0,0:0:0:0:
448,192,53864,1,0,0:0:0:0:
448,192,54032,1,0,0:0:0:40:hitwhistle.wav
192,192,54032,1,0,0:0:0:40:hitwhistle.wav
64,192,54199,1,0,0:0:0:40:hitwhistle.wav
192,192,54199,1,0,0:0:0:40:hitwhistle.wav
320,192,54367,1,0,0:0:0:40:hitwhistle.wav
64,192,54367,1,0,0:0:0:40:hitfinish1.wav
448,192,54367,1,0,0:0:0:0:
64,192,54534,1,0,0:0:0:0:
192,192,54534,1,0,0:0:0:40:hitwhistle.wav
192,192,54702,1,0,0:0:0:0:
320,192,54702,1,0,0:0:0:40:hitwhistle.wav
320,192,54870,1,0,0:0:0:0:
448,192,54870,1,0,0:0:0:0:
64,192,54870,1,0,0:0:0:0:
192,192,55037,1,0,0:0:0:0:
448,192,55037,1,0,0:0:0:40:hitwhistle.wav
64,192,55205,1,0,0:0:0:0:
192,192,55205,1,0,0:0:0:0:
320,192,55205,1,0,0:0:0:40:hitwhistle.wav
320,192,55372,1,0,0:0:0:0:
448,192,55372,1,0,0:0:0:40:hitwhistle.wav
320,192,55540,1,0,0:0:0:40:hitwhistle.wav
192,192,55540,1,0,0:0:0:0:
64,192,55708,1,0,0:0:0:0:
448,192,55708,1,0,0:0:0:0:
192,192,55708,1,0,0:0:0:0:
64,192,55875,1,0,0:0:0:40:hitwhistle.wav
192,192,55875,1,0,0:0:0:0:
64,192,56043,1,0,0:0:0:0:
320,192,56043,1,0,0:0:0:40:hitwhistle.wav
448,192,56043,1,0,0:0:0:0:
192,192,56210,1,0,0:0:0:0:
320,192,56210,1,0,0:0:0:40:hitwhistle.wav
448,192,56378,1,0,0:0:0:40:hitwhistle.wav
320,192,56378,1,0,0:0:0:0:
192,192,56546,1,0,0:0:0:40:hitwhistle.wav
64,192,56546,1,0,0:0:0:0:
448,192,56546,1,0,0:0:0:0:
448,192,56713,1,0,0:0:0:0:
320,192,56713,1,0,0:0:0:0:
192,192,56881,1,0,0:0:0:0:
64,192,56881,1,0,0:0:0:0:
320,192,57048,128,0,57216:0:0:0:0:
448,192,57048,128,0,57384:0:0:0:0:
192,192,57216,128,0,57384:0:0:0:0:
320,192,57384,128,0,57551:0:0:0:0:
64,192,57384,128,0,57719:0:0:0:0:
192,192,57551,128,0,57719:0:0:0:0:
320,192,57719,128,0,57886:0:0:0:0:
448,192,57719,128,0,58054:0:0:0:0:
192,192,57886,128,0,58054:0:0:0:0:
64,192,58222,128,0,58389:0:0:0:0:
192,192,58222,128,0,58389:0:0:0:0:
320,192,58389,1,0,0:0:0:0:
448,192,58389,1,0,0:0:0:0:
64,192,58473,1,0,0:0:0:0:
192,192,58473,1,0,0:0:0:40:hitwhistle.wav
320,192,58557,1,0,0:0:0:40:hitwhistle.wav
448,192,58557,1,0,0:0:0:40:hitwhistle.wav
192,192,58641,1,0,0:0:0:0:
64,192,58641,1,0,0:0:0:0:
192,192,58724,1,0,0:0:0:0:
320,192,58724,1,0,0:0:0:0:
448,192,58724,1,0,0:0:0:0:
320,192,59060,128,0,59562:0:0:0:0:
64,192,59562,1,0,0:0:0:40:hitfinish0.wav
192,192,59562,1,0,0:0:0:0:
448,192,59562,1,0,0:0:0:40:hitwhistle.wav
64,192,59898,1,0,0:0:0:40:hitwhistle.wav
192,192,59898,1,0,0:0:0:0:
192,192,60065,1,0,0:0:0:0:
320,192,60065,1,0,0:0:0:0:
448,192,60065,1,0,0:0:0:0:
192,192,60400,1,0,0:0:0:40:hitwhistle.wav
64,192,60400,1,0,0:0:0:0:
320,192,60568,1,0,0:0:0:40:hitwhistle.wav
448,192,60568,1,0,0:0:0:0:
448,192,60736,1,0,0:0:0:0:
192,192,60736,1,0,0:0:0:0:
64,192,60736,1,0,0:0:0:0:
320,192,61071,1,0,0:0:0:40:hitwhistle.wav
192,192,61071,1,0,0:0:0:0:
64,192,61238,1,0,0:0:0:0:
192,192,61238,1,0,0:0:0:40:hitwhistle.wav
192,192,61406,1,0,0:0:0:0:
320,192,61406,1,0,0:0:0:0:
448,192,61406,1,0,0:0:0:0:
320,192,61741,1,0,0:0:0:0:
448,192,61741,1,0,0:0:0:40:hitwhistle.wav
320,192,61909,1,0,0:0:0:40:hitwhistle.wav
192,192,61909,1,0,0:0:0:0:
64,192,62076,1,0,0:0:0:0:
448,192,62076,1,0,0:0:0:0:
192,192,62076,1,0,0:0:0:0:
64,192,62244,1,0,0:0:0:40:hitwhistle.wav
192,192,62244,1,0,0:0:0:0:
448,192,62244,1,0,0:0:0:40:hitfinish0.wav
320,192,62244,1,0,0:0:0:0:
448,192,62579,1,0,0:0:0:40:hitwhistle.wav
320,192,62579,1,0,0:0:0:0:
192,192,62747,1,0,0:0:0:0:
64,192,62747,1,0,0:0:0:0:
448,192,62747,1,0,0:0:0:0:
192,192,63082,1,0,0:0:0:40:hitwhistle.wav
64,192,63082,1,0,0:0:0:0:
320,192,63249,1,0,0:0:0:40:hitwhistle.wav
448,192,63249,1,0,0:0:0:0:
448,192,63417,1,0,0:0:0:0:
192,192,63417,1,0,0:0:0:0:
64,192,63417,1,0,0:0:0:0:
320,192,63585,1,0,0:0:0:40:hitwhistle.wav
192,192,63752,1,0,0:0:0:0:
64,192,63752,1,0,0:0:0:0:
320,192,63920,1,0,0:0:0:0:
448,192,63920,1,0,0:0:0:40:hitwhistle.wav
192,192,64087,1,0,0:0:0:0:
448,192,64087,1,0,0:0:0:0:
64,192,64087,1,0,0:0:0:0:
320,192,64423,1,0,0:0:0:0:
448,192,64423,1,0,0:0:0:40:hitwhistle.wav
320,192,64590,1,0,0:0:0:40:hitwhistle.wav
192,192,64590,1,0,0:0:0:0:
64,192,64758,1,0,0:0:0:0:
448,192,64758,1,0,0:0:0:0:
192,192,64758,1,0,0:0:0:0:
320,192,64925,1,0,0:0:0:0:
448,192,64925,1,0,0:0:0:0:
192,192,65009,1,0,0:0:0:0:
320,192,65009,1,0,0:0:0:0:
64,192,65093,1,0,0:0:0:0:
320,192,65093,1,0,0:0:0:0:
448,192,65093,1,0,0:0:0:0:
192,192,65261,1,0,0:0:0:0:
448,192,65428,1,0,0:0:0:0:
64,192,65428,1,0,0:0:0:0:
320,192,65428,1,0,0:0:0:0:
320,192,65596,1,0,0:0:0:0:
64,192,65763,1,0,0:0:0:40:hitwhistle.wav
448,192,65763,1,0,0:0:0:40:hitwhistle.wav
192,192,65931,1,0,0:0:0:0:
320,192,66099,1,0,0:0:0:0:
192,192,66099,1,0,0:0:0:0:
448,192,66099,1,0,0:0:0:0:
64,192,66266,1,0,0:0:0:0:
192,192,66434,1,0,0:0:0:40:hitwhistle.wav
320,192,66434,1,0,0:0:0:40:hitwhistle.wav
448,192,66601,1,0,0:0:0:0:
64,192,66769,1,0,0:0:0:0:
192,192,66769,1,0,0:0:0:0:
320,192,66769,1,0,0:0:0:0:
192,192,66937,1,0,0:0:0:0:
448,192,67104,1,0,0:0:0:40:hitwhistle.wav
64,192,67104,1,0,0:0:0:40:hitwhistle.wav
320,192,67272,1,0,0:0:0:0:
320,192,67439,1,0,0:0:0:0:
192,192,67439,1,0,0:0:0:0:
64,192,67439,1,0,0:0:0:0:
64,192,67607,1,0,0:0:0:0:
448,192,67775,1,0,0:0:0:40:hitwhistle.wav
192,192,67775,1,0,0:0:0:40:hitwhistle.wav
320,192,67942,1,0,0:0:0:0:
64,192,68110,1,0,0:0:0:0:
192,192,68110,1,0,0:0:0:0:
448,192,68110,1,0,0:0:0:0:
192,192,68277,1,0,0:0:0:0:
320,192,68445,1,0,0:0:0:40:hitwhistle.wav
448,192,68445,1,0,0:0:0:40:hitwhistle.wav
192,192,68613,1,0,0:0:0:0:
192,192,68780,1,0,0:0:0:0:
320,192,68780,1,0,0:0:0:0:
64,192,68780,1,0,0:0:0:0:
320,192,68948,1,0,0:0:0:0:
448,192,69115,1,0,0:0:0:40:hitwhistle.wav
64,192,69115,1,0,0:0:0:40:hitwhistle.wav
192,192,69283,1,0,0:0:0:40:hitwhistle.wav
320,192,69283,1,0,0:0:0:40:hitwhistle.wav
64,192,69451,1,0,0:0:0:0:
448,192,69451,1,0,0:0:0:0:
320,192,69451,1,0,0:0:0:0:
448,192,69702,1,0,0:0:0:0:
320,192,69702,1,0,0:0:0:0:
192,192,69786,1,0,0:0:0:0:
64,192,69786,1,0,0:0:0:0:
448,192,69953,1,0,0:0:0:0:
320,192,69953,1,0,0:0:0:0:
64,192,70121,1,0,0:0:0:0:
192,192,70121,1,0,0:0:0:0:
192,192,70289,1,0,0:0:0:0:
320,192,70289,1,0,0:0:0:0:
448,192,70456,1,0,0:0:0:40:hitwhistle.wav
320,192,70456,1,0,0:0:0:40:hitwhistle.wav
192,192,70624,1,0,0:0:0:40:hitwhistle.wav
64,192,70624,1,0,0:0:0:40:hitwhistle.wav
448,192,70791,1,0,0:0:0:40:hitwhistle.wav
192,192,70791,1,0,0:0:0:0:
64,192,70791,1,0,0:0:0:40:hitfinish0.wav
320,192,70791,1,0,0:0:0:0:
320,192,71127,1,0,0:0:0:0:
448,192,71127,1,0,0:0:0:40:hitwhistle.wav
64,192,71294,1,0,0:0:0:0:
192,192,71294,1,0,0:0:0:40:hitwhistle.wav
192,192,71462,1,0,0:0:0:0:
320,192,71462,1,0,0:0:0:0:
448,192,71462,1,0,0:0:0:0:
192,192,71797,1,0,0:0:0:40:hitwhistle.wav
64,192,71797,1,0,0:0:0:0:
320,192,71965,1,0,0:0:0:40:hitwhistle.wav
448,192,71965,1,0,0:0:0:0:
448,192,72132,1,0,0:0:0:0:
192,192,72132,1,0,0:0:0:0:
64,192,72132,1,0,0:0:0:0:
448,192,72467,1,0,0:0:0:0:
320,192,72467,1,0,0:0:0:40:hitwhistle.wav
64,192,72635,1,0,0:0:0:0:
192,192,72635,1,0,0:0:0:40:hitwhistle.wav
64,192,72803,1,0,0:0:0:0:
320,192,72803,1,0,0:0:0:0:
448,192,72803,1,0,0:0:0:0:
64,192,72970,1,0,0:0:0:40:hitfinish0.wav
320,192,72970,1,0,0:0:0:0:
448,192,72970,1,0,0:0:0:0:
192,192,72970,1,0,0:0:0:0:
320,192,73305,1,0,0:0:0:40:hitwhistle.wav
192,192,73305,1,0,0:0:0:0:
64,192,73473,1,0,0:0:0:0:
192,192,73473,1,0,0:0:0:0:
448,192,73473,1,0,0:0:0:0:
320,192,73641,1,0,0:0:0:0:
448,192,73641,1,0,0:0:0:40:hitfinish0.wav
192,192,73641,1,0,0:0:0:0:
64,192,73641,1,0,0:0:0:0:
192,192,73976,1,0,0:0:0:0:
320,192,73976,1,0,0:0:0:40:hitwhistle.wav
192,192,74143,1,0,0:0:0:0:
64,192,74143,1,0,0:0:0:0:
448,192,74143,1,0,0:0:0:0:
64,192,74311,1,0,0:0:0:0:
192,192,74311,1,0,0:0:0:0:
320,192,74311,1,0,0:0:0:40:hitfinish0.wav
448,192,74311,1,0,0:0:0:0:
320,192,74646,1,0,0:0:0:40:hitwhistle.wav
448,192,74646,1,0,0:0:0:0:
448,192,74814,1,0,0:0:0:0:
192,192,74814,1,0,0:0:0:0:
64,192,74814,1,0,0:0:0:0:
192,192,75149,1,0,0:0:0:40:hitwhistle.wav
64,192,75149,1,0,0:0:0:0:
320,192,75317,1,0,0:0:0:0:
448,192,75317,1,0,0:0:0:0:
448,192,75484,1,0,0:0:0:0:
192,192,75484,1,0,0:0:0:0:
64,192,75652,1,0,0:0:0:0:
320,192,75819,1,0,0:0:0:0:
448,192,75819,1,0,0:0:0:0:
192,192,75819,1,0,0:0:0:0:
320,192,75987,1,0,0:0:0:40:hitwhistle.wav
192,192,75987,1,0,0:0:0:0:
64,192,76154,1,0,0:0:0:0:
192,192,76154,1,0,0:0:0:40:hitwhistle.wav
448,192,76322,1,0,0:0:0:0:
320,192,76322,1,0,0:0:0:0:
64,192,76322,1,0,0:0:0:0:
192,192,76490,1,0,0:0:0:40:hitwhistle.wav
320,192,76490,1,0,0:0:0:0:
448,192,76657,1,0,0:0:0:0:
192,192,76657,1,0,0:0:0:0:
64,192,76657,1,0,0:0:0:0:
320,192,76825,1,0,0:0:0:40:hitwhistle.wav
448,192,76825,1,0,0:0:0:0:
192,192,76992,1,0,0:0:0:0:
320,192,76992,1,0,0:0:0:40:hitwhistle.wav
64,192,77160,1,0,0:0:0:0:
192,192,77160,1,0,0:0:0:0:
448,192,77160,1,0,0:0:0:0:
320,192,77328,1,0,0:0:0:40:hitwhistle.wav
192,192,77328,1,0,0:0:0:0:
320,192,77495,1,0,0:0:0:0:
448,192,77495,1,0,0:0:0:0:
64,192,77495,1,0,0:0:0:0:
64,192,77663,1,0,0:0:0:0:
448,192,77663,1,0,0:0:0:40:hitwhistle.wav
192,192,77830,1,0,0:0:0:0:
320,192,77830,1,0,0:0:0:40:hitwhistle.wav
64,192,77998,1,0,0:0:0:0:
320,192,77998,1,0,0:0:0:0:
192,192,77998,1,0,0:0:0:0:
448,192,78166,1,0,0:0:0:40:hitwhistle.wav
320,192,78166,1,0,0:0:0:0:
64,192,78333,1,0,0:0:0:0:
192,192,78333,1,0,0:0:0:40:hitwhistle.wav
320,192,78501,1,0,0:0:0:0:
448,192,78501,1,0,0:0:0:0:
192,192,78501,1,0,0:0:0:0:
320,192,78668,1,0,0:0:0:40:hitwhistle.wav
448,192,78668,1,0,0:0:0:0:
320,192,78836,1,0,0:0:0:0:
192,192,78836,1,0,0:0:0:0:
64,192,78836,1,0,0:0:0:0:
192,192,79004,1,0,0:0:0:40:hitwhistle.wav
64,192,79004,1,0,0:0:0:0:
320,192,79171,1,0,0:0:0:0:
448,192,79171,1,0,0:0:0:0:
192,192,79171,1,0,0:0:0:0:
64,192,79423,1,0,0:0:0:0:
192,192,79423,1,0,0:0:0:0:
320,192,79506,1,0,0:0:0:0:
448,192,79506,1,0,0:0:0:0:
192,192,79590,1,0,0:0:0:0:
64,192,79590,1,0,0:0:0:0:
448,192,79674,1,0,0:0:0:0:
320,192,79674,1,0,0:0:0:0:
64,192,80009,1,0,0:0:0:0:
448,192,80009,1,0,0:0:0:0:
64,192,80344,1,0,0:0:0:0:
448,192,80344,1,0,0:0:0:0:
320,192,80512,1,0,0:0:0:0:
192,192,80512,1,0,0:0:0:0:
64,192,80512,1,0,0:0:0:0:
192,192,80680,1,0,0:0:0:0:
320,192,80680,1,0,0:0:0:0:
448,192,80680,1,0,0:0:0:0:
64,192,80847,1,0,0:0:0:0:
448,192,80847,1,0,0:0:0:40:hitwhistle.wav
64,192,81015,128,0,82523:0:0:0:40:hitfinish0.wav
192,192,81015,1,0,0:0:0:40:hitwhistle.wav
448,192,81015,1,0,0:0:0:0:
320,192,81015,1,0,0:0:0:0:
192,192,81350,1,0,0:0:0:40:hitwhistle.wav
320,192,81518,1,0,0:0:0:0:
192,192,81518,1,0,0:0:0:0:
448,192,81853,1,0,0:0:0:40:hitwhistle.wav
320,192,82020,1,0,0:0:0:40:hitwhistle.wav
192,192,82188,1,0,0:0:0:0:
448,192,82188,1,0,0:0:0:0:
320,192,82523,1,0,0:0:0:40:hitwhistle.wav
192,192,82523,128,0,83696:0:0:0:0:
64,192,82691,1,0,0:0:0:40:hitwhistle.wav
320,192,82858,1,0,0:0:0:0:
448,192,82858,1,0,0:0:0:0:
320,192,83194,1,0,0:0:0:40:hitwhistle.wav
64,192,83361,1,0,0:0:0:40:hitwhistle.wav
320,192,83529,1,0,0:0:0:0:
448,192,83529,1,0,0:0:0:0:
448,192,83696,1,0,0:0:0:40:hitwhistle.wav
320,192,83696,128,0,85205:0:0:0:40:hitfinish0.wav
64,192,83696,1,0,0:0:0:0:
64,192,84032,1,0,0:0:0:40:hitwhistle.wav
448,192,84199,1,0,0:0:0:0:
192,192,84199,1,0,0:0:0:0:
192,192,84534,1,0,0:0:0:40:hitwhistle.wav
64,192,84702,1,0,0:0:0:40:hitwhistle.wav
448,192,84870,1,0,0:0:0:0:
192,192,84870,1,0,0:0:0:0:
64,192,85205,1,0,0:0:0:40:hitwhistle.wav
448,192,85205,128,0,86378:0:0:0:0:
192,192,85205,1,0,0:0:0:0:
320,192,85372,1,0,0:0:0:40:hitwhistle.wav
64,192,85540,1,0,0:0:0:0:
192,192,85540,1,0,0:0:0:0:
320,192,85708,1,0,0:0:0:0:
192,192,85875,1,0,0:0:0:40:hitwhistle.wav
64,192,86043,1,0,0:0:0:0:
320,192,86210,1,0,0:0:0:0:
192,192,86210,1,0,0:0:0:0:
320,192,86378,1,0,0:0:0:40:hitfinish1.wav
64,192,86378,1,0,0:0:0:40:hitwhistle.wav
192,192,86378,128,0,87886:0:0:0:0:
320,192,86713,1,0,0:0:0:40:hitwhistle.wav
64,192,86881,1,0,0:0:0:0:
448,192,86881,1,0,0:0:0:0:
64,192,87216,1,0,0:0:0:40:hitwhistle.wav
448,192,87384,1,0,0:0:0:40:hitwhistle.wav
64,192,87551,1,0,0:0:0:0:
320,192,87551,1,0,0:0:0:0:
320,192,87886,1,0,0:0:0:40:hitwhistle.wav
448,192,87886,128,0,89060:0:0:0:0:
192,192,88054,1,0,0:0:0:40:hitwhistle.wav
320,192,88222,1,0,0:0:0:0:
64,192,88222,1,0,0:0:0:0:
320,192,88557,1,0,0:0:0:40:hitwhistle.wav
64,192,88724,1,0,0:0:0:40:hitwhistle.wav
320,192,88892,1,0,0:0:0:0:
192,192,88892,1,0,0:0:0:0:
192,192,89060,1,0,0:0:0:0:
64,192,89060,128,0,90400:0:0:0:40:hitfinish0.wav
320,192,89060,1,0,0:0:0:0:
448,192,89395,1,0,0:0:0:40:hitwhistle.wav
192,192,89562,1,0,0:0:0:0:
320,192,89562,1,0,0:0:0:0:
448,192,89898,1,0,0:0:0:40:hitwhistle.wav
192,192,90065,1,0,0:0:0:40:hitwhistle.wav
448,192,90233,1,0,0:0:0:0:
320,192,90233,1,0,0:0:0:0:
448,192,90400,1,0,0:0:0:0:
192,192,90400,1,0,0:0:0:0:
320,192,90568,1,0,0:0:0:0:
192,192,90652,1,0,0:0:0:0:
64,192,90652,1,0,0:0:0:0:
320,192,90736,1,0,0:0:0:0:
448,192,90736,1,0,0:0:0:0:
192,192,90903,1,0,0:0:0:0:
64,192,90903,1,0,0:0:0:0:
320,192,90987,1,0,0:0:0:0:
448,192,90987,1,0,0:0:0:0:
192,192,91071,1,0,0:0:0:0:
64,192,91071,1,0,0:0:0:0:
320,192,91154,1,0,0:0:0:0:
448,192,91154,1,0,0:0:0:0:
192,192,91238,1,0,0:0:0:0:
64,192,91238,1,0,0:0:0:0:
320,192,91322,1,0,0:0:0:0:
448,192,91322,1,0,0:0:0:0:
192,192,91406,1,0,0:0:0:0:
64,192,91406,1,0,0:0:0:0:
320,192,91490,1,0,0:0:0:0:
448,192,91573,1,0,0:0:0:0:
64,192,91573,1,0,0:0:0:0:
192,192,91573,1,0,0:0:0:0:
