osu file format v14

[General]
AudioFilename: audio.mp3
AudioLeadIn: 0
PreviewTime: 141597
Countdown: 0
SampleSet: Soft
StackLeniency: 0.3
Mode: 0
LetterboxInBreaks: 0
WidescreenStoryboard: 1

[Editor]
Bookmarks: 3659,23608,33350,43401,58247,63195,82834,102783,112525,122577,132474,142371,162010,181958,201752,224020,243814,268556,288195
DistanceSpacing: 0.2
BeatDivisor: 4
GridSize: 32
TimelineZoom: 2.599999

[Metadata]
Title:Wings of light
TitleUnicode:Wings of light
Artist:Akitsuki Fuuka (CV: Lynn)
ArtistUnicode:秋月 風夏 (CV: Lynn)
Creator:buckfro
Version:Expert
Source:風夏
Tags:west ground seo koji Takuro Iga japanese pop jpop j-pop anime 瀬尾公治
BeatmapID:3775376
BeatmapSetID:1838448

[Difficulty]
HPDrainRate:6
CircleSize:5
OverallDifficulty:9
ApproachRate:9.4
SliderMultiplier:2
SliderTickRate:1

[Events]
//Background and Video events
0,0,"yande.re_796460_garter_girl_cafe_gun_girl_cafe_gun_ii_juno_emmons_rococo_girl_cafe_gun_skirt_lift_stockings_tagme_thighhighs_wallpaper.jpg",0,0
//Break Periods
2,102983,109033
//Storyboard Layer 0 (Background)
//Storyboard Layer 1 (Fail)
//Storyboard Layer 2 (Pass)
//Storyboard Layer 3 (Foreground)
//Storyboard Layer 4 (Overlay)
//Storyboard Sound Samples

[TimingPoints]
103,309.278350515464,4,2,31,45,1,0
412,-100,4,2,32,45,0,0
566,-100,4,2,31,45,0,0
721,-100,4,2,32,45,0,0
876,-100,4,2,31,45,0,0
1030,-100,4,2,31,45,0,0
3505,-100,4,2,2,60,0,0
3659,-90.9090909090909,4,2,1,60,0,0
4123,-100,4,2,1,60,0,0
4742,-90.9090909090909,4,2,2,60,0,0
5360,-100,4,2,3,60,0,0
5979,-333.333333333333,4,2,2,60,0,0
6288,-100,4,2,1,60,0,0
7216,-100,4,2,2,60,0,0
7371,-90.9090909090909,4,2,2,60,0,0
7834,-100,4,2,3,60,0,0
8453,-333.333333333333,4,2,2,60,0,0
8762,-100,4,2,1,60,0,0
9690,-100,4,2,2,60,0,0
10309,-100,4,2,3,60,0,0
10927,-100,4,2,2,60,0,0
11546,-250,4,2,1,60,0,0
12010,-250,4,2,2,60,0,0
12474,-250,4,2,3,60,0,0
12938,-100,4,2,2,60,0,0
13401,-100,4,2,1,60,0,0
13556,-90.9090909090909,4,2,1,60,0,0
14020,-100,4,2,1,60,0,0
14639,-90.9090909090909,4,2,2,60,0,0
15257,-100,4,2,3,60,0,0
15876,-333.333333333333,4,2,2,60,0,0
16185,-100,4,2,1,60,0,0
17113,-90.9090909090909,4,2,2,60,0,0
17731,-100,4,2,3,60,0,0
18350,-333.333333333333,4,2,2,60,0,0
18659,-100,4,2,1,60,0,0
19587,-100,4,2,2,60,0,0
20206,-100,4,2,3,60,0,0
20824,-333.333333333333,4,2,2,60,0,0
21443,-100,4,2,1,60,0,0
21907,-100,4,2,2,60,0,0
22371,-100,4,2,3,60,0,0
22834,-100,4,2,2,60,0,0
23144,-100,4,2,3,60,0,0
23453,-100,4,2,2,60,0,0
23608,-166.666666666667,4,2,6,45,0,0
23917,-333.333333333334,4,2,6,45,0,0
24226,-166.666666666667,4,2,6,45,0,0
26082,-333.333333333334,4,2,6,45,0,0
26391,-166.666666666667,4,2,6,45,0,0
26700,-166.666666666667,4,2,6,45,0,0
28401,-100,4,2,5,45,0,0
28556,-166.666666666667,4,2,6,45,0,0
28865,-333.333333333334,4,2,6,45,0,0
29175,-166.666666666667,4,2,6,45,0,0
30721,-333.333333333334,4,2,6,45,0,0
31030,-166.666666666667,4,2,6,45,0,0
32577,-125,4,2,6,45,0,0
33195,-100,4,2,5,55,0,0
33350,-100,4,2,4,55,0,0
33814,-333.333333333333,4,2,5,55,0,0
34432,-125,4,2,6,55,0,0
35206,-100,4,2,6,55,0,0
35824,-125,4,2,6,55,0,0
36288,-333.333333333333,4,2,5,55,0,0
36597,-125,4,2,5,55,0,0
36907,-100,4,2,6,55,0,0
38762,-100,4,2,5,55,0,0
39381,-100,4,2,6,55,0,0
39535,-125,4,2,6,55,0,0
39999,-333.333333333333,4,2,6,55,0,0
41237,-125,4,2,5,55,0,0
41855,-100,4,2,6,55,0,0
42474,-100,4,2,5,55,0,0
42783,-100,4,2,6,55,0,0
43092,-100,4,2,5,55,0,0
43247,-100,4,2,6,55,0,0
43401,-166.666666666667,4,2,6,50,0,0
44020,-125,4,2,6,50,0,0
45566,-333.333333333333,4,2,7,50,0,0
45876,-100,4,2,6,50,0,0
46494,-142.857142857143,4,2,6,50,0,0
48350,-166.666666666667,4,2,6,50,0,0
48968,-125,4,2,6,50,0,0
50515,-333.333333333333,4,2,7,50,0,0
50824,-100,4,2,6,50,0,0
51288,-200,4,2,6,50,0,0
51907,-142.857142857143,4,2,6,50,0,0
52216,-333.333333333334,4,2,6,50,0,0
53298,-142.857142857143,4,2,6,55,0,0
55773,-100,4,2,6,55,0,0
56391,-200,4,2,6,55,0,0
58247,-100,4,2,4,50,0,0
58556,-100,4,2,6,50,0,0
59020,-100,4,2,4,50,0,0
59329,-100,4,2,8,45,0,0
60721,-100,4,2,6,50,0,0
61804,-100,4,2,4,50,0,0
62577,-666.666666666667,4,2,4,50,0,0
62886,-200,4,2,7,50,0,0
63195,-80,4,2,6,65,0,0
63505,-100,4,2,6,65,0,0
64123,-333.333333333333,4,2,6,65,0,0
64742,-80,4,2,6,65,0,0
65051,-153.846153846154,4,2,6,65,0,0
65670,-86.9565217391304,4,2,6,65,0,0
66133,-100,4,2,6,65,0,0
67216,-333.333333333333,4,2,6,65,0,0
67525,-200,4,2,6,65,0,0
67834,-333.333333333334,4,2,7,65,0,0
68144,-80,4,2,6,65,0,0
68762,-100,4,2,6,65,0,0
69072,-333.333333333333,4,2,7,65,0,0
69381,-86.9565217391304,4,2,6,65,0,0
69690,-333.333333333333,4,2,6,65,0,0
69999,-100,4,2,6,65,0,0
70618,-100,4,2,9,65,0,0
70773,-100,4,2,6,65,0,0
72938,-100,4,2,5,65,0,0
73092,-100,4,2,6,65,0,0
74639,-333.333333333333,4,2,6,65,0,0
74948,-200,4,2,6,65,0,0
75257,-142.857142857143,4,2,6,65,0,0
75566,-100,4,2,6,65,0,0
77113,-333.333333333333,4,2,6,65,0,0
77422,-200,4,2,6,65,0,0
77731,-100,4,2,7,65,0,0
78041,-100,4,2,6,65,0,0
78350,-333.333333333333,4,2,6,65,0,0
78659,-111.111111111111,4,2,6,65,0,0
78968,-333.333333333333,4,2,7,65,0,0
79278,-111.111111111111,4,2,6,65,0,0
79587,-333.333333333333,4,2,6,65,0,0
79896,-111.111111111111,4,2,6,65,0,0
80515,-80,4,2,9,65,0,0
80670,-80,4,2,6,65,0,0
81133,-100,4,2,5,65,0,0
81288,-100,4,2,6,65,0,0
81597,-100,4,2,5,65,0,0
82834,-90.9090909090909,4,2,1,60,0,0
83298,-100,4,2,1,60,0,0
83917,-90.9090909090909,4,2,2,60,0,0
84535,-100,4,2,3,60,0,0
85154,-333.333333333333,4,2,2,60,0,0
85463,-100,4,2,1,60,0,0
86391,-100,4,2,2,60,0,0
86546,-90.9090909090909,4,2,2,60,0,0
87010,-100,4,2,3,60,0,0
87628,-333.333333333333,4,2,2,60,0,0
87938,-100,4,2,1,60,0,0
88865,-100,4,2,2,60,0,0
89484,-100,4,2,3,60,0,0
90103,-100,4,2,2,60,0,0
90721,-250,4,2,1,60,0,0
91185,-250,4,2,2,60,0,0
91649,-250,4,2,3,60,0,0
92113,-100,4,2,2,60,0,0
92577,-100,4,2,1,60,0,0
92731,-90.9090909090909,4,2,1,60,0,0
93195,-100,4,2,1,60,0,0
93814,-90.9090909090909,4,2,2,60,0,0
94432,-100,4,2,3,60,0,0
95051,-333.333333333333,4,2,2,60,0,0
95360,-100,4,2,1,60,0,0
96288,-90.9090909090909,4,2,2,60,0,0
96907,-100,4,2,3,60,0,0
97525,-333.333333333333,4,2,2,60,0,0
97834,-100,4,2,1,60,0,0
98762,-100,4,2,2,60,0,0
99381,-100,4,2,3,60,0,0
99999,-333.333333333333,4,2,2,60,0,0
100618,-100,4,2,1,60,0,0
101082,-100,4,2,2,60,0,0
101546,-100,4,2,3,60,0,0
102010,-100,4,2,2,60,0,0
102319,-100,4,2,3,60,0,0
102474,-100,4,2,2,60,0,0
102628,-100,4,2,13,60,0,0
102783,-100,4,2,12,60,0,0
109587,-200,4,2,6,50,0,0
112525,-100,4,2,4,55,0,0
112989,-333.333333333333,4,2,5,55,0,0
113608,-125,4,2,6,55,0,0
114381,-100,4,2,6,55,0,0
114999,-125,4,2,6,55,0,0
115463,-333.333333333333,4,2,5,55,0,0
115773,-125,4,2,5,55,0,0
116082,-100,4,2,6,55,0,0
117938,-100,4,2,5,55,0,0
118556,-100,4,2,6,55,0,0
118711,-125,4,2,6,55,0,0
119175,-333.333333333333,4,2,6,55,0,0
120412,-125,4,2,5,55,0,0
121030,-100,4,2,6,55,0,0
121649,-100,4,2,5,55,0,0
121958,-100,4,2,6,55,0,0
122267,-100,4,2,5,55,0,0
122422,-100,4,2,6,55,0,0
122576,-166.666666666667,4,2,6,50,0,0
123195,-125,4,2,6,50,0,0
124742,-333.333333333333,4,2,7,50,0,0
125051,-100,4,2,6,50,0,0
125670,-142.857142857143,4,2,6,50,0,0
127525,-166.666666666667,4,2,6,50,0,0
128144,-125,4,2,6,50,0,0
129690,-333.333333333333,4,2,7,50,0,0
129999,-100,4,2,6,50,0,0
130463,-200,4,2,6,50,0,0
131082,-142.857142857143,4,2,6,50,0,0
131391,-333.333333333334,4,2,6,50,0,0
132319,-333.333333333334,4,2,5,50,0,0
132473,-142.857142857143,4,2,6,55,0,0
134948,-100,4,2,6,55,0,0
135566,-200,4,2,6,55,0,0
137113,-333.333333333333,4,2,6,55,0,0
137422,-333.333333333333,4,2,4,45,0,0
139896,-200,4,2,6,45,0,0
141752,-100,4,2,6,45,0,0
142061,-100,4,2,5,45,0,0
142371,-80,4,2,1,65,0,0
142680,-100,4,2,1,65,0,0
143298,-333.333333333333,4,2,1,65,0,0
143917,-80,4,2,1,65,0,0
144226,-153.846153846154,4,2,1,65,0,0
144845,-86.9565217391304,4,2,1,65,0,0
145309,-100,4,2,1,65,0,0
146391,-333.333333333333,4,2,1,65,0,0
146700,-200,4,2,1,65,0,0
147010,-333.333333333334,4,2,7,65,0,0
147319,-80,4,2,6,65,0,0
147938,-100,4,2,6,65,0,0
148247,-333.333333333333,4,2,7,65,0,0
148556,-86.9565217391304,4,2,6,65,0,0
148865,-333.333333333333,4,2,6,65,0,0
149175,-100,4,2,6,65,0,0
149793,-100,4,2,9,65,0,0
149948,-100,4,2,6,65,0,0
151340,-100,4,2,6,65,0,0
151649,-100,4,2,6,65,0,0
151804,-100,4,2,5,65,0,0
151958,-100,4,2,6,65,0,0
152113,-100,4,2,5,65,0,0
152267,-100,4,2,6,65,0,0
153814,-333.333333333333,4,2,6,65,0,0
154123,-200,4,2,6,65,0,0
154432,-142.857142857143,4,2,6,65,0,0
154742,-100,4,2,6,65,0,0
156288,-333.333333333333,4,2,6,65,0,0
156597,-200,4,2,6,65,0,0
156907,-100,4,2,7,65,0,0
157216,-100,4,2,6,65,0,0
157525,-333.333333333333,4,2,6,65,0,0
157834,-111.111111111111,4,2,6,65,0,0
158144,-333.333333333333,4,2,7,65,0,0
158453,-111.111111111111,4,2,6,65,0,0
158762,-333.333333333333,4,2,6,65,0,0
159072,-111.111111111111,4,2,6,65,0,0
159690,-80,4,2,9,65,0,0
159845,-80,4,2,6,65,0,0
160309,-100,4,2,6,65,0,0
160463,-100,4,2,6,65,0,0
160773,-100,4,2,6,65,0,0
160927,-100,4,2,1,65,0,0
162009,-86.9565217391304,4,2,3,55,0,0
162474,-285.714285714286,4,2,3,55,0,0
162783,-86.9565217391304,4,2,3,55,0,0
162938,-153.846153846154,4,2,3,55,0,0
163247,-86.9565217391305,4,2,3,55,0,0
163711,-100,4,2,3,55,0,0
164948,-86.9565217391304,4,2,3,55,0,0
165412,-285.714285714286,4,2,3,55,0,0
165721,-86.9565217391304,4,2,3,55,0,0
166340,-100,4,2,3,55,0,0
167113,-80,4,2,3,55,0,0
167422,-285.714285714286,4,2,3,55,0,0
168041,-86.9565217391304,4,2,3,55,0,0
169587,-80,4,2,3,55,0,0
169896,-86.9565217391304,4,2,3,55,0,0
170051,-80,4,2,3,55,0,0
170515,-100,4,2,3,55,0,0
170824,-153.846153846153,4,2,3,55,0,0
171288,-100,4,2,3,55,0,0
171907,-86.9565217391304,4,2,3,55,0,0
172989,-117.647058823529,4,2,3,55,0,0
173144,-80,4,2,3,55,0,0
173608,-86.9565217391304,4,2,3,55,0,0
173917,-153.846153846153,4,2,3,55,0,0
174226,-86.9565217391302,4,2,3,55,0,0
174535,-80,4,2,3,55,0,0
174845,-86.9565217391304,4,2,3,55,0,0
175463,-117.647058823529,4,2,3,55,0,0
175618,-79.9999999999998,4,2,3,55,0,0
176082,-86.9565217391304,4,2,3,55,0,0
176391,-153.846153846153,4,2,3,55,0,0
176700,-86.9565217391302,4,2,3,55,0,0
177010,-80,4,2,3,55,0,0
177938,-100,4,2,3,55,0,0
181340,-100,4,2,2,55,0,0
181958,-74.0740740740741,4,2,6,60,0,0
182267,-100,4,2,6,60,0,0
183659,-86.9565217391304,4,2,6,60,0,0
184742,-100,4,2,6,60,0,0
186133,-86.9565217391304,4,2,6,60,0,0
186907,-74.0740740740741,4,2,6,60,0,0
187216,-285.714285714286,4,2,6,60,0,0
188144,-95.2380952380952,4,2,6,60,0,0
188453,-500,4,2,6,60,0,0
189381,-80,4,2,9,60,0,0
189535,-80,4,2,6,60,0,0
189690,-74.0740740740741,4,2,6,60,0,0
190463,-86.9565217391304,4,2,6,60,0,0
191855,-74.0740740740741,4,2,6,60,0,0
192164,-100,4,2,6,60,0,0
193556,-86.9565217391304,4,2,6,60,0,0
194639,-100,4,2,6,60,0,0
196030,-86.9565217391304,4,2,6,60,0,0
196804,-74.0740740740741,4,2,6,60,0,0
197113,-285.714285714286,4,2,6,60,0,0
198041,-95.2380952380952,4,2,6,60,0,0
198350,-500,4,2,6,60,0,0
199278,-80,4,2,9,60,0,0
199587,-74.0740740740741,4,2,4,60,0,0
200360,-133.333333333333,4,2,4,60,0,0
201133,-100,4,2,6,60,0,0
201752,-74.0740740740741,4,2,6,65,0,0
202061,-86.9565217391304,4,2,6,65,0,0
202989,-74.0740740740741,4,2,6,65,0,0
203453,-285.714285714286,4,2,6,65,0,0
204226,-86.9565217391304,4,2,6,65,0,0
204535,-117.647058823529,4,2,6,65,0,0
206700,-285.714285714283,4,2,6,65,0,0
207010,-74.0740740740739,4,2,6,65,0,0
207938,-285.714285714286,4,2,6,65,0,0
208247,-74.0740740740741,4,2,6,65,0,0
208865,-117.647058823529,4,2,6,65,0,0
209175,-100,4,2,9,65,0,0
209329,-100,4,2,6,65,0,0
209484,-86.9565217391304,4,2,6,65,0,0
209793,-117.647058823529,4,2,6,65,0,0
211030,-100,4,2,5,65,0,0
211649,-74.0740740740741,4,2,6,65,0,0
211958,-86.9565217391304,4,2,6,65,0,0
212886,-74.0740740740741,4,2,6,65,0,0
213350,-285.714285714286,4,2,6,65,0,0
214123,-117.647058823529,4,2,6,65,0,0
214432,-117.647058823529,4,2,6,65,0,0
216597,-285.714285714283,4,2,6,65,0,0
216907,-74.0740740740739,4,2,6,65,0,0
217371,-117.647058823529,4,2,6,65,0,0
217834,-285.714285714286,4,2,6,65,0,0
218144,-74.0740740740741,4,2,6,65,0,0
218608,-133.333333333333,4,2,6,65,0,0
219072,-100,4,2,9,65,0,0
219226,-100,4,2,6,65,0,0
224020,-500,4,2,6,30,0,0
224329,-500,4,2,7,30,0,0
224639,-500,4,2,6,30,0,0
224948,-500,4,2,7,30,0,0
225257,-500,4,2,6,30,0,0
225566,-500,4,2,7,30,0,0
225876,-500,4,2,6,30,0,0
226185,-500,4,2,7,30,0,0
226494,-500,4,2,6,30,0,0
226804,-500,4,2,7,30,0,0
227113,-500,4,2,6,30,0,0
227422,-500,4,2,7,30,0,0
227731,-500,4,2,6,30,0,0
228041,-500,4,2,7,30,0,0
228350,-500,4,2,6,30,0,0
228659,-500,4,2,7,30,0,0
228968,-500,4,2,6,30,0,0
229278,-500,4,2,7,30,0,0
229587,-500,4,2,6,30,0,0
229896,-500,4,2,7,30,0,0
230206,-500,4,2,6,30,0,0
230515,-500,4,2,7,30,0,0
230824,-500,4,2,6,30,0,0
231133,-500,4,2,7,30,0,0
231443,-500,4,2,6,30,0,0
231752,-500,4,2,7,30,0,0
232061,-500,4,2,6,30,0,0
232371,-500,4,2,7,30,0,0
232680,-500,4,2,6,30,0,0
232989,-500,4,2,7,30,0,0
233298,-500,4,2,6,30,0,0
233608,-500,4,2,7,30,0,0
233917,-500,4,2,6,30,0,0
234226,-500,4,2,7,30,0,0
234535,-500,4,2,6,30,0,0
234845,-500,4,2,7,30,0,0
235154,-500,4,2,6,30,0,0
235463,-500,4,2,7,30,0,0
235773,-500,4,2,6,30,0,0
236082,-500,4,2,7,30,0,0
236391,-500,4,2,6,30,0,0
236700,-500,4,2,7,30,0,0
237010,-500,4,2,6,30,0,0
237319,-500,4,2,7,30,0,0
237628,-500,4,2,6,30,0,0
237938,-500,4,2,7,30,0,0
238247,-500,4,2,6,30,0,0
238556,-500,4,2,7,30,0,0
238865,-500,4,2,6,30,0,0
239175,-500,4,2,7,30,0,0
239484,-500,4,2,6,30,0,0
239793,-500,4,2,7,30,0,0
240103,-500,4,2,6,30,0,0
240412,-500,4,2,7,30,0,0
240721,-500,4,2,6,30,0,0
241030,-500,4,2,7,30,0,0
241340,-500,4,2,6,30,0,0
241649,-500,4,2,7,30,0,0
241958,-500,4,2,6,30,0,0
242267,-500,4,2,7,30,0,0
242577,-500,4,2,6,30,0,0
242886,-500,4,2,7,30,0,0
243195,-500,4,2,6,30,0,0
243505,-500,4,2,7,30,0,0
243814,-500,4,2,10,35,0,0
244123,-500,4,2,7,35,0,0
244432,-500,4,2,10,35,0,0
244742,-500,4,2,7,35,0,0
245051,-500,4,2,10,35,0,0
245360,-500,4,2,7,35,0,0
245670,-500,4,2,10,35,0,0
245979,-500,4,2,7,35,0,0
246288,-500,4,2,10,35,0,0
246597,-500,4,2,7,35,0,0
246907,-500,4,2,10,35,0,0
247216,-500,4,2,7,35,0,0
247525,-500,4,2,10,35,0,0
247834,-500,4,2,7,35,0,0
248144,-500,4,2,10,35,0,0
248453,-500,4,2,7,35,0,0
248762,-500,4,2,10,35,0,0
249072,-500,4,2,7,35,0,0
249381,-500,4,2,10,35,0,0
249690,-500,4,2,7,35,0,0
249999,-500,4,2,10,35,0,0
250309,-500,4,2,7,35,0,0
250618,-500,4,2,10,35,0,0
250927,-500,4,2,7,35,0,0
251237,-500,4,2,10,35,0,0
251546,-500,4,2,7,35,0,0
251855,-500,4,2,10,35,0,0
252164,-500,4,2,7,35,0,0
252474,-500,4,2,10,35,0,0
252783,-500,4,2,7,35,0,0
253092,-500,4,2,10,35,0,0
253401,-500,4,2,7,35,0,0
253711,-500,4,2,10,35,0,0
254020,-500,4,2,7,35,0,0
254329,-500,4,2,10,35,0,0
254639,-500,4,2,7,35,0,0
254948,-500,4,2,10,35,0,0
255257,-500,4,2,7,35,0,0
255566,-500,4,2,10,35,0,0
255876,-500,4,2,7,35,0,0
256185,-500,4,2,10,35,0,0
256494,-500,4,2,7,35,0,0
256804,-500,4,2,10,35,0,0
257113,-500,4,2,7,35,0,0
257422,-500,4,2,10,35,0,0
257731,-500,4,2,7,35,0,0
258041,-500,4,2,10,35,0,0
258350,-500,4,2,7,35,0,0
258659,-500,4,2,10,35,0,0
258968,-500,4,2,7,35,0,0
259278,-500,4,2,10,35,0,0
259587,-500,4,2,7,35,0,0
259896,-500,4,2,10,35,0,0
260206,-500,4,2,7,35,0,0
260515,-500,4,2,10,35,0,0
260824,-500,4,2,7,35,0,0
261133,-500,4,2,10,35,0,0
261443,-500,4,2,7,35,0,0
261752,-500,4,2,10,35,0,0
262061,-500,4,2,7,35,0,0
262371,-500,4,2,10,35,0,0
262680,-500,4,2,7,35,0,0
262989,-500,4,2,10,35,0,0
266082,-100,4,2,6,50,0,0
266546,-100,4,2,5,50,0,0
267319,-100,4,2,6,50,0,0
267938,-666.666666666667,4,2,6,50,0,0
268247,-200,4,2,7,50,0,0
268556,-80,4,2,6,65,0,0
268865,-100,4,2,6,65,0,0
269484,-333.333333333333,4,2,6,65,0,0
270103,-80,4,2,6,65,0,0
270412,-153.846153846154,4,2,6,65,0,0
271030,-86.9565217391304,4,2,6,65,0,0
271494,-100,4,2,6,65,0,0
272577,-333.333333333333,4,2,6,65,0,0
272886,-200,4,2,6,65,0,0
273195,-333.333333333334,4,2,7,65,0,0
273505,-80,4,2,6,65,0,0
274123,-100,4,2,6,65,0,0
274432,-333.333333333333,4,2,7,65,0,0
274742,-86.9565217391304,4,2,6,65,0,0
275051,-333.333333333333,4,2,6,65,0,0
275360,-100,4,2,6,65,0,0
275979,-100,4,2,9,65,0,0
276133,-100,4,2,6,65,0,0
277525,-100,4,2,6,65,0,0
277834,-100,4,2,6,65,0,0
277989,-100,4,2,6,65,0,0
278144,-100,4,2,6,65,0,0
278298,-100,4,2,5,65,0,0
278453,-100,4,2,6,65,0,0
279999,-333.333333333333,4,2,6,65,0,0
280309,-200,4,2,6,65,0,0
280618,-142.857142857143,4,2,6,65,0,0
280927,-100,4,2,6,65,0,0
282474,-333.333333333333,4,2,6,65,0,0
282783,-200,4,2,6,65,0,0
283092,-100,4,2,7,65,0,0
283401,-100,4,2,6,65,0,0
283711,-333.333333333333,4,2,6,65,0,0
284020,-111.111111111111,4,2,6,65,0,0
284329,-333.333333333333,4,2,7,65,0,0
284639,-111.111111111111,4,2,6,65,0,0
284948,-333.333333333333,4,2,6,65,0,0
285257,-111.111111111111,4,2,6,65,0,0
285876,-80,4,2,9,65,0,0
286030,-80,4,2,6,65,0,0
286494,-100,4,2,6,65,0,0
286649,-100,4,2,6,65,0,0
286958,-100,4,2,6,65,0,0
288041,-100,4,2,6,65,0,0
288195,-90.9090909090909,4,2,1,60,0,0
288659,-100,4,2,1,60,0,0
289278,-90.9090909090909,4,2,2,60,0,0
289896,-100,4,2,3,60,0,0
290515,-333.333333333333,4,2,2,60,0,0
290824,-100,4,2,1,60,0,0
291752,-100,4,2,2,60,0,0
291907,-90.9090909090909,4,2,2,60,0,0
292371,-100,4,2,3,60,0,0
292989,-333.333333333333,4,2,2,60,0,0
293298,-100,4,2,1,60,0,0
294226,-100,4,2,2,60,0,0
294845,-100,4,2,3,60,0,0
295463,-100,4,2,2,60,0,0
296082,-250,4,2,1,60,0,0
296546,-250,4,2,2,60,0,0
297010,-250,4,2,3,60,0,0
297474,-100,4,2,2,60,0,0
297938,-100,4,2,1,60,0,0
298092,-90.9090909090909,4,2,1,60,0,0
298556,-100,4,2,1,60,0,0
299175,-90.9090909090909,4,2,2,60,0,0
299793,-100,4,2,3,60,0,0
300412,-333.333333333333,4,2,2,60,0,0
300721,-100,4,2,1,60,0,0
301649,-90.9090909090909,4,2,2,60,0,0
302267,-100,4,2,3,60,0,0
302886,-333.333333333333,4,2,2,60,0,0
303195,-100,4,2,1,60,0,0
304123,-100,4,2,2,60,0,0
304742,-100,4,2,3,60,0,0
305051,-100,4,2,2,60,0,0
305360,-333.333333333333,4,2,2,60,0,0
305979,-100,4,2,1,60,0,0
306443,-100,4,2,2,60,0,0
306907,-100,4,2,3,60,0,0
307371,-100,4,2,2,60,0,0
307680,-100,4,2,3,60,0,0
308330,309.278350515464,4,2,2,60,1,0
309412,-100,4,2,12,60,0,0
319145,309.278350515464,4,2,1,45,1,0
320218,444.444444444444,4,2,2,45,1,0
320218,-117.647058823529,4,2,2,45,0,0
321806,379.746835443038,4,2,6,60,1,0

[Colours]
Combo1 : 255,187,119
Combo2 : 197,197,254
Combo3 : 102,171,255
Combo4 : 17,225,249

[HitObjects]
168,115,103,5,2,0:2:0:0:
173,103,257,1,2,0:2:0:0:
128,192,412,5,2,0:2:0:0:
156,267,566,1,2,0:2:0:0:
32,192,721,5,2,0:2:0:0:
68,94,876,1,2,0:2:0:0:
128,32,1030,5,2,0:2:0:0:
128,32,1185,1,2,0:2:0:0:
256,32,1494,5,2,0:2:0:0:
256,32,1649,1,2,0:2:0:0:
384,32,1958,5,2,0:2:0:0:
384,32,2113,1,2,0:2:0:0:
480,128,2422,5,2,0:2:0:0:
475,116,2577,1,2,1:2:0:0:
480,256,2731,5,2,0:2:0:0:
454,325,2886,1,2,1:2:0:0:
454,325,3195,1,0,1:0:0:0:
359,373,3505,1,8,3:2:0:0:
348,380,3582,1,8,3:2:0:0:
336,376,3659,6,0,B|307:358|306:309|320:246|371:214|419:233|412:268,1,220.000006713867,4|0,3:2|3:0,0:0:0:0:
499,361,4123,2,0,P|434:359|412:314,1,100,10|0,3:2|3:0,0:0:0:0:
304,258,4432,2,0,P|273:200|301:159,1,100,2|0,3:2|3:0,0:0:0:0:
284,173,4742,1,8,3:2:0:0:
412,263,4896,6,0,P|323:259|214:331,1,220.000006713867,6|2,3:2|3:2,0:0:0:0:
65,384,5360,1,10,3:2:0:0:
0,265,5515,2,0,B|13:257|13:257|111:274,2,100,2|0|0,3:2|3:0|3:0,0:0:0:0:
152,229,5979,6,0,P|165:247|170:269,1,44.999998626709,10|0,3:2|0:0,0:0:0:0:
147,344,6288,5,6,3:2:0:0:
73,303,6443,1,2,3:2:0:0:
15,185,6597,1,10,3:2:0:0:
41,34,6752,6,0,P|99:16|141:24,1,100,2|0,3:2|3:0,0:0:0:0:
114,141,7061,2,0,P|68:160|36:198,1,100,2|8,3:2|3:2,0:0:0:0:
41,34,7371,2,0,P|108:122|110:250,1,220.000006713867,6|2,3:2|3:2,0:0:0:0:
35,372,7834,2,0,P|66:333|112:314,1,100,8|0,3:2|3:0,0:0:0:0:
178,364,8144,1,2,3:2:0:0:
178,364,8298,1,0,3:0:0:0:
116,228,8453,6,0,P|94:223|76:211,1,44.999998626709,8|0,3:2|0:0,0:0:0:0:
123,162,8762,6,0,L|221:145,1,100,6|0,3:2|3:0,0:0:0:0:
378,116,9072,1,10,3:2:0:0:
221,145,9226,1,0,3:0:0:0:
238,27,9381,6,0,L|336:44,1,100,2|0,3:2|3:0,0:0:0:0:
494,74,9690,1,10,3:2:0:0:
337,45,9845,1,0,3:0:0:0:
415,191,9999,6,0,L|317:208,1,100,2|2,3:2|3:2,0:0:0:0:
160,237,10309,1,10,3:2:0:0:
317,208,10463,1,0,3:0:0:0:
254,311,10618,6,0,L|352:328,1,100,2|0,3:2|3:0,0:0:0:0:
510,358,10927,1,10,3:2:0:0:
352,328,11082,1,0,3:0:0:0:
173,331,11237,5,6,3:2:0:0:
173,331,11391,1,0,3:0:0:0:
89,348,11546,6,0,P|75:333|68:314,1,40,10|0,3:2|3:2,0:0:0:0:
211,341,11855,2,0,P|191:340|173:331,1,40,2|8,3:2|3:2,0:0:0:0:
89,348,12164,1,2,3:2:0:0:
292,249,12319,6,0,P|277:262|258:268,1,40,2|8,3:2|3:2,0:0:0:0:
211,341,12628,2,0,P|191:340|173:331,1,40,2|0,3:2|3:0,0:0:0:0:
68,314,12938,5,14,3:2:0:0:
0,208,13092,1,2,3:2:0:0:
32,64,13247,1,2,3:2:0:0:
32,64,13401,1,8,3:2:0:0:
211,2,13556,6,0,B|252:77|175:147|89:103|118:33|168:37,1,220.000006713867,6|0,3:2|3:0,0:0:0:0:
294,7,14020,2,0,P|343:15|373:54,1,100,10|0,3:2|3:0,0:0:0:0:
487,94,14329,2,0,P|503:140|485:185,1,100,2|0,3:2|3:0,0:0:0:0:
484,185,14639,1,10,3:2:0:0:
512,24,14793,6,0,P|430:79|307:103,1,220.000006713867,6|2,3:2|3:2,0:0:0:0:
151,40,15257,1,8,3:2:0:0:
45,130,15412,2,0,B|37:117|37:117|48:51|48:51|64:42,2,100,2|2|0,3:2|3:2|3:0,0:0:0:0:
59,203,15876,6,0,P|80:197|98:183,1,44.999998626709,10|0,3:2|0:0,0:0:0:0:
45,130,16185,5,6,3:2:0:0:
164,126,16340,1,2,3:2:0:0:
306,202,16494,1,10,3:2:0:0:
399,354,16649,6,0,P|391:305|413:260,1,100,2|0,3:2|3:0,0:0:0:0:
306,202,16958,2,0,P|335:162|381:146,1,100,2|8,3:2|3:2,0:0:0:0:
290,303,17267,2,0,P|293:194|230:106,1,220.000006713867,6|2,3:2|3:2,0:0:0:0:
145,11,17731,2,0,P|91:5|38:29,1,100,10|2,3:2|3:2,0:0:0:0:
2,85,18041,1,2,3:2:0:0:
2,85,18195,1,2,3:2:0:0:
167,11,18350,6,0,L|213:19,1,44.999998626709,8|0,3:2|0:0,0:0:0:0:
208,92,18659,6,0,L|306:75,1,100,6|0,3:2|3:0,0:0:0:0:
463,46,18968,1,10,3:2:0:0:
306,75,19123,1,0,3:0:0:0:
256,192,19278,6,0,L|158:175,1,100,2|0,3:2|3:0,0:0:0:0:
1,146,19587,1,10,3:2:0:0:
158,175,19742,1,0,3:0:0:0:
208,292,19896,6,0,L|306:275,1,100,2|0,3:2|3:0,0:0:0:0:
463,246,20206,1,10,3:2:0:0:
306,275,20360,1,0,3:0:0:0:
256,192,20515,6,0,L|158:175,1,100,2|0,3:2|3:0,0:0:0:0:
89,199,20747,1,0,3:0:0:0:
77,206,20824,6,0,L|69:250,1,44.999998626709,8|0,3:2|0:0,0:0:0:0:
76,331,21133,5,6,3:2:0:0:
138,350,21288,1,0,3:0:0:0:
200,368,21443,1,8,3:2:0:0:
343,237,21597,5,2,3:2:0:0:
271,258,21752,1,0,3:0:0:0:
200,279,21907,1,8,3:2:0:0:
36,142,22061,5,2,3:2:0:0:
118,166,22216,1,0,3:0:0:0:
200,190,22371,1,8,3:2:0:0:
389,46,22525,5,2,3:2:0:0:
294,73,22680,1,0,3:0:0:0:
200,101,22834,1,8,3:2:0:0:
254,352,22989,5,2,3:2:0:0:
256,240,23144,1,8,3:2:0:0:
256,160,23298,1,8,3:3:0:0:
256,96,23453,1,8,3:3:0:0:
256,0,23608,6,0,L|344:15,1,89.9999972534181,6|0,3:2|0:0,0:0:0:0:
406,9,23917,2,0,L|361:16,1,44.999998626709,10|0,3:2|0:0,0:0:0:0:
348,92,24226,2,0,L|357:152,2,59.9999981689454,2|2|2,3:2|1:2|3:2,0:0:0:0:
482,70,24690,2,0,L|422:79,1,59.9999981689454,2|0,1:2|3:0,0:0:0:0:
493,149,24999,2,0,L|434:158,1,59.9999981689454,2|0,1:2|3:0,0:0:0:0:
378,283,25309,2,0,L|369:224,1,59.9999981689454,2|0,1:2|3:0,0:0:0:0:
494,320,25618,2,0,L|375:301,1,119.999996337891,2|0,1:2|1:0,0:0:0:0:
255,353,26082,6,0,L|300:346,1,44.999998626709,2|0,3:2|0:0,0:0:0:0:
243,360,26391,6,0,L|154:345,1,89.9999972534181,10|0,3:2|0:0,0:0:0:0:
76,333,26700,2,0,L|16:324,2,59.9999981689454,2|2|2,3:2|1:2|3:2,0:0:0:0:
154,345,27164,2,0,L|145:285,1,59.9999981689454,2|0,1:2|3:0,0:0:0:0:
76,333,27474,2,0,L|67:273,1,59.9999981689454,2|0,1:2|3:0,0:0:0:0:
0,156,27783,5,8,1:2:0:0:
64,32,27938,1,0,3:0:0:0:
170,0,28092,5,8,3:3:0:0:
211,80,28247,1,0,3:0:0:0:
288,160,28401,5,10,3:3:0:0:
293,147,28479,1,8,3:3:0:0:
298,134,28556,6,0,L|386:119,1,89.9999972534181,6|0,3:2|0:0,0:0:0:0:
293,147,28865,2,0,L|248:140,1,44.999998626709,10|0,3:2|0:0,0:0:0:0:
168,123,29175,2,0,L|159:63,2,59.9999981689454,2|2|2,3:2|1:2|3:2,0:0:0:0:
181,200,29639,1,2,1:2:0:0:
41,184,29793,6,0,L|101:175,1,59.9999981689454,2|2,3:2|1:2,0:0:0:0:
181,200,30103,1,2,3:2:0:0:
58,267,30257,2,0,L|118:258,1,59.9999981689454,2|0,1:2|3:0,0:0:0:0:
191,304,30566,5,2,1:2:0:0:
196,317,30644,1,0,1:0:0:0:
201,330,30721,2,0,L|246:337,1,44.999998626709,4|0,3:2|0:0,0:0:0:0:
309,298,31030,6,0,L|318:358,1,59.9999981689454,2|2,3:2|1:2,0:0:0:0:
293,218,31340,2,0,L|275:99,2,119.999996337891,8|0|0,3:2|3:0|3:0,0:0:0:0:
309,298,32113,1,0,1:0:0:0:
438,275,32267,2,0,L|378:284,1,59.9999981689454,0|0,3:0|1:0,0:0:0:0:
419,374,32577,6,0,L|401:255,1,120,14|0,3:2|0:0,0:0:0:0:
392,182,32886,1,10,3:2:0:0:
362,136,32963,1,8,3:2:0:0:
390,100,33041,1,8,3:3:0:0:
372,71,33118,1,8,3:3:0:0:
382,59,33195,1,10,3:3:0:0:
493,2,33350,6,0,B|414:63|326:56|332:-14,1,200,6|2,3:2|3:2,0:0:0:0:
157,3,33814,2,0,P|141:18|138:43,1,44.999998626709,10|0,3:2|0:0,0:0:0:0:
205,60,34123,1,2,3:2:0:0:
205,60,34278,1,2,3:2:0:0:
50,17,34432,6,0,P|95:54|118:109,1,120,10|0,3:2|0:0,0:0:0:0:
73,180,34742,1,2,3:2:0:0:
73,180,34896,1,2,3:2:0:0:
0,263,35051,1,10,3:2:0:0:
63,348,35206,6,0,B|89:382|122:360|176:307|126:234|63:252|70:285,1,200,2|2,1:2|3:2,0:0:0:0:
63,348,35670,1,8,3:2:0:0:
218,317,35824,2,0,P|250:341|278:369,2,80,2|0|0,3:2|3:0|3:0,0:0:0:0:
295,375,36288,6,0,P|317:373|333:359,1,44.999998626709,10|0,3:2|0:0,0:0:0:0:
369,296,36597,6,0,P|394:245|429:192,1,120,2|0,1:2|0:0,0:0:0:0:
440,113,36907,1,10,3:2:0:0:
512,250,37061,1,0,3:0:0:0:
433,196,37216,1,2,3:2:0:0:
433,196,37371,1,2,3:2:0:0:
447,30,37525,1,8,3:2:0:0:
512,0,37680,6,0,B|390:31|320:102,1,200,2|2,1:2|3:2,0:0:0:0:
246,171,38144,1,8,3:2:0:0:
287,315,38298,1,2,3:2:0:0:
395,363,38453,6,0,B|308:350|308:288|336:242|394:236|398:299,2,200,6|8|0,3:2|3:2|1:0,0:0:0:0:
472,319,39226,1,0,3:0:0:0:
405,199,39381,1,10,3:2:0:0:
456,120,39535,2,0,P|435:87|409:57,2,80,2|0|0,3:2|3:0|3:0,0:0:0:0:
370,0,39999,6,0,P|352:13|342:33,1,44.999998626709,8|0,3:2|0:0,0:0:0:0:
293,83,40309,1,2,1:2:0:0:
321,180,40463,1,0,3:0:0:0:
262,321,40618,6,0,P|272:342|290:355,1,44.999998626709,10|0,3:2|0:0,0:0:0:0:
331,299,40927,1,6,3:2:0:0:
331,299,41082,1,0,3:0:0:0:
197,292,41237,1,8,3:2:0:0:
146,364,41391,2,0,P|110:347|86:315,1,80,2|2,1:2|1:2,0:0:0:0:
37,263,41700,5,0,3:0:0:0:
93,107,41855,1,8,3:2:0:0:
62,40,42010,1,0,3:0:0:0:
139,50,42164,5,0,3:0:0:0:
139,50,42319,1,0,3:0:0:0:
54,165,42474,5,10,3:2:0:0:
121,309,42628,1,0,3:0:0:0:
94,108,42783,5,10,3:2:0:0:
54,254,42938,1,0,3:0:0:0:
130,323,43092,1,10,3:3:0:0:
216,336,43247,1,10,3:3:0:0:
334,368,43401,6,0,B|309:353|309:353|293:261|293:261|322:235,1,149.999995422363,6|0,3:2|0:0,0:0:0:0:
313,242,43865,1,2,3:2:0:0:
216,336,44020,6,0,B|263:327|263:327|276:332|276:332|412:308,1,200,10|0,3:2|0:0,0:0:0:0:
412,307,44484,1,0,3:0:0:0:
477,25,44793,1,0,3:0:0:0:
428,76,44948,5,2,1:2:0:0:
358,24,45103,1,2,3:2:0:0:
346,29,45180,1,2,3:2:0:0:
334,34,45257,1,10,3:2:0:0:
256,64,45412,1,2,3:2:0:0:
428,76,45566,6,0,B|447:88|447:88|449:112,1,44.999998626709,10|0,3:3|0:0,0:0:0:0:
428,76,45876,6,0,B|312:96|312:96|329:191|329:191|373:183,1,250,6|0,3:2|0:0,0:0:0:0:
364,184,46340,1,2,3:2:0:0:
316,5,46494,2,0,P|271:86|192:71,1,174.999994659424,10|0,3:2|0:0,0:0:0:0:
199,77,46958,1,0,3:0:0:0:
16,366,47267,1,8,3:2:0:0:
82,328,47422,5,2,0:2:0:0:
20,239,47577,1,0,3:0:0:0:
25,227,47654,1,0,3:0:0:0:
30,215,47731,1,10,3:2:0:0:
60,137,47886,1,0,3:0:0:0:
82,328,48041,5,10,3:2:0:0:
60,137,48195,1,8,3:2:0:0:
97,21,48350,6,0,B|136:10|136:10|187:60|187:60|175:98|175:98,1,149.999995422363,4|0,3:2|0:0,0:0:0:0:
176,96,48814,1,0,3:0:0:0:
0,40,48968,2,0,L|196:5,1,200,10|0,3:2|0:0,0:0:0:0:
196,4,49432,1,0,3:0:0:0:
478,258,49742,1,0,3:0:0:0:
436,332,49896,5,2,1:2:0:0:
366,280,50051,1,0,3:0:0:0:
354,285,50128,1,0,3:0:0:0:
342,290,50206,1,10,3:2:0:0:
264,320,50360,1,0,3:0:0:0:
71,272,50515,6,0,B|51:282|51:282|46:306,1,44.999998626709,10|0,3:3|0:0,0:0:0:0:
6,356,50824,6,0,B|40:161|40:161|69:204,1,250,6|0,3:2|0:0,0:0:0:0:
126,173,51288,2,0,P|138:195|136:220,1,50,2|8,3:2|3:2,0:0:0:0:
218,305,51597,2,0,P|205:326|182:335,1,50,2|0,1:2|0:0,0:0:0:0:
6,356,51907,6,0,P|58:341|122:352,1,104.999996795654,2|0,1:2|0:0,0:0:0:0:
50,304,52216,6,0,P|45:282|29:267,1,44.999998626709,8|0,3:2|0:0,0:0:0:0:
29,267,52525,1,0,3:0:0:0:
86,146,52680,1,8,3:2:0:0:
21,45,52834,1,0,3:0:0:0:
26,57,52912,1,0,3:0:0:0:
31,69,52989,1,10,3:2:0:0:
105,76,53144,1,2,1:2:0:0:
184,17,53298,6,0,L|257:30,1,69.9999978637696,6|0,3:2|3:0,0:0:0:0:
106,2,53608,1,10,3:2:0:0:
175,87,53762,2,0,L|247:99,2,69.9999978637696,2|2|2,3:2|3:2|3:2,0:0:0:0:
315,109,54226,1,10,3:2:0:0:
219,240,54381,6,0,L|206:171,1,69.9999978637696,2|0,3:2|3:0,0:0:0:0:
250,315,54690,1,2,3:2:0:0:
173,306,54845,1,10,3:2:0:0:
206,171,54999,2,0,L|219:240,1,69.9999978637696,2|0,3:2|3:0,0:0:0:0:
288,169,55309,2,0,L|300:237,1,69.9999978637696,2|8,3:2|3:2,0:0:0:0:
325,321,55618,1,2,3:2:0:0:
501,362,55773,6,0,B|466:362|466:362|429:193|429:193|387:193,1,250,6|0,3:2|0:0,0:0:0:0:
387,193,56237,1,0,3:0:0:0:
414,357,56391,6,0,L|422:307,1,50,10|0,3:2|3:0,0:0:0:0:
422,308,56855,5,2,3:2:0:0:
462,233,57010,2,0,L|470:183,1,50,6|0,1:2|3:0,0:0:0:0:
209,361,57474,5,2,3:2:0:0:
209,361,57551,1,0,3:0:0:0:
209,361,57628,1,10,3:2:0:0:
163,278,57783,1,0,3:0:0:0:
228,126,57938,1,8,3:2:0:0:
182,43,58092,1,2,1:2:0:0:
126,157,58247,5,6,3:2:0:0:
122,174,58324,1,0,3:0:0:0:
116,160,58401,1,0,3:0:0:0:
131,170,58479,1,0,3:0:0:0:
117,171,58556,1,0,3:0:0:0:
130,159,58633,1,0,3:0:0:0:
127,173,58711,1,0,3:0:0:0:
120,157,58788,1,0,3:0:0:0:
132,164,58865,1,0,3:0:0:0:
115,166,58943,1,0,3:0:0:0:
59,202,59020,6,0,L|49:253,1,50,2|0,3:2|3:0,0:0:0:0:
91,338,59175,2,0,L|119:378,1,50,2|0,3:2|3:0,0:0:0:0:
221,383,59329,2,0,L|270:374,1,50,2|0,3:2|3:2,0:0:0:0:
379,369,59484,5,0,3:2:0:0:
370,340,59561,1,0,3:2:0:0:
410,364,59639,1,0,3:2:0:0:
402,335,59716,1,0,3:2:0:0:
442,359,59793,1,0,3:2:0:0:
433,331,59871,1,0,3:2:0:0:
475,334,59948,5,2,3:2:0:0:
491,292,60025,1,0,3:2:0:0:
508,249,60103,5,10,3:3:0:0:
500,236,60180,1,8,3:3:0:0:
492,222,60257,1,8,3:3:0:0:
484,208,60334,1,8,3:3:0:0:
476,194,60412,1,6,3:2:0:0:
318,0,60721,5,10,3:2:0:0:
172,87,60876,1,0,3:0:0:0:
259,232,61030,1,2,3:2:0:0:
491,292,61185,5,10,3:2:0:0:
404,145,61340,1,0,3:0:0:0:
259,232,61494,1,2,3:2:0:0:
114,319,61649,5,10,3:2:0:0:
259,232,61804,1,6,3:2:0:0:
71,310,62577,6,0,L|43:314,1,22.4999993133545,2|0,1:2|0:0,0:0:0:0:
84,302,62886,6,0,L|157:316,1,75,10|0,3:3|0:0,0:0:0:0:
112,380,63195,6,0,P|127:287|145:195,1,187.5,6|0,3:2|0:0,0:0:0:0:
173,120,63505,1,8,3:2:0:0:
275,255,63659,2,0,P|259:206|238:159,1,100,0|0,3:1|3:0,0:0:0:0:
240,162,63968,1,2,3:2:0:0:
324,302,64123,6,0,P|339:286|344:264,1,44.999998626709,10|0,3:2|0:0,0:0:0:0:
384,163,64432,1,2,3:2:0:0:
326,56,64587,1,2,3:2:0:0:
512,219,64742,6,0,B|470:212|449:192|452:166|454:161|455:157|459:123|434:94|370:95,1,187.5,10|0,3:2|0:0,0:0:0:0:
402,228,65051,6,0,P|419:183|452:145,1,97.4999955368044,2|0,3:2|0:0,0:0:0:0:
475,68,65360,1,10,3:2:0:0:
382,0,65515,1,2,3:2:0:0:
318,171,65670,6,0,P|277:90|227:20,1,172.500003290176,2|0,3:2|0:0,0:0:0:0:
162,0,65979,1,10,3:2:0:0:
123,156,66133,2,0,P|146:105|170:64,1,100,2|0,3:2|3:0,0:0:0:0:
261,207,66443,2,0,P|238:156|213:115,1,100,2|8,3:2|3:2,0:0:0:0:
52,136,66752,2,0,P|75:85|99:44,1,100,2|0,3:2|3:0,0:0:0:0:
97,46,67061,1,0,3:0:0:0:
221,257,67216,6,0,P|196:234|192:219,1,44.999998626709,8|0,3:2|0:0,0:0:0:0:
264,313,67525,6,0,P|278:292|284:268,1,50,2|0,3:2|3:0,0:0:0:0:
386,372,67834,6,0,P|382:354|360:331,1,44.999998626709,14|0,3:2|0:0,0:0:0:0:
444,336,68144,6,0,B|420:373|348:329|368:255|463:221,1,187.5,6|0,3:2|0:0,0:0:0:0:
512,201,68453,1,8,3:2:0:0:
454,119,68608,1,2,3:2:0:0:
348,85,68762,2,0,P|354:50|400:3,1,100,2|0,3:2|3:0,0:0:0:0:
328,153,69072,6,0,P|308:145|291:129,1,44.999998626709,14|0,3:2|0:0,0:0:0:0:
334,162,69381,6,0,B|296:162|276:148|274:125|274:120|275:116|274:87|249:66|194:77,1,172.500003290176,6|0,3:2|0:0,0:0:0:0:
118,58,69690,6,0,P|99:26|99:12,1,44.999998626709,8|0,3:2|0:0,0:0:0:0:
54,108,69999,6,0,P|77:57|101:16,1,100,2|0,3:2|3:0,0:0:0:0:
99,214,70309,2,0,P|76:163|52:122,1,100,10|0,3:2|3:0,0:0:0:0:
30,281,70618,5,6,3:2:0:0:
99,214,70773,1,0,3:0:0:0:
241,154,70927,1,10,3:2:0:0:
346,151,71082,6,0,P|323:100|299:59,1,100,2|8,3:2|3:2,0:0:0:0:
241,154,71391,1,2,3:2:0:0:
221,83,71546,1,2,3:2:0:0:
201,12,71700,1,10,3:2:0:0:
346,151,71855,5,2,3:2:0:0:
377,40,72010,1,2,3:2:0:0:
464,255,72164,5,10,3:2:0:0:
424,113,72319,1,0,3:0:0:0:
369,371,72474,5,10,3:2:0:0:
249,280,72628,1,8,3:2:0:0:
225,228,72706,1,8,3:2:0:0:
180,229,72783,1,10,3:3:0:0:
162,194,72860,1,8,3:3:0:0:
125,189,72938,1,2,3:3:0:0:
108,161,73015,1,0,3:3:0:0:
92,163,73092,5,6,3:2:0:0:
22,112,73247,1,2,3:2:0:0:
35,10,73401,1,10,3:2:0:0:
176,130,73556,6,0,P|153:79|129:38,1,100,2|0,3:2|3:0,0:0:0:0:
266,141,73865,2,0,P|289:90|313:49,1,100,2|8,3:2|3:2,0:0:0:0:
453,90,74175,2,0,P|430:39|406:-2,1,100,2|0,3:2|3:0,0:0:0:0:
407,0,74484,1,0,3:0:0:0:
459,156,74639,6,0,P|481:151|498:137,1,44.999998626709,8|0,3:2|0:0,0:0:0:0:
472,222,74948,6,0,P|435:220|405:197,1,75,2|0,3:2|0:0,0:0:0:0:
343,224,75257,6,0,P|319:177|321:125,1,104.999996795654,10|0,3:2|0:0,0:0:0:0:
261,89,75566,6,0,P|240:43|215:0,1,100,2|0,3:2|3:0,0:0:0:0:
212,196,75876,2,0,P|232:150|257:106,1,100,10|0,3:2|3:0,0:0:0:0:
427,89,76185,2,0,P|406:43|381:0,1,100,2|0,3:2|3:0,0:0:0:0:
303,189,76494,2,0,P|323:143|348:99,1,100,10|0,3:2|3:0,0:0:0:0:
347,99,76804,1,0,3:0:0:0:
381,0,76958,1,0,3:0:0:0:
491,161,77113,6,0,P|508:134|509:113,1,44.999998626709,8|0,3:2|0:0,0:0:0:0:
467,224,77422,6,0,P|435:199|424:163,1,75,2|0,3:2|0:0,0:0:0:0:
479,300,77731,6,0,P|462:221|495:156,1,150,14|0,3:2|0:0,0:0:0:0:
439,95,78041,2,0,P|418:49|393:6,1,100,6|0,3:2|3:0,0:0:0:0:
352,173,78350,6,0,P|356:158|363:145,1,29.9999990844727,8|2,3:2|3:2,0:0:0:0:
400,369,78659,2,0,P|370:308|336:249,1,134.999995880127,2|0,3:2|0:0,0:0:0:0:
271,234,78968,6,0,P|274:219|285:201,1,29.9999990844727,10|0,3:2|3:0,0:0:0:0:
400,369,79278,2,0,P|370:308|337:250,1,134.999995880127,6|0,3:2|0:0,0:0:0:0:
204,209,79587,6,0,P|212:191|221:174,1,29.9999990844727,8|0,3:2|3:0,0:0:0:0:
318,376,79896,2,0,P|290:314|257:256,1,134.999995880127,2|0,3:2|0:0,0:0:0:0:
156,302,80206,2,0,P|183:240|217:181,1,134.999995880127,10|0,3:2|0:0,0:0:0:0:
302,184,80515,6,0,B|323:147|311:115|275:78|275:78|213:8,1,187.5,14|0,3:2|0:0,0:0:0:0:
155,17,80824,1,2,3:2:0:0:
117,217,80979,5,10,3:2:0:0:
166,164,81133,1,8,3:3:0:0:
245,88,81288,1,10,3:2:0:0:
355,31,81443,1,10,3:3:0:0:
512,7,81597,1,10,3:3:0:0:
24,349,82680,5,2,1:2:0:0:
35,354,82757,1,0,0:0:0:0:
46,360,82834,2,0,B|45:259|124:212|189:258|161:298,1,220.000006713867,6|0,3:2|3:0,0:0:0:0:
46,264,83298,2,0,P|15:206|43:165,1,100,10|0,3:2|3:0,0:0:0:0:
211,218,83608,2,0,P|145:215|123:171,1,100,2|2,3:2|3:2,0:0:0:0:
127,191,83917,1,8,3:2:0:0:
240,357,84072,6,0,P|247:248|269:140,1,220.000006713867,6|2,3:2|3:2,0:0:0:0:
362,20,84535,1,10,3:2:0:0:
448,7,84690,2,0,B|484:-2|500:7|519:30|510:76|466:64,2,100,2|0|0,3:2|3:0|3:0,0:0:0:0:
318,88,85154,6,0,P|300:76|278:73,1,44.999998626709,10|0,3:2|0:0,0:0:0:0:
269,139,85463,5,6,3:2:0:0:
343,180,85618,1,2,3:2:0:0:
401,298,85773,1,8,3:2:0:0:
214,379,85927,6,0,P|242:325|277:301,1,100,2|0,3:2|3:0,0:0:0:0:
135,315,86237,2,0,P|114:269|75:239,1,100,2|8,3:2|3:2,0:0:0:0:
215,379,86546,2,0,P|206:270|140:184,1,220.000006713867,6|2,3:2|3:2,0:0:0:0:
12,287,87010,2,0,P|51:317|72:363,1,100,10|2,3:2|3:2,0:0:0:0:
144,384,87319,1,2,3:2:0:0:
144,384,87474,1,0,3:0:0:0:
55,238,87628,6,0,P|36:225|15:221,1,44.999998626709,8|0,3:2|0:0,0:0:0:0:
34,158,87938,6,0,B|27:109|27:109|91:97,1,100,6|0,3:2|3:0,0:0:0:0:
234,71,88247,1,10,3:2:0:0:
77,100,88401,1,0,3:0:0:0:
118,209,88556,6,0,B|111:160|111:160|175:148,1,100,2|0,3:2|3:0,0:0:0:0:
318,122,88865,1,10,3:2:0:0:
161,151,89020,1,0,3:0:0:0:
176,29,89175,6,0,B|225:22|225:22|237:86,1,100,2|0,3:2|3:0,0:0:0:0:
263,229,89484,1,10,3:2:0:0:
234,72,89639,1,0,3:0:0:0:
361,64,89793,6,0,B|368:113|368:113|304:125,1,100,2|0,3:2|3:0,0:0:0:0:
161,151,90103,1,10,3:2:0:0:
318,122,90257,1,0,3:0:0:0:
470,30,90412,5,6,3:2:0:0:
470,30,90566,1,0,3:0:0:0:
451,110,90721,6,0,P|465:123|485:131,1,40,10|0,3:2|3:0,0:0:0:0:
386,28,91030,2,0,P|371:41|352:49,1,40,2|8,3:2|3:2,0:0:0:0:
318,122,91340,1,2,3:2:0:0:
484,131,91494,6,0,P|465:124|451:110,1,40,0|8,3:0|3:2,0:0:0:0:
481,227,91804,2,0,P|466:240|447:248,1,40,2|0,3:2|3:0,0:0:0:0:
297,193,92113,5,14,3:2:0:0:
192,260,92267,1,2,3:2:0:0:
47,229,92422,1,2,3:2:0:0:
47,229,92577,1,8,3:2:0:0:
242,358,92731,6,0,B|243:364|198:405|156:368|157:309|216:267|251:249|312:291,1,220.000006713867,6|0,3:2|3:0,0:0:0:0:
399,241,93195,2,0,P|444:261|463:306,1,100,10|0,3:2|3:0,0:0:0:0:
324,203,93505,2,0,P|343:158|388:138,1,100,2|0,3:2|3:0,0:0:0:0:
387,138,93814,1,10,3:2:0:0:
508,13,93968,6,0,B|516:56|478:62|478:62|323:35,1,220.000006713867,6|2,3:2|3:2,0:0:0:0:
165,40,94432,1,8,3:2:0:0:
67,18,94587,2,0,B|51:27|51:27|40:93|40:93|48:106,2,100,0|2|0,3:0|3:2|3:0,0:0:0:0:
95,154,95051,6,0,P|77:168|56:175,1,44.999998626709,10|0,3:2|0:0,0:0:0:0:
17,246,95360,5,6,3:2:0:0:
136,242,95515,1,2,3:2:0:0:
278,318,95670,1,10,3:2:0:0:
459,339,95824,6,0,P|490:300|493:250,1,100,2|0,3:2|3:0,0:0:0:0:
378,322,96133,2,0,P|346:283|343:233,1,100,2|8,3:2|3:2,0:0:0:0:
512,384,96443,2,0,P|419:326|311:337,1,220.000006713867,6|2,3:2|3:2,0:0:0:0:
196,267,96907,2,0,P|156:297|134:341,1,100,8|2,3:2|3:2,0:0:0:0:
68,384,97216,1,2,3:2:0:0:
68,384,97371,1,2,3:2:0:0:
184,198,97525,6,0,L|228:205,1,44.999998626709,8|0,3:2|0:0,0:0:0:0:
292,202,97834,6,0,B|299:153|299:153|235:141,1,100,6|0,3:2|3:0,0:0:0:0:
92,115,98144,1,10,3:2:0:0:
249,144,98298,1,0,3:0:0:0:
185,263,98453,6,0,B|178:214|178:214|242:202,1,100,2|0,3:2|3:0,0:0:0:0:
385,176,98762,1,10,3:2:0:0:
228,205,98917,1,0,3:0:0:0:
299,331,99072,6,0,B|306:282|306:282|242:270,1,100,2|0,3:2|3:0,0:0:0:0:
99,244,99381,1,10,3:2:0:0:
256,273,99535,1,0,3:0:0:0:
170,384,99690,6,0,B|163:335|163:335|227:323,1,100,2|0,3:2|3:0,0:0:0:0:
409,359,99999,6,0,L|417:315,1,44.999998626709,10|0,3:2|0:0,0:0:0:0:
452,192,100309,5,6,3:2:0:0:
390,211,100463,1,0,3:0:0:0:
328,229,100618,1,10,3:2:0:0:
256,320,100773,5,2,3:2:0:0:
184,299,100927,1,0,3:0:0:0:
160,192,101082,5,10,3:2:0:0:
78,216,101237,1,0,3:0:0:0:
192,96,101391,5,2,3:2:0:0:
287,123,101546,1,8,3:2:0:0:
160,0,101700,5,2,3:2:0:0:
45,32,101855,1,8,3:2:0:0:
256,32,102010,5,10,3:2:0:0:
276,32,102087,1,8,3:2:0:0:
293,42,102164,1,10,3:2:0:0:
390,105,102319,1,8,3:3:0:0:
409,201,102474,1,8,3:3:0:0:
379,266,102628,1,8,3:3:0:0:
510,376,102783,5,6,3:2:0:0:
77,37,109587,5,0,1:0:0:0:
70,46,109664,1,0,1:0:0:0:
63,55,109742,1,2,1:2:0:0:
56,64,109819,1,0,1:0:0:0:
49,73,109896,1,0,1:2:0:0:
49,73,110206,5,6,3:2:0:0:
6,139,110360,1,2,3:2:0:0:
63,245,110515,2,0,B|69:282|69:282|45:313,1,75,8|8,3:2|3:2,0:0:0:0:
40,322,110824,1,8,3:2:0:0:
66,234,110979,1,8,3:3:0:0:
163,314,111133,1,0,3:0:0:0:
171,320,111211,1,8,3:2:0:0:
179,326,111288,1,8,3:2:0:0:
251,285,111443,5,0,3:0:0:0:
251,285,111597,1,0,3:0:0:0:
345,230,111752,6,0,L|354:283,1,50,10|0,3:2|3:0,0:0:0:0:
479,217,112061,2,0,L|470:266,1,50,10|8,3:2|3:3,0:0:0:0:
470,266,112293,1,8,3:3:0:0:
470,266,112371,1,10,3:3:0:0:
351,370,112525,6,0,P|380:301|413:167,1,200,6|2,3:2|3:2,0:0:0:0:
231,210,112989,2,0,P|233:233|243:253,1,44.999998626709,10|0,3:2|0:0,0:0:0:0:
294,314,113298,1,2,3:2:0:0:
294,314,113453,1,2,3:2:0:0:
155,363,113608,2,0,B|137:354|137:354|117:298|59:286,1,120,10|0,3:2|0:0,0:0:0:0:
2,326,113917,1,2,1:2:0:0:
2,326,114072,1,2,3:2:0:0:
60,207,114226,1,10,3:2:0:0:
46,80,114381,6,0,B|1:56|40:-5|94:6|141:24|148:99|94:128|76:126,1,200,2|2,1:2|3:2,0:0:0:0:
46,80,114845,1,8,3:2:0:0:
157,185,114999,2,0,P|194:199|234:168,2,80,2|0|0,3:2|3:0|3:0,0:0:0:0:
271,132,115463,6,0,P|255:118|233:116,1,44.999998626709,10|0,3:2|0:0,0:0:0:0:
227,181,115773,6,0,P|260:231|287:285,1,120,2|0,1:2|0:0,0:0:0:0:
297,360,116082,1,10,3:2:0:0:
401,246,116237,1,0,3:0:0:0:
375,326,116391,1,2,3:2:0:0:
375,326,116546,1,2,3:2:0:0:
429,168,116700,1,8,3:2:0:0:
512,117,116855,6,0,B|465:147|405:149|354:101|408:41|443:98,1,200,2|2,1:2|3:2,0:0:0:0:
401,246,117319,1,8,3:2:0:0:
257,287,117474,1,2,3:2:0:0:
78,237,117628,6,0,B|26:307|70:351|122:364|168:327|126:280,2,200,6|8|0,3:2|3:2|1:0,0:0:0:0:
210,226,118401,1,0,3:0:0:0:
330,322,118556,1,10,3:2:0:0:
441,260,118711,2,0,P|467:290|488:323,2,80,2|0|0,3:2|3:0|3:0,0:0:0:0:
388,369,119175,6,0,P|398:349|417:336,1,44.999998626709,8|0,3:2|0:0,0:0:0:0:
489,324,119484,1,2,3:2:0:0:
410,205,119639,1,0,3:0:0:0:
301,354,119793,6,0,P|311:334|330:321,1,44.999998626709,10|0,3:2|0:0,0:0:0:0:
358,257,120103,1,2,3:2:0:0:
358,257,120257,1,0,3:0:0:0:
511,212,120412,1,8,3:2:0:0:
466,139,120566,2,0,P|448:102|421:67,1,80,2|2,1:2|1:2,0:0:0:0:
353,7,120876,5,0,3:0:0:0:
258,143,121030,1,8,3:2:0:0:
271,215,121185,1,0,3:0:0:0:
199,186,121340,5,8,3:2:0:0:
199,186,121494,1,0,3:0:0:0:
327,167,121649,5,10,3:2:0:0:
355,324,121804,1,8,3:2:0:0:
344,332,121881,1,8,3:2:0:0:
333,340,121958,5,10,3:2:0:0:
222,384,122113,1,10,3:2:0:0:
119,355,122267,1,8,3:3:0:0:
68,295,122422,1,10,3:3:0:0:
0,206,122577,6,0,B|24:188|24:188|103:237|103:237|125:221,1,149.999995422363,6|0,3:2|0:0,0:0:0:0:
124,221,123041,1,2,3:2:0:0:
0,313,123195,6,0,B|17:221|17:221|13:209|13:209|31:115,1,200,10|0,3:2|0:0,0:0:0:0:
30,116,123659,1,0,3:0:0:0:
287,355,123968,1,0,3:0:0:0:
336,304,124123,5,2,1:2:0:0:
286,235,124278,1,0,3:0:0:0:
281,223,124355,1,0,3:0:0:0:
276,211,124432,1,10,3:2:0:0:
313,135,124587,1,0,0:0:0:0:
225,261,124742,6,0,B|231:283|231:283|253:291,1,44.999998626709,10|0,3:3|0:0,0:0:0:0:
287,355,125051,6,0,B|307:237|307:237|436:260,1,250,6|0,3:2|0:0,0:0:0:0:
435,259,125515,1,2,3:2:0:0:
259,196,125670,2,0,B|328:208|328:208|340:139,1,139.999995727539,10|0,3:2|0:0,0:0:0:0:
340,139,126133,1,0,3:0:0:0:
16,18,126443,1,0,3:0:0:0:
82,56,126597,5,2,1:2:0:0:
171,119,126752,1,0,3:0:0:0:
183,114,126829,1,0,3:0:0:0:
195,109,126907,1,10,3:2:0:0:
273,79,127061,1,0,3:0:0:0:
95,152,127216,5,10,3:2:0:0:
273,79,127371,1,0,3:0:0:0:
451,131,127525,6,0,B|412:142|412:142|361:92|361:92|373:54|373:54,1,149.999995422363,4|0,3:2|0:0,0:0:0:0:
372,55,127989,1,0,3:0:0:0:
512,155,128144,2,0,B|397:189|397:189|379:221|379:221|405:265,1,200,10|0,3:2|0:0,0:0:0:0:
401,258,128608,1,0,3:0:0:0:
32,350,128917,1,0,3:0:0:0:
116,377,129072,5,2,1:2:0:0:
186,325,129226,1,0,3:0:0:0:
198,330,129304,1,0,3:0:0:0:
210,335,129381,1,10,3:2:0:0:
161,246,129535,1,0,3:0:0:0:
278,350,129690,6,0,B|301:355|301:355|311:375,1,44.999998626709,10|0,3:3|0:0,0:0:0:0:
385,384,129999,6,0,B|337:336|337:336|415:258|415:258|437:342,1,250,6|0,3:2|0:0,0:0:0:0:
506,342,130463,2,0,L|493:293,1,50,2|8,3:2|3:2,0:0:0:0:
469,209,130773,2,0,L|456:160,1,50,2|0,1:2|0:0,0:0:0:0:
477,7,131082,6,0,P|436:39|411:85,1,104.999996795654,2|0,3:2|0:0,0:0:0:0:
509,121,131391,6,0,P|504:99|488:84,1,44.999998626709,0|0,3:0|0:0,0:0:0:0:
411,85,131700,1,0,3:0:0:0:
398,89,131778,1,0,3:0:0:0:
386,94,131855,1,8,3:2:0:0:
302,45,132010,1,0,3:0:0:0:
183,56,132164,5,10,3:2:0:0:
189,83,132242,1,8,3:2:0:0:
159,60,132319,1,10,3:2:0:0:
165,87,132396,1,8,3:2:0:0:
104,86,132474,6,0,L|31:99,1,69.9999978637696,6|0,3:2|3:0,0:0:0:0:
23,27,132783,1,10,3:2:0:0:
46,168,132938,2,0,L|58:240,2,69.9999978637696,2|2|2,3:2|3:2|3:2,0:0:0:0:
68,309,133401,1,10,3:2:0:0:
135,227,133556,6,0,L|123:157,1,69.9999978637696,2|0,3:2|3:0,0:0:0:0:
154,301,133865,1,2,3:2:0:0:
223,314,134020,1,10,3:2:0:0:
205,162,134175,2,0,L|217:232,1,69.9999978637696,2|0,3:2|3:0,0:0:0:0:
223,314,134484,2,0,L|292:327,1,69.9999978637696,2|10,3:2|3:2,0:0:0:0:
363,339,134793,1,2,3:2:0:0:
511,192,134948,6,0,B|478:186|478:186|443:254|443:254|443:269|443:269|399:346|399:346|364:340,1,250,6|0,3:2|0:0,0:0:0:0:
363,339,135412,1,0,3:0:0:0:
423,165,135566,6,0,L|431:215,1,50,10|0,3:2|3:0,0:0:0:0:
423,165,136030,5,2,3:2:0:0:
410,97,136185,2,0,L|402:47,1,50,2|0,1:2|3:0,0:0:0:0:
410,97,136649,5,2,3:2:0:0:
311,100,136804,1,2,3:2:0:0:
334,68,136881,1,0,3:0:0:0:
306,70,136958,1,0,3:0:0:0:
337,96,137035,1,0,3:0:0:0:
353,161,137113,6,0,L|308:168,1,44.999998626709,8|0,3:2|0:0,0:0:0:0:
308,168,137422,5,6,3:2:0:0:
300,194,138041,1,0,3:0:0:0:
292,220,138659,1,0,3:0:0:0:
284,246,139278,1,0,3:0:0:0:
288,250,139896,5,2,3:2:0:0:
288,250,140051,1,0,1:0:0:0:
359,256,140206,6,0,L|354:280,1,25,2|0,1:2|0:0,0:0:0:0:
353,280,140360,1,2,1:2:0:0:
426,271,140515,2,0,L|421:295,1,25,0|0,3:0|0:0,0:0:0:0:
420,295,140670,1,2,1:2:0:0:
288,250,140824,5,10,3:2:0:0:
496,301,140979,1,2,3:2:0:0:
376,352,141133,1,0,3:0:0:0:
410,192,141288,2,0,L|400:241,2,50,0|0|0,3:0|1:0|3:0,0:0:0:0:
488,84,141752,6,0,P|501:83|513:79,1,25,10|0,3:2|0:0,0:0:0:0:
480,65,141829,2,0,P|491:60|503:52,1,25,8|0,3:2|0:0,0:0:0:0:
467,49,141907,2,0,P|478:41|486:31,1,25,8|0,3:2|0:0,0:0:0:0:
451,36,141984,2,0,P|459:25|464:13,1,25,8|0,3:2|0:0,0:0:0:0:
406,31,142061,5,10,3:2:0:0:
373,76,142139,1,8,3:2:0:0:
340,121,142216,1,8,3:2:0:0:
307,166,142293,1,8,3:2:0:0:
273,210,142371,6,0,P|314:294|353:380,1,187.5,6|0,3:2|0:0,0:0:0:0:
422,384,142680,1,10,3:2:0:0:
392,212,142834,2,0,P|367:255|347:301,1,100,2|0,3:2|3:0,0:0:0:0:
346,301,143144,1,2,3:2:0:0:
201,212,143298,6,0,P|205:233|220:250,1,44.999998626709,10|0,3:2|0:0,0:0:0:0:
271,310,143608,1,2,3:2:0:0:
203,384,143762,1,2,3:2:0:0:
131,153,143917,6,0,B|142:117|77:96|51:155|76:207|100:240|154:220,1,187.5,10|0,3:2|0:0,0:0:0:0:
200,211,144226,6,0,P|169:248|152:294,1,97.4999955368044,2|0,3:2|0:0,0:0:0:0:
59,320,144535,1,10,3:2:0:0:
15,384,144690,1,2,3:2:0:0:
40,209,144845,6,0,P|89:279|128:356,1,172.500003290176,2|0,3:2|0:0,0:0:0:0:
203,384,145154,1,10,3:2:0:0:
282,220,145309,2,0,P|257:263|236:309,1,100,2|0,3:2|3:0,0:0:0:0:
216,184,145618,2,0,P|190:226|170:272,1,100,2|8,3:2|3:2,0:0:0:0:
171,95,145927,2,0,P|195:138|216:184,1,100,2|0,3:2|3:0,0:0:0:0:
216,184,146237,1,0,3:0:0:0:
345,13,146391,6,0,P|335:32|316:45,1,44.999998626709,8|0,3:2|0:0,0:0:0:0:
385,92,146700,6,0,P|391:116|404:136,1,50,2|0,3:2|3:0,0:0:0:0:
247,86,147010,6,0,P|267:104|274:131,1,44.999998626709,14|0,3:2|0:0,0:0:0:0:
316,45,147319,6,0,B|272:36|247:56|246:85|247:89|247:94|245:117|195:166|166:112,1,187.5,6|0,3:2|0:0,0:0:0:0:
122,188,147628,1,8,3:2:0:0:
51,245,147783,1,2,3:2:0:0:
148,299,147938,2,0,P|184:331|197:379,1,100,2|0,3:2|3:0,0:0:0:0:
37,180,148247,6,0,P|16:188|0:203,1,44.999998626709,14|0,3:2|0:0,0:0:0:0:
51,245,148556,6,0,B|80:249|80:249|129:312|226:318,1,172.500003290176,6|0,3:2|0:0,0:0:0:0:
300,277,148865,6,0,P|294:298|280:315,1,44.999998626709,8|0,3:2|0:0,0:0:0:0:
234,226,149175,6,0,P|258:269|279:315,1,100,2|0,3:2|3:0,0:0:0:0:
182,145,149484,2,0,P|157:188|136:234,1,100,10|0,3:2|3:0,0:0:0:0:
0,268,149793,5,6,3:2:0:0:
74,328,149948,1,2,3:2:0:0:
221,376,150103,1,10,3:2:0:0:
214,231,150257,6,0,P|238:274|259:320,1,100,2|0,3:2|3:0,0:0:0:0:
379,249,150566,1,10,3:2:0:0:
359,320,150721,1,2,3:2:0:0:
395,384,150876,1,0,3:0:0:0:
410,138,151030,5,10,3:2:0:0:
379,249,151185,1,2,3:2:0:0:
446,61,151340,5,10,3:2:0:0:
425,66,151417,1,8,3:2:0:0:
440,74,151494,1,8,3:2:0:0:
433,52,151572,1,8,3:2:0:0:
363,29,151649,5,10,3:2:0:0:
302,62,151726,1,8,3:2:0:0:
273,120,151804,1,8,3:2:0:0:
250,176,151881,1,8,3:2:0:0:
226,220,151958,5,10,3:3:0:0:
192,241,152035,1,8,3:3:0:0:
166,224,152113,1,10,3:3:0:0:
145,237,152190,1,8,3:3:0:0:
132,229,152267,5,6,3:2:0:0:
75,306,152422,1,2,3:2:0:0:
13,383,152577,1,10,3:2:0:0:
132,229,152731,6,0,P|157:273|178:319,1,100,2|0,3:2|3:0,0:0:0:0:
92,142,153041,2,0,P|67:185|46:231,1,100,2|8,3:2|3:2,0:0:0:0:
221,237,153350,2,0,P|245:280|266:326,1,100,2|0,3:2|3:0,0:0:0:0:
266,326,153659,1,0,3:0:0:0:
229,169,153814,6,0,P|251:174|268:188,1,44.999998626709,8|0,3:2|0:0,0:0:0:0:
242,102,154123,6,0,P|205:104|175:127,1,75,2|0,3:2|0:0,0:0:0:0:
268,36,154432,6,0,P|305:71|308:127,1,104.999996795654,10|0,3:2|0:0,0:0:0:0:
268,188,154742,6,0,P|242:231|222:276,1,100,2|0,3:2|3:0,0:0:0:0:
310,123,155051,2,0,P|335:167|355:213,1,100,10|0,3:2|3:0,0:0:0:0:
472,259,155360,2,0,P|446:302|426:347,1,100,2|0,3:2|3:0,0:0:0:0:
384,115,155670,2,0,P|408:158|428:204,1,100,10|0,3:2|3:0,0:0:0:0:
428,204,155979,1,0,3:0:0:0:
366,284,156133,1,0,3:0:0:0:
202,236,156288,6,0,P|207:258|221:276,1,44.999998626709,8|0,3:2|0:0,0:0:0:0:
265,219,156597,6,0,P|251:253|222:275,1,75,2|0,3:2|0:0,0:0:0:0:
265,219,156907,6,0,P|275:291|222:345,1,150,14|0,3:2|0:0,0:0:0:0:
121,295,157216,2,0,P|147:339|167:384,1,100,6|0,3:2|3:0,0:0:0:0:
64,242,157525,6,0,P|54:259|48:279,1,29.9999990844727,8|2,3:2|3:2,0:0:0:0:
72,103,157834,2,0,P|106:161|134:223,1,134.999995880127,2|0,3:2|0:0,0:0:0:0:
217,171,158144,6,0,P|209:184|205:198,1,29.9999990844727,10|0,3:2|3:0,0:0:0:0:
227,41,158453,2,0,P|261:99|290:160,1,134.999995880127,6|0,3:2|0:0,0:0:0:0:
372,107,158762,6,0,P|364:120|360:134,1,29.9999990844727,10|0,3:2|3:0,0:0:0:0:
387,1,159072,2,0,P|421:59|450:120,1,134.999995880127,2|0,3:2|0:0,0:0:0:0:
512,76,159381,2,0,P|477:134|448:195,1,134.999995880127,2|0,3:2|0:0,0:0:0:0:
306,185,159690,6,0,B|350:176|375:196|376:225|375:229|375:234|377:257|427:306|456:252,1,187.5,14|0,3:2|0:0,0:0:0:0:
511,296,159999,1,10,3:2:0:0:
411,84,160154,5,10,3:2:0:0:
339,102,160309,1,8,3:2:0:0:
234,133,160463,1,10,3:2:0:0:
263,269,160618,1,10,3:2:0:0:
101,382,160773,1,8,3:2:0:0:
21,21,162010,6,0,B|98:34|98:34|107:42|107:42|188:56,1,172.500003290176,14|0,3:2|0:0,0:0:0:0:
254,43,162319,2,0,B|266:66|266:66|248:92,1,57.5000010967255,2|0,3:2|0:0,0:0:0:0:
121,173,162474,6,0,L|172:182,1,52.4999983978272,10|0,3:2|0:0,0:0:0:0:
237,167,162783,2,0,B|249:190|249:190|231:216,1,57.5000010967255,2|0,3:2|0:0,0:0:0:0:
171,274,162938,6,0,L|74:257,1,97.4999955368044,2|0,3:2|0:0,0:0:0:0:
14,235,163247,6,0,B|33:259|33:259|172:284,1,172.500003290176,10|0,3:2|0:0,0:0:0:0:
221,335,163556,1,2,3:2:0:0:
343,358,163711,2,0,L|441:375,1,100,8|2,3:2|1:2,0:0:0:0:
504,314,164020,1,2,3:2:0:0:
497,300,164175,1,2,3:2:0:0:
325,269,164329,2,0,L|423:286,1,100,10|0,3:2|3:0,0:0:0:0:
291,112,164639,6,0,B|313:126|313:126|323:179|323:179|303:206,1,100,2|0,3:2|1:0,0:0:0:0:
250,167,164871,1,0,3:0:0:0:
250,167,164948,2,0,L|79:136,1,172.500003290176,8|0,3:2|0:0,0:0:0:0:
17,148,165257,6,0,B|5:125|5:125|23:99,1,57.5000010967255,2|0,3:2|0:0,0:0:0:0:
155,80,165412,6,0,L|206:89,1,52.4999983978272,2|0,3:2|0:0,0:0:0:0:
99,47,165721,6,0,L|268:77,1,172.500003290176,10|0,3:2|0:0,0:0:0:0:
332,41,166030,1,2,3:2:0:0:
325,27,166185,1,2,3:2:0:0:
450,129,166340,6,0,B|472:143|472:143|482:196|482:196|462:223,1,100,10|0,3:2|3:0,0:0:0:0:
319,201,166649,2,0,B|335:212|335:212|388:202|388:202|402:180,1,100,10|0,3:2|3:0,0:0:0:0:
346,134,166958,1,8,3:2:0:0:
446,291,167113,6,0,B|424:265|424:265|299:291|299:291|282:271,1,187.5,6|0,3:2|3:0,0:0:0:0:
383,339,167422,6,0,L|331:329,1,52.4999983978272,8|0,3:2|0:0,0:0:0:0:
258,346,167731,1,0,3:0:0:0:
251,360,167886,1,0,3:0:0:0:
264,209,168041,6,0,B|233:215|233:215|225:240,1,57.5000010967255,2|0,1:2|0:0,0:0:0:0:
113,341,168195,6,0,B|132:317|132:317|112:207|112:207|79:243,1,172.500003290176,8|0,3:2|0:0,0:0:0:0:
47,294,168505,1,0,3:0:0:0:
225,239,168659,1,8,3:2:0:0:
159,76,168814,5,2,1:2:0:0:
179,81,168891,1,2,1:2:0:0:
170,60,168968,1,2,3:2:0:0:
96,145,169123,5,2,3:2:0:0:
105,166,169200,1,2,1:2:0:0:
92,230,169278,2,0,B|118:236|118:236|143:219,1,57.5000010967255,10|0,3:2|0:0,0:0:0:0:
238,140,169432,2,0,B|267:145|267:145|281:168,1,57.5000010967255,2|0,3:2|0:0,0:0:0:0:
280,364,169587,6,0,B|249:360|249:360|236:283|236:283|242:275|242:275|229:207,1,187.5,6|0,3:2|3:0,0:0:0:0:
238,140,169896,2,0,B|267:145|267:145|281:168,1,57.5000010967255,10|0,3:2|0:0,0:0:0:0:
495,153,170051,6,0,B|424:173|363:105|364:53|432:15|489:30|451:112,1,250,2|2,1:2|3:2,0:0:0:0:
446,226,170515,2,0,P|421:223|400:209,1,50,2|0,1:2|0:0,0:0:0:0:
353,356,170670,2,0,P|337:336|331:312,1,50,10|0,3:2|0:0,0:0:0:0:
346,146,170824,6,0,L|301:138,1,32.4999985122681,2|0,1:2|0:0,0:0:0:0:
272,136,170979,2,0,L|264:180,1,32.4999985122681,2|0,3:2|0:0,0:0:0:0:
326,230,171133,1,0,3:0:0:0:
190,332,171288,6,0,L|91:349,1,100,10|2,3:2|3:2,0:0:0:0:
255,362,171597,2,0,B|266:346|266:346|256:293|256:293|234:279,1,100,8|2,3:2|3:2,0:0:0:0:
31,199,171907,6,0,P|45:179|77:170,1,57.5000010967255,10|0,3:2|0:0,0:0:0:0:
38,268,172061,6,0,P|69:188|60:103,1,172.500003290176,6|0,3:2|3:0,0:0:0:0:
66,29,172371,2,0,P|94:30|114:51,1,57.5000010967255,8|0,3:2|0:2,0:0:0:0:
256,118,172525,2,0,B|273:137|214:159|200:130|191:108|191:108|160:105,2,115.000002193451,2|2|2,1:2|3:2|3:2,0:0:0:0:
308,218,172989,6,0,P|322:233|332:252,1,42.5000008106232,2|0,1:2|0:0,0:0:0:0:
468,354,173144,6,0,B|488:330|486:297|455:268|411:282|353:266|329:238|334:185|409:188|396:211,1,250,10|0,3:2|3:0,0:0:0:0:
376,352,173608,6,0,P|380:324|392:298,1,57.5000010967255,10|0,3:2|0:0,0:0:0:0:
475,208,173762,2,0,P|471:180|458:154,1,57.5000010967255,2|0,1:2|0:0,0:0:0:0:
335,25,173917,6,0,L|366:30,1,32.4999985122681,2|0,3:2|0:0,0:0:0:0:
328,12,174072,2,0,L|359:17,1,32.4999985122681,2|0,3:2|0:0,0:0:0:0:
458,154,174226,6,0,B|428:146|428:146|398:107|343:89,1,115.000002193451,8|0,3:2|3:0,0:0:0:0:
180,66,174535,6,0,B|174:106|108:61|142:2|214:-6|240:12|264:62,1,187.5,2|0,3:2|3:0,0:0:0:0:
219,129,174845,2,0,P|195:144|167:146,1,57.5000010967255,8|0,3:2|0:0,0:0:0:0:
45,292,174999,2,0,P|73:242|111:198,2,115.000002193451,2|2|2,1:2|3:2|3:2,0:0:0:0:
142,308,175463,6,0,P|156:323|166:342,1,42.5000008106232,2|0,1:2|0:0,0:0:0:0:
59,363,175618,6,0,B|85:363|85:363|125:321|215:334|247:276|247:276|251:281|261:297|247:329,1,250,10|2,3:2|3:2,0:0:0:0:
87,295,176082,6,0,P|113:305|142:308,1,57.5000010967255,2|0,3:2|0:0,0:0:0:0:
38,169,176237,2,0,P|49:195|67:217,1,57.5000010967255,10|0,3:2|0:0,0:0:0:0:
35,53,176391,6,0,L|30:84,1,32.4999985122681,2|0,3:2|0:0,0:0:0:0:
48,38,176546,2,0,L|79:43,1,32.4999985122681,10|0,3:2|0:0,0:0:0:0:
207,105,176700,6,0,B|170:115|140:154|140:154|110:162,1,115.000002193451,2|10,3:2|3:2,0:0:0:0:
253,0,177010,6,0,P|342:28|431:91,1,187.5,6|0,3:2|3:0,0:0:0:0:
479,125,177319,1,10,3:2:0:0:
500,229,177474,1,2,1:2:0:0:
395,211,177628,1,2,3:2:0:0:
395,211,177783,1,2,3:2:0:0:
324,176,177938,6,0,L|315:225,1,50,2|0,1:2|0:0,0:0:0:0:
312,172,178092,2,0,L|303:221,1,50,10|0,3:2|0:0,0:0:0:0:
234,261,178247,1,2,1:2:0:0:
234,261,178401,1,2,3:2:0:0:
192,149,178556,6,0,L|183:198,1,50,10|0,3:2|0:0,0:0:0:0:
180,145,178711,2,0,L|171:194,1,50,2|0,1:2|0:0,0:0:0:0:
102,234,178865,1,2,3:2:0:0:
102,234,179020,1,2,3:2:0:0:
55,118,179175,6,0,L|46:167,1,50,10|0,3:2|0:0,0:0:0:0:
35,274,179329,2,0,L|63:315,1,50,2|0,3:2|0:0,0:0:0:0:
186,385,179484,5,2,3:2:0:0:
215,353,179561,1,2,1:2:0:0:
229,360,179639,2,0,P|237:337|243:313,1,50,2|2,1:2|3:2,0:0:0:0:
446,356,179793,5,10,3:2:0:0:
416,324,179871,1,2,1:2:0:0:
381,337,179948,1,2,1:2:0:0:
371,331,180025,1,2,1:2:0:0:
313,302,180103,6,0,P|305:279|299:255,1,50,2|2,3:2|1:2,0:0:0:0:
269,161,180257,2,0,P|261:138|255:114,1,50,2|2,3:2|1:2,0:0:0:0:
156,8,180412,5,2,1:2:0:0:
164,16,180489,1,2,1:2:0:0:
213,55,180566,2,0,P|237:49|260:40,1,50,10|2,3:2|1:2,0:0:0:0:
421,21,180721,5,2,1:2:0:0:
415,38,180798,1,2,1:2:0:0:
426,32,180876,1,2,3:2:0:0:
409,26,180953,1,2,1:2:0:0:
354,61,181030,6,0,P|363:84|369:108,1,50,10|2,3:2|1:2,0:0:0:0:
478,256,181185,5,2,3:2:0:0:
466,257,181262,1,2,3:2:0:0:
471,286,181340,5,10,3:2:0:0:
455,272,181417,1,10,3:2:0:0:
448,319,181494,5,10,3:2:0:0:
444,289,181572,1,10,3:2:0:0:
409,334,181649,5,10,3:3:0:0:
359,327,181726,1,10,3:3:0:0:
314,357,181804,1,10,3:3:0:0:
252,349,181881,1,10,3:3:0:0:
185,373,181958,6,0,P|130:304|98:182,1,202.500000772476,6|0,3:2|0:0,0:0:0:0:
11,181,182267,2,0,P|32:131|70:85,1,100,10|2,3:2|1:2,0:0:0:0:
147,5,182577,5,2,3:2:0:0:
229,98,182731,1,2,3:2:0:0:
173,209,182886,1,2,1:2:0:0:
229,19,183041,5,10,3:2:0:0:
433,49,183195,1,2,1:2:0:0:
496,88,183350,1,2,3:2:0:0:
244,178,183505,5,10,3:2:0:0:
448,148,183659,2,0,B|475:131|505:132|505:132|482:145|479:195,2,115.000002193451,2|0|2,1:2|3:0|3:2,0:0:0:0:
229,98,184123,5,10,3:2:0:0:
388,107,184278,1,2,3:2:0:0:
507,240,184432,6,0,B|492:255|470:248|470:248|439:237|424:270|420:304|420:304|458:349,1,172.500003290176,2|0,3:2|0:0,0:0:0:0:
380,368,184742,2,0,B|348:361|338:339|338:339|312:330|290:361,1,100,8|2,3:2|1:2,0:0:0:0:
204,234,185051,5,2,3:2:0:0:
111,316,185206,1,2,3:2:0:0:
0,260,185360,1,2,1:2:0:0:
205,332,185515,5,10,3:2:0:0:
366,203,185670,1,2,1:2:0:0:
380,127,185824,1,2,3:2:0:0:
448,364,185979,5,10,3:2:0:0:
286,234,186133,2,0,P|250:190|208:150,1,115.000002193451,2|0,1:2|3:0,0:0:0:0:
25,59,186443,5,10,3:2:0:0:
122,96,186597,1,2,3:2:0:0:
265,66,186752,1,10,3:2:0:0:
503,97,186907,6,0,B|495:155|440:154|392:84|418:-16|481:17|496:75,1,202.500000772476,6|0,3:2|0:0,0:0:0:0:
451,156,187216,6,0,P|441:180|423:200,1,52.4999983978272,10|0,3:2|0:0,0:0:0:0:
419,271,187525,1,0,3:0:0:0:
419,271,187680,1,2,1:2:0:0:
320,314,187834,1,2,1:2:0:0:
194,290,187989,1,10,3:2:0:0:
26,350,188144,6,0,B|-11:332|-14:271|21:227|65:256|26:301,1,157.499995193482,6|0,1:2|0:0,0:0:0:0:
121,329,188453,6,0,P|107:333|92:329,1,30,10|0,3:2|0:0,0:0:0:0:
35,298,188762,1,0,3:0:0:0:
35,298,188917,1,2,3:2:0:0:
0,183,189072,1,10,3:2:0:0:
43,69,189226,1,2,1:2:0:0:
233,30,189381,6,0,B|209:10|179:29|170:68|171:73|173:78|169:132|128:136|101:128,1,187.5,6|0,3:2|0:0,0:0:0:0:
234,119,189690,6,0,P|162:80|30:72,1,202.500000772476,10|0,3:2|0:0,0:0:0:0:
8,138,189999,1,2,3:2:0:0:
8,138,190154,1,0,3:0:0:0:
91,203,190309,1,2,1:2:0:0:
234,119,190463,2,0,P|268:72|314:38,1,115.000002193451,10|0,3:2|1:0,0:0:0:0:
384,13,190773,1,2,3:2:0:0:
512,137,190927,5,10,3:2:0:0:
305,191,191082,1,2,3:2:0:0:
415,308,191237,5,2,3:2:0:0:
273,271,191391,1,8,3:2:0:0:
390,169,191546,5,2,3:2:0:0:
305,191,191700,1,8,3:2:0:0:
492,314,191855,6,0,B|518:336|506:364|449:367|448:364|417:281|438:254|510:221,1,202.500000772476,6|0,3:2|0:0,0:0:0:0:
504,167,192164,2,0,P|479:123|437:97,1,100,10|2,3:2|1:2,0:0:0:0:
288,0,192474,5,2,3:2:0:0:
178,58,192628,1,2,3:2:0:0:
236,168,192783,1,0,1:0:0:0:
86,328,192938,5,10,3:2:0:0:
269,229,193092,1,2,1:2:0:0:
236,168,193247,1,2,3:2:0:0:
31,6,193401,5,10,3:2:0:0:
213,105,193556,2,0,B|245:93|265:109|265:109|255:81|229:63,2,115.000002193451,2|0|2,1:2|3:0|3:2,0:0:0:0:
39,218,194020,5,10,3:2:0:0:
198,227,194175,1,2,3:2:0:0:
430,167,194329,2,0,B|445:107|397:80|397:80|337:91|369:144,1,172.500003290176,2|0,3:2|0:0,0:0:0:0:
434,238,194639,2,0,B|401:239|385:220|385:220|358:218|345:254,1,100,10|2,3:2|1:2,0:0:0:0:
202,344,194948,5,2,3:2:0:0:
78,336,195103,1,2,3:2:0:0:
39,218,195257,1,2,1:2:0:0:
256,56,195412,5,10,3:2:0:0:
73,155,195566,1,2,1:2:0:0:
106,216,195721,1,2,3:2:0:0:
210,0,195876,5,8,3:2:0:0:
393,99,196030,2,0,P|429:143|446:197,1,115.000002193451,2|0,1:2|3:0,0:0:0:0:
501,13,196340,5,2,3:2:0:0:
397,27,196494,1,10,3:2:0:0:
289,126,196649,1,10,3:2:0:0:
185,302,196804,6,0,B|192:339|222:360|254:351|254:351|278:303|239:263|196:280,1,202.500000772476,6|0,3:2|0:0,0:0:0:0:
291,325,197113,6,0,P|312:339|328:360,1,52.4999983978272,10|0,3:2|0:0,0:0:0:0:
403,374,197422,1,0,3:0:0:0:
403,374,197577,1,2,3:2:0:0:
464,280,197731,1,0,1:0:0:0:
397,182,197886,1,10,3:2:0:0:
490,50,198041,6,0,B|489:5|428:2|384:37|413:81|461:74,1,157.499995193482,6|0,1:2|0:0,0:0:0:0:
462,163,198350,6,0,P|458:148|447:137,1,30,10|0,3:2|0:0,0:0:0:0:
401,186,198659,1,0,3:0:0:0:
401,186,198814,1,2,3:2:0:0:
257,244,198968,1,10,3:2:0:0:
157,204,199123,1,0,3:0:0:0:
10,315,199278,6,0,P|38:226|97:154,1,187.5,6|0,3:2|0:0,0:0:0:0:
141,267,199587,6,0,P|112:178|38:92,1,202.500000772476,10|0,3:2|0:0,0:0:0:0:
12,34,199896,1,2,3:2:0:0:
12,34,200051,1,2,3:2:0:0:
132,53,200206,1,2,1:2:0:0:
219,187,200360,2,0,P|184:231|139:265,1,112.500004291535,10|0,3:2|0:0,0:0:0:0:
139,265,200670,1,2,3:2:0:0:
0,383,200824,5,10,3:2:0:0:
201,311,200979,1,2,3:2:0:0:
290,214,201133,5,10,3:2:0:0:
151,164,201288,1,10,3:2:0:0:
31,89,201443,5,10,3:2:0:0:
55,42,201520,1,8,3:2:0:0:
100,48,201597,1,8,3:2:0:0:
116,18,201675,1,8,3:2:0:0:
182,24,201752,6,0,B|229:26|291:59|278:129|239:140|216:136|202:88,1,202.500000772476,6|0,3:2|3:0,0:0:0:0:
288,34,202061,2,0,B|331:25|349:54|349:54|369:77|405:73,1,115.000002193451,10|2,3:2|1:2,0:0:0:0:
507,191,202371,5,10,3:2:0:0:
318,246,202525,1,2,3:2:0:0:
261,340,202680,5,2,3:2:0:0:
93,290,202834,1,10,3:2:0:0:
0,121,202989,6,0,B|-6:145|21:158|21:158|123:176|123:176|148:190|131:222,1,202.500000772476,2|0,1:2|0:0,0:0:0:0:
165,289,203298,1,10,3:2:0:0:
55,191,203453,6,0,P|60:165|77:145,1,52.4999983978272,2|0,1:2|0:0,0:0:0:0:
61,81,203762,1,2,3:2:0:0:
147,36,203917,1,10,3:2:0:0:
272,62,204072,1,10,3:2:0:0:
451,35,204226,6,0,P|416:79|416:136,1,115.000002193451,2|2,3:2|1:2,0:0:0:0:
441,235,204458,1,0,3:0:0:0:
451,252,204535,2,0,B|469:228|462:192|462:192|424:217|401:204,1,127.50000243187,8|0,3:2|0:0,0:0:0:0:
388,280,204845,5,2,3:2:0:0:
388,280,204999,1,2,3:2:0:0:
290,344,205154,1,2,1:2:0:0:
165,339,205309,1,10,3:2:0:0:
474,348,205463,5,2,1:2:0:0:
494,253,205618,1,0,3:0:0:0:
447,148,205773,1,10,3:2:0:0:
332,59,205927,1,2,3:2:0:0:
159,59,206082,1,0,3:0:0:0:
159,59,206237,6,0,P|134:24|100:0,2,85.0000016212464,10|2|10,3:2|3:2|3:2,0:0:0:0:
69,168,206700,6,0,P|91:154|104:132,1,52.4999983978272,6|0,3:2|3:0,0:0:0:0:
54,71,207010,6,0,P|135:128|234:126,1,202.500000772476,10|0,3:2|0:0,0:0:0:0:
247,50,207319,1,0,3:0:0:0:
247,50,207474,1,2,3:2:0:0:
159,59,207628,1,2,1:2:0:0:
105,167,207783,1,10,3:2:0:0:
80,323,207938,6,0,P|73:297|64:272,1,52.4999983978272,6|0,1:2|0:0,0:0:0:0:
91,338,208247,6,0,P|111:254|178:146,1,202.500000772476,10|0,3:2|0:0,0:0:0:0:
238,120,208556,1,8,3:2:0:0:
238,120,208711,1,2,3:2:0:0:
278,270,208865,2,0,P|261:231|236:198,1,85.0000016212464,2|8,3:2|3:2,0:0:0:0:
324,351,209175,6,0,P|359:306|405:305,1,100,6|0,1:2|3:0,0:0:0:0:
496,311,209407,1,0,3:0:0:0:
512,323,209484,2,0,L|398:303,1,115.000002193451,10|0,3:2|3:0,0:0:0:0:
324,351,209716,1,2,1:2:0:0:
307,364,209793,6,0,P|286:320|250:284,1,85.0000016212464,10|2,3:2|3:2,0:0:0:0:
261,293,210103,1,2,3:2:0:0:
319,162,210257,6,0,P|272:145|222:145,1,85.0000016212464,10|0,3:2|3:0,0:0:0:0:
237,143,210566,1,2,3:2:0:0:
39,33,210721,6,0,L|89:41,1,42.5000008106232,10|0,3:2|0:0,0:0:0:0:
126,140,210876,2,0,L|155:181,1,42.5000008106232,2|0,3:2|0:0,0:0:0:0:
185,321,211030,5,10,3:2:0:0:
199,329,211108,1,8,3:2:0:0:
177,335,211185,1,8,3:2:0:0:
192,343,211262,1,8,3:2:0:0:
176,358,211340,5,10,3:3:0:0:
186,335,211417,1,8,3:3:0:0:
200,303,211494,1,8,3:3:0:0:
223,258,211572,1,8,3:3:0:0:
254,198,211649,6,0,B|260:164|269:153|323:150|326:162|348:177|380:210|363:252|305:245,1,202.500000772476,6|0,3:2|0:0,0:0:0:0:
276,122,211958,2,0,P|244:73|216:23,1,115.000002193451,10|2,3:2|1:2,0:0:0:0:
61,5,212267,5,2,3:2:0:0:
6,194,212422,1,2,3:2:0:0:
175,134,212577,5,2,1:2:0:0:
225,302,212731,1,10,3:2:0:0:
35,329,212886,6,0,B|56:338|72:354|72:354|91:292|146:258|146:258|165:266|160:297,1,202.500000772476,2|0,1:2|0:0,0:0:0:0:
225,302,213195,1,10,3:2:0:0:
62,256,213350,6,0,P|76:264|87:278,2,34.9999989318848,2|0|2,3:2|3:0|1:2,0:0:0:0:
35,329,213737,1,0,0:0:0:0:
45,344,213814,1,10,3:2:0:0:
198,374,213968,1,10,3:2:0:0:
366,315,214123,6,0,B|389:314|408:325|408:325|416:354|440:370,2,85.0000016212464,2|2|2,3:2|3:2|1:2,0:0:0:0:
494,230,214587,2,0,P|496:271|477:309,1,85.0000016212464,10|2,3:2|1:2,0:0:0:0:
417,248,214896,5,2,3:2:0:0:
319,184,215051,1,10,3:2:0:0:
194,189,215206,1,2,3:2:0:0:
31,356,215360,5,2,3:2:0:0:
11,261,215515,1,10,3:2:0:0:
58,156,215670,1,2,3:2:0:0:
189,80,215824,5,2,3:2:0:0:
255,240,215979,1,8,3:2:0:0:
197,333,216133,6,0,B|184:359|184:359|167:333|167:333|168:301,2,85.0000016212464,2|8|0,3:2|3:2|3:0,0:0:0:0:
285,300,216597,6,0,P|307:286|320:264,1,52.4999983978272,6|0,3:2|0:0,0:0:0:0:
397,299,216907,6,0,L|197:334,1,202.500000772476,10|0,3:2|0:0,0:0:0:0:
124,352,217216,1,0,3:0:0:0:
132,198,217371,2,0,L|147:282,2,85.0000016212464,2|8|8,3:2|3:2|3:2,3:2:0:0:
76,100,217834,6,0,L|127:109,1,52.4999983978272,6|0,1:2|0:0,0:0:0:0:
22,146,218144,6,0,L|221:110,1,202.500000772476,10|0,3:2|0:0,0:0:0:0:
272,50,218453,1,8,3:2:0:0:
441,46,218608,1,2,3:2:0:0:
358,23,218762,6,0,B|394:75|394:75|429:63|429:63|426:40,1,112.500004291535,8|0,3:2|0:0,0:0:0:0:
501,103,219072,5,14,3:2:0:0:
404,146,219226,1,0,3:0:0:0:
447,274,219381,5,2,3:2:0:0:
350,231,219535,1,8,3:2:0:0:
335,366,219690,5,10,3:2:0:0:
217,378,219845,1,10,3:2:0:0:
91,292,219999,1,10,3:2:0:0:
32,127,220154,5,10,3:2:0:0:
194,53,220309,1,8,3:2:0:0:
309,200,220463,5,10,3:2:0:0:
122,114,220618,1,8,3:2:0:0:
23,329,220773,5,8,3:2:0:0:
233,232,220927,1,10,3:2:0:0:
443,135,221082,1,14,3:2:0:0:
37,78,224020,6,0,L|31:38,2,40,6|0|0,1:2|1:0|1:0,0:0:0:0:
121,144,224948,2,0,L|114:104,2,40,2|0|0,1:2|1:0|1:0,0:0:0:0:
37,210,225876,2,0,L|31:170,2,40,0|0|0,1:0|1:0|1:0,0:0:0:0:
121,276,226804,2,0,L|114:236,2,40,0|0|0,1:0|1:0|1:0,0:0:0:0:
216,303,227731,6,0,L|209:263,1,40,2|0,1:2|1:0,0:0:0:0:
121,276,228350,2,0,L|114:236,1,40,2|0,1:2|1:0,0:0:0:0:
216,303,228968,5,2,1:2:0:0:
311,330,229278,1,2,1:2:0:0:
406,357,229587,1,2,1:2:0:0:
501,384,229896,2,0,L|494:344,1,40,2|0,1:2|1:0,0:0:0:0:
467,249,230515,5,2,1:2:0:0:
440,154,230824,1,2,1:2:0:0:
413,59,231133,2,0,L|406:19,2,40,2|0|0,1:2|1:0|1:0,0:0:0:0:
439,154,232061,1,2,1:2:0:0:
345,181,232371,2,0,L|338:141,2,40,2|0|0,1:2|1:0|1:0,0:0:0:0:
372,276,233298,1,2,1:2:0:0:
277,303,233608,2,0,L|270:263,1,40,2|0,1:2|1:0,0:0:0:0:
175,236,234226,5,2,1:2:0:0:
148,141,234535,1,2,1:2:0:0:
121,46,234845,2,0,L|114:6,1,40,2|0,1:2|1:0,0:0:0:0:
209,32,235463,5,2,1:2:0:0:
304,60,235773,1,2,1:2:0:0:
399,87,236082,1,2,1:2:0:0:
494,114,236391,6,0,L|501:154,2,40,2|0|2,1:2|1:0|1:2,0:0:0:0:
399,87,237319,2,0,L|406:127,2,40,2|0|0,1:2|1:0|1:0,0:0:0:0:
304,60,238247,1,2,1:2:0:0:
209,32,238556,2,0,L|216:72,1,40,2|0,1:2|1:0,0:0:0:0:
121,44,239175,5,2,1:2:0:0:
149,139,239484,1,2,1:2:0:0:
176,234,239793,1,2,1:2:0:0:
203,329,240103,2,0,L|210:369,1,40,2|0,1:2|1:0,0:0:0:0:
114,340,240721,5,2,1:2:0:0:
87,245,241030,1,2,1:2:0:0:
59,150,241340,2,0,L|52:110,2,40,2|0|0,1:2|1:0|1:0,0:0:0:0:
87,245,242267,2,0,L|94:285,1,40,2|0,1:2|1:0,0:0:0:0:
59,150,242886,2,0,L|52:110,1,40,2|0,1:2|1:0,0:0:0:0:
25,15,243505,1,2,1:2:0:0:
87,245,243814,6,0,L|94:285,1,40,6|0,3:2|1:0,0:0:0:0:
188,312,244432,1,2,3:2:0:0:
283,340,244742,2,0,L|276:300,2,40,2|0|0,1:2|3:0|1:0,0:0:0:0:
188,312,245670,2,0,L|181:272,1,40,0|0,3:0|1:0,0:0:0:0:
378,368,246288,6,0,L|371:328,1,40,0|0,3:0|1:0,0:0:0:0:
343,233,246907,2,0,L|336:193,1,40,2|0,3:2|1:0,0:0:0:0:
308,98,247525,2,0,L|301:58,1,40,2|0,3:2|1:0,0:0:0:0:
343,233,248144,6,0,L|336:193,1,40,0|2,3:0|1:2,0:0:0:0:
301,58,248762,2,0,L|308:98,2,40,2|0|0,3:2|1:0|3:0,0:0:0:0:
206,31,249690,2,0,L|213:71,1,40,2|0,1:2|3:0,0:0:0:0:
240,165,250309,1,2,1:2:0:0:
294,355,250618,6,0,L|287:315,1,40,0|0,3:0|1:0,0:0:0:0:
206,31,251237,2,0,L|213:71,1,40,0|0,3:0|1:0,0:0:0:0:
307,97,251855,1,2,3:2:0:0:
118,44,252164,2,0,L|111:4,2,40,0|2|2,1:0|3:2|1:2,0:0:0:0:
212,70,253092,1,2,3:2:0:0:
307,97,253401,1,2,1:2:0:0:
361,287,253711,6,0,L|354:247,2,40,2|0|0,3:2|1:0|3:0,0:0:0:0:
266,260,254639,1,2,1:2:0:0:
171,233,254948,1,2,3:2:0:0:
76,206,255257,2,0,L|69:166,1,40,2|2,1:2|3:2,0:0:0:0:
42,71,255876,1,2,1:2:0:0:
103,301,256185,6,0,L|110:341,2,40,2|2|2,3:2|1:2|3:2,0:0:0:0:
42,71,257113,2,0,L|49:111,1,40,2|0,1:2|3:0,0:0:0:0:
76,206,257731,1,2,1:2:0:0:
42,71,258041,2,0,L|49:111,1,40,0|2,3:0|1:2,0:0:0:0:
103,301,258659,1,0,3:0:0:0:
196,329,258968,2,0,L|189:289,1,40,2|0,1:2|3:0,0:0:0:0:
162,194,259587,1,0,1:0:0:0:
291,356,259896,6,0,L|284:316,1,40,0|0,3:0|1:0,0:0:0:0:
257,221,260515,1,2,3:2:0:0:
230,126,260824,1,2,1:2:0:0:
291,356,261133,6,0,L|284:316,2,40,0|0|0,3:0|1:0|3:0,0:0:0:0:
196,329,262061,1,2,1:2:0:0:
162,194,262371,2,0,L|169:234,1,40,2|2,3:2|1:2,0:0:0:0:
196,329,262989,1,2,3:2:0:0:
196,329,263298,1,2,0:2:0:0:
61,129,266082,5,8,3:3:0:0:
82,89,266159,1,8,3:3:0:0:
107,128,266237,1,8,3:3:0:0:
77,272,266391,1,0,3:0:0:0:
33,41,266546,5,8,3:3:0:0:
77,20,266623,1,8,3:3:0:0:
124,34,266700,1,8,3:3:0:0:
82,89,266855,1,0,3:0:0:0:
81,276,267010,1,8,3:2:0:0:
81,276,267164,1,0,3:0:0:0:
82,89,267319,5,8,3:2:0:0:
80,256,267474,1,0,3:0:0:0:
80,241,267551,1,0,3:0:0:0:
80,226,267628,1,8,3:2:0:0:
422,305,267938,6,0,L|425:282,1,22.4999993133545,2|0,1:2|0:0,0:0:0:0:
449,352,268247,6,0,L|435:279,1,75,10|0,3:3|0:0,0:0:0:0:
376,381,268556,6,0,P|417:297|456:211,1,187.5,6|0,3:2|0:0,0:0:0:0:
499,151,268865,1,10,3:2:0:0:
360,222,269020,2,0,P|335:179|315:133,1,100,2|0,3:2|3:0,0:0:0:0:
314,133,269329,1,2,3:2:0:0:
295,347,269484,6,0,P|313:335|323:315,1,44.999998626709,10|0,3:2|0:0,0:0:0:0:
266,286,269793,1,2,3:2:0:0:
198,219,269948,1,2,3:2:0:0:
39,181,270103,6,0,B|70:160|70:160|96:94|144:63|197:62,1,187.5,10|0,3:2|0:0,0:0:0:0:
244,131,270412,6,0,P|204:103|176:63,1,97.4999955368044,2|0,3:2|0:0,0:0:0:0:
87,58,270721,1,10,3:2:0:0:
3,5,270876,1,2,3:2:0:0:
39,181,271030,6,0,B|70:182|109:195|140:257|125:300|66:290,1,172.500003290176,2|0,3:2|0:0,0:0:0:0:
64,363,271340,1,10,3:2:0:0:
130,202,271494,2,0,P|105:245|84:291,1,100,2|0,3:2|3:0,0:0:0:0:
266,238,271804,2,0,P|217:249|170:267,1,100,2|8,3:2|3:2,0:0:0:0:
248,93,272113,2,0,P|223:136|202:182,1,100,2|0,3:2|3:0,0:0:0:0:
202,181,272422,1,0,3:0:0:0:
474,151,272577,6,0,P|488:167|493:189,1,44.999998626709,8|0,3:2|0:0,0:0:0:0:
354,137,272886,6,0,P|377:141|399:155,1,50,2|0,3:2|3:0,0:0:0:0:
372,324,273195,6,0,L|380:273,1,44.999998626709,14|0,3:2|0:0,0:0:0:0:
442,336,273505,6,0,P|458:251|474:151,1,187.5,6|0,3:2|0:0,0:0:0:0:
395,84,273814,1,8,3:2:0:0:
366,0,273968,1,2,3:2:0:0:
256,120,274123,2,0,P|234:92|257:35,1,100,2|0,3:2|3:0,0:0:0:0:
274,185,274432,6,0,P|295:177|311:162,1,44.999998626709,14|0,3:2|0:0,0:0:0:0:
256,120,274742,6,0,B|192:140|196:214|222:234|243:245|243:245|212:277,1,172.500003290176,6|0,3:2|0:0,0:0:0:0:
167,275,275051,6,0,P|153:292|147:314,1,44.999998626709,8|0,3:2|0:0,0:0:0:0:
235,254,275360,6,0,P|256:300|281:344,1,100,2|0,3:2|3:0,0:0:0:0:
384,189,275670,2,0,P|363:234|338:278,1,100,10|0,3:2|3:0,0:0:0:0:
512,367,275979,5,6,3:2:0:0:
438,285,276133,1,0,3:0:0:0:
305,195,276288,1,10,3:2:0:0:
299,8,276443,6,0,P|319:53|378:69,1,100,2|0,3:2|3:0,0:0:0:0:
460,134,276752,1,10,3:2:0:0:
512,185,276907,1,2,3:2:0:0:
441,204,277061,1,2,3:2:0:0:
316,133,277216,5,10,3:2:0:0:
248,226,277371,1,2,3:2:0:0:
123,106,277525,5,10,3:2:0:0:
107,120,277603,1,0,3:0:0:0:
111,90,277680,1,0,3:0:0:0:
96,105,277757,1,0,3:0:0:0:
58,50,277834,5,10,3:2:0:0:
106,101,277912,1,8,3:2:0:0:
149,149,277989,1,8,3:2:0:0:
189,193,278066,1,8,3:2:0:0:
222,230,278144,5,10,3:3:0:0:
198,262,278221,1,8,3:3:0:0:
180,286,278298,1,10,3:3:0:0:
165,306,278376,1,8,3:3:0:0:
153,321,278453,5,6,3:2:0:0:
64,283,278608,1,2,3:2:0:0:
5,196,278762,1,10,3:2:0:0:
202,195,278917,6,0,P|177:151|156:105,1,100,2|0,3:2|3:0,0:0:0:0:
64,283,279226,2,0,P|89:240|110:194,1,100,2|8,3:2|3:2,0:0:0:0:
252,133,279535,2,0,P|228:90|207:44,1,100,2|0,3:2|3:0,0:0:0:0:
206,43,279845,1,0,3:0:0:0:
264,199,279999,6,0,P|286:194|303:180,1,44.999998626709,8|0,3:2|0:0,0:0:0:0:
369,204,280309,6,0,P|332:202|302:179,1,75,2|0,3:2|0:0,0:0:0:0:
369,204,280618,6,0,P|406:169|409:113,1,104.999996795654,10|0,3:2|0:0,0:0:0:0:
441,187,280927,6,0,P|461:232|487:275,1,100,2|0,3:2|3:0,0:0:0:0:
301,255,281237,2,0,P|281:300|256:344,1,100,10|0,3:2|3:0,0:0:0:0:
256,91,281546,2,0,P|276:136|302:179,1,100,2|0,3:2|3:0,0:0:0:0:
106,165,281855,2,0,P|126:210|151:254,1,100,10|0,3:2|3:0,0:0:0:0:
88,335,282164,1,0,3:0:0:0:
181,382,282319,1,0,3:0:0:0:
199,151,282474,6,0,P|189:171|191:192,1,29.9999990844727,8|0,3:2|3:0,0:0:0:0:
313,142,282783,6,0,P|279:155|256:184,1,75,2|0,3:2|0:0,0:0:0:0:
377,260,283092,6,0,B|377:239|365:229|365:229|327:222|306:193|311:152|311:152|318:108,1,150,14|0,3:2|0:0,0:0:0:0:
396,71,283401,2,0,P|400:119|376:162,1,100,6|0,3:2|3:0,0:0:0:0:
470,366,283711,6,0,L|457:338,1,29.9999990844727,8|2,3:2|3:2,0:0:0:0:
376,163,284020,2,0,P|347:224|314:282,1,134.999995880127,2|0,3:2|0:0,0:0:0:0:
387,342,284329,6,0,L|374:314,1,29.9999990844727,10|0,3:2|3:0,0:0:0:0:
305,144,284639,2,0,P|338:85|366:24,1,134.999995880127,6|0,3:2|0:0,0:0:0:0:
271,18,284948,6,0,L|283:45,1,29.9999990844727,10|0,3:2|3:0,0:0:0:0:
265,202,285257,2,0,P|236:263|203:321,1,134.999995880127,2|0,3:2|0:0,0:0:0:0:
149,384,285566,2,0,P|115:325|87:264,1,134.999995880127,2|0,3:2|0:0,0:0:0:0:
5,250,285876,5,14,3:2:0:0:
81,107,286030,1,8,3:2:0:0:
213,9,286185,5,10,3:2:0:0:
302,173,286340,1,10,3:2:0:0:
481,266,286494,5,8,3:2:0:0:
346,351,286649,1,10,3:2:0:0:
163,320,286804,1,10,3:2:0:0:
3,161,286958,1,8,3:2:0:0:
24,35,288041,5,2,3:2:0:0:
35,30,288118,1,8,3:2:0:0:
46,24,288195,2,0,B|92:17|134:40|124:83|123:88|122:93|138:125|169:141|220:120,1,220.000006713867,6|0,3:2|3:0,0:0:0:0:
336,202,288659,2,0,B|321:234|283:227|259:182,1,100,10|0,3:2|3:0,0:0:0:0:
438,164,288968,2,0,B|469:179|463:217|418:241,1,100,2|2,3:2|3:2,0:0:0:0:
420,239,289278,1,8,3:2:0:0:
465,31,289432,6,0,P|418:130|336:202,1,220.000006713867,6|2,3:2|3:2,0:0:0:0:
255,260,289896,1,10,3:2:0:0:
125,208,290051,2,0,P|91:164|43:130,2,100,2|2|0,3:2|3:2|3:0,0:0:0:0:
66,353,290515,2,0,P|57:332|58:310,1,44.999998626709,10|0,3:2|0:0,0:0:0:0:
128,316,290824,5,6,3:2:0:0:
194,225,290979,1,2,3:2:0:0:
308,312,291133,1,8,3:2:0:0:
438,242,291288,6,0,P|466:188|501:164,1,100,2|0,3:2|3:0,0:0:0:0:
353,142,291597,2,0,P|325:88|290:64,1,100,2|8,3:2|3:2,0:0:0:0:
512,14,291907,2,0,B|463:-9|404:5|371:96|459:143|485:69,1,220.000006713867,6|2,3:2|3:2,0:0:0:0:
438,242,292371,2,0,P|466:188|501:164,1,100,8|2,3:2|3:2,0:0:0:0:
512,273,292680,1,2,3:2:0:0:
512,273,292834,1,0,3:0:0:0:
394,367,292989,6,0,P|372:362|353:350,1,44.999998626709,8|0,3:2|0:0,0:0:0:0:
395,291,293298,6,0,B|377:192,1,100,6|0,3:2|3:0,0:0:0:0:
220,221,293608,1,10,3:2:0:0:
377,192,293762,1,0,3:0:0:0:
253,143,293917,6,0,B|270:44,1,100,2|0,3:2|3:0,0:0:0:0:
428,73,294226,1,10,3:2:0:0:
270,44,294381,1,0,3:0:0:0:
125,137,294535,6,0,B|142:235,1,100,2|0,3:2|3:0,0:0:0:0:
300,207,294845,1,10,3:2:0:0:
142,236,294999,1,0,3:0:0:0:
253,143,295154,6,0,B|270:44,1,100,2|0,3:2|3:0,0:0:0:0:
427,73,295463,1,10,3:2:0:0:
270,44,295618,1,0,3:0:0:0:
30,106,295773,5,6,3:2:0:0:
30,106,295927,1,0,3:0:0:0:
57,33,296082,6,0,P|43:20|23:12,1,40,10|0,3:2|3:0,0:0:0:0:
100,131,296391,2,0,P|103:111|101:91,1,40,10|0,3:2|3:0,0:0:0:0:
57,33,296700,1,2,3:0:0:0:
23,205,296855,2,0,P|41:198|58:186,1,40,10|0,3:2|3:0,0:0:0:0:
101,91,297164,2,0,P|103:111|100:131,1,40,10|8,3:2|3:2,0:0:0:0:
84,250,297474,5,6,3:2:0:0:
30,106,297628,1,10,3:2:0:0:
159,9,297783,1,2,3:2:0:0:
174,17,297860,1,0,3:0:0:0:
189,25,297938,1,8,3:2:0:0:
441,26,298092,6,0,B|407:-1|372:16|313:58|312:117|354:154|399:113|398:107,1,220.000006713867,6|0,3:2|3:0,0:0:0:0:
484,255,298556,2,0,P|464:210|420:190,1,100,10|0,3:2|3:0,0:0:0:0:
346,329,298865,2,0,P|365:284|410:264,1,100,2|2,3:2|3:2,0:0:0:0:
409,264,299175,1,10,3:2:0:0:
230,380,299329,6,0,P|211:267|191:163,1,220.000006713867,6|2,3:2|3:2,0:0:0:0:
189,35,299793,1,8,3:2:0:0:
38,118,299948,2,0,B|55:125|55:125|102:93|102:93|124:102,2,100,2|2|0,3:2|3:2|3:0,0:0:0:0:
191,163,300412,6,0,P|198:141|211:124,1,44.999998626709,10|0,3:2|0:0,0:0:0:0:
189,35,300721,5,2,3:2:0:0:
303,60,300876,1,2,3:2:0:0:
438,156,301030,1,10,3:2:0:0:
455,332,301185,6,0,P|410:316|372:361,1,100,2|0,3:2|3:0,0:0:0:0:
267,224,301494,2,0,P|275:270|333:281,1,100,2|8,3:2|3:2,0:0:0:0:
500,83,301804,2,0,P|407:141|333:222,1,220.000006713867,6|2,3:2|3:2,0:0:0:0:
187,259,302267,2,0,P|147:289|125:333,1,100,8|2,3:2|3:2,0:0:0:0:
68,384,302577,1,2,3:2:0:0:
28,308,302731,1,2,3:2:0:0:
25,298,302809,1,0,3:0:0:0:
21,288,302886,6,0,L|28:244,1,44.999998626709,8|0,3:2|0:0,0:0:0:0:
45,179,303195,6,0,B|63:80,1,100,6|0,3:2|3:0,0:0:0:0:
220,109,303505,1,10,3:2:0:0:
63,80,303659,1,0,3:0:0:0:
161,223,303814,6,0,B|179:322,1,100,2|0,3:2|3:0,0:0:0:0:
336,293,304123,1,10,3:2:0:0:
179,322,304278,1,0,3:0:0:0:
289,207,304432,6,0,B|307:108,1,100,0|0,3:2|3:0,0:0:0:0:
464,137,304742,1,10,3:2:0:0:
307,108,304896,1,0,3:0:0:0:
444,33,305051,5,10,3:3:0:0:
453,31,305128,1,8,3:3:0:0:
463,29,305206,1,8,3:3:0:0:
472,29,305283,1,8,3:3:0:0:
472,92,305360,6,0,L|464:136,1,44.999998626709,10|0,3:2|0:0,0:0:0:0:
445,213,305670,5,6,3:2:0:0:
343,243,305824,1,0,3:0:0:0:
174,294,305979,5,10,3:2:0:0:
343,243,306133,1,0,3:0:0:0:
512,192,306288,5,2,3:2:0:0:
343,243,306443,1,8,3:2:0:0:
174,294,306597,5,2,3:2:0:0:
123,125,306752,1,0,3:0:0:0:
292,74,306907,1,8,3:2:0:0:
461,23,307061,5,2,3:2:0:0:
292,74,307216,1,8,3:2:0:0:
452,261,307371,5,2,3:2:0:0:
237,196,307525,1,10,3:2:0:0:
22,131,307680,1,10,3:2:0:0:
22,131,308330,5,8,3:3:0:0:
62,154,308407,1,8,3:3:0:0:
53,184,308484,1,8,3:3:0:0:
67,189,308561,1,8,3:3:0:0:
67,189,309412,5,4,3:2:0:0:
256,192,309489,12,0,319145,3:0:0:0:
53,215,320218,6,0,B|-9:195|10:123|25:95|65:71|145:81|168:124|164:198|132:203|123:204|113:205|82:209|24:240|73:335|112:341|178:349|223:303|218:236|191:209|142:208,1,552.500010538101,4|0,3:2|0:0,0:0:0:0:
81,281,321806,1,0,3:0:0:0:
54,323,321869,1,0,3:0:0:0:
37,296,321932,1,0,3:0:0:0:
35,330,321995,1,0,3:0:0:0:
