osu file format v14

[General]
AudioFilename: audio.mp3
AudioLeadIn: 0
PreviewTime: 31194
Countdown: 0
SampleSet: Normal
StackLeniency: 0.4
Mode: 0
LetterboxInBreaks: 0
WidescreenStoryboard: 0

[Editor]
Bookmarks: 14498,47890,64585
DistanceSpacing: 1
BeatDivisor: 4
GridSize: 16
TimelineZoom: 2.3

[Metadata]
Title:Corroscience / Almisael (feat. YoRHa)
TitleUnicode:侵贖/アルミサエル (feat. ヨルハ)
Artist:Akitaka Tohyama
ArtistUnicode:遠山明孝
Creator:Jeremayer
Version:Invasion
Source:ドラッグ オン ドラグーン3
Tags:Drakengard 3 Drag-On Dragoon 3 菊地はな
BeatmapID:1974397
BeatmapSetID:945498

[Difficulty]
HPDrainRate:5
CircleSize:4
OverallDifficulty:9.2
ApproachRate:9.7
SliderMultiplier:1.9
SliderTickRate:1

[Events]
//Background and Video events
0,0,"bg.jpg",0,0
//Break Periods
//Storyboard Layer 0 (Background)
//Storyboard Layer 1 (Fail)
//Storyboard Layer 2 (Pass)
//Storyboard Layer 3 (Foreground)
//Storyboard Sound Samples

[TimingPoints]
6146,260.869565217391,4,1,0,40,1,0
6146,-133.333333333333,4,1,0,50,0,0
9276,-117.647058823529,4,1,0,50,0,0
9667,-105.263157894737,4,1,0,50,0,0
9993,-105.263157894737,4,1,0,5,0,0
10059,-105.263157894737,4,1,0,50,0,0
11102,-100,4,1,0,50,0,0
12406,-117.647058823529,4,1,0,50,0,0
12928,-333.333333333333,4,1,0,50,0,0
13189,-181.818181818182,4,1,0,50,0,0
14493,-90.9090909090909,4,1,0,70,0,0
18080,-90.9090909090909,4,1,0,5,0,0
18145,-90.9090909090909,4,1,0,70,0,0
20689,-90.9090909090909,4,1,0,5,0,0
20754,-90.9090909090909,4,1,0,70,0,0
25385,-90.9090909090909,4,1,0,5,0,0
25450,-90.9090909090909,4,1,0,70,0,0
28515,-90.9090909090909,4,1,0,5,0,0
28580,-90.9090909090909,4,1,0,70,0,0
35819,-90.9090909090909,4,1,0,5,0,0
35885,-90.9090909090909,4,1,0,70,0,0
37385,-90.9090909090909,4,1,0,5,0,0
37450,-90.9090909090909,4,1,0,70,0,0
37906,-90.9090909090909,4,1,0,5,0,0
37971,-90.9090909090909,4,1,0,70,0,0
40515,-90.9090909090909,4,1,0,5,0,0
40580,-90.9090909090909,4,1,0,70,0,0
45732,-90.9090909090909,4,1,0,5,0,0
45797,-90.9090909090909,4,1,0,70,0,0
47135,-90.9090909090909,4,1,0,55,0,0
47363,-90.9090909090909,4,1,0,70,0,0
47640,-90.9090909090909,4,1,0,40,0,0
47885,-90.9090909090909,4,1,0,70,0,0
52515,-90.9090909090909,4,1,0,5,0,0
52580,-90.9090909090909,4,1,0,70,0,0
53037,-90.9090909090909,4,1,0,5,0,0
53102,-90.9090909090909,4,1,0,70,0,0
53885,-66.6666666666667,4,1,0,70,0,0
54145,-90.9090909090909,4,1,0,70,0,0
54602,-90.9090909090909,4,1,0,5,0,0
54667,-90.9090909090909,4,1,0,70,0,0
60863,-90.9090909090909,4,1,0,5,0,0
60928,-90.9090909090909,4,1,0,70,0,0
61906,-90.9090909090909,4,1,0,5,0,0
61972,-66.6666666666667,4,1,0,70,0,0
62232,-90.9090909090909,4,1,0,70,0,0
62689,-90.9090909090909,4,1,0,5,0,0
62754,-90.9090909090909,4,1,0,70,0,0
63732,-90.9090909090909,4,1,0,5,0,0
63797,-90.9090909090909,4,1,0,70,0,0
63928,-90.9090909090909,4,1,0,5,0,0
63993,-90.9090909090909,4,1,0,70,0,0
64580,-100,4,1,0,60,0,0
66863,-90.9090909090909,4,1,0,5,0,0
66928,-100,4,1,0,60,0,0
77624,-117.647058823529,4,1,0,60,0,0

[HitObjects]
141,188,6146,6,0,B|160:235|160:235|149:346,1,142.500005435944
150,326,6537,1,0,0:0:0:0:
51,251,6798,1,0,0:0:0:0:
67,253,6928,1,0,0:0:0:0:
311,71,7189,5,8,0:0:0:0:
190,93,7319,1,8,0:0:0:0:
265,164,7450,2,0,P|305:176|356:166,1,71.2500027179719
182,77,7711,1,8,0:0:0:0:
336,173,7972,2,0,L|333:219,2,35.625001358986
391,103,8232,6,0,P|423:144|425:177,1,71.2500027179719,8|0,0:0|0:0,0:0:0:0:
511,173,8493,2,0,P|491:221|464:239,1,71.2500027179719,8|0,0:0|0:0,0:0:0:0:
512,310,8754,2,0,P|459:317|430:302,1,71.2500027179719,8|0,0:0|0:0,0:0:0:0:
362,307,9015,1,0,0:0:0:0:
362,307,9145,1,0,0:0:0:0:
336,173,9276,6,0,L|416:180,1,80.750001540184,8|0,0:0|0:0,0:0:0:0:
248,234,9537,1,0,0:0:0:0:
282,85,9667,2,0,L|374:76,1,90.2499975900651,8|0,0:0|0:0,0:0:0:0:
244,250,9928,2,0,L|187:254,1,45.1249987950325
168,152,10059,1,0,0:0:0:0:
168,152,10189,1,0,0:0:0:0:
125,330,10319,5,0,0:0:0:0:
46,100,11102,6,0,L|55:-3,1,95
91,214,11363,1,0,0:0:0:0:
319,35,11624,1,0,0:0:0:0:
173,40,11754,1,0,0:0:0:0:
465,257,12015,1,0,0:0:0:0:
399,105,12145,2,0,L|394:227,1,95
468,32,12406,5,0,0:0:0:0:
345,284,12667,2,0,L|300:281,1,40.375000770092
300,190,12798,2,0,L|255:187,1,40.375000770092
223,266,12928,2,0,L|178:263,1,42.7499986953736
100,260,13189,6,0,L|102:305,1,26.1250007972718
58,358,13319,2,0,L|59:384,1,26.1250007972718
164,373,13450,2,0,B|202:383|202:383|275:373,2,104.500003189087
360,371,14232,1,0,0:0:0:0:
58,143,14493,6,0,B|166:85|161:193|284:140,1,209.000006378174,4|8,0:0|0:0,0:0:0:0:
220,41,14885,1,0,0:0:0:0:
117,220,15015,2,0,P|129:281|180:316,1,104.500003189087
355,157,15276,2,0,P|295:136|240:163,1,104.500003189087,8|0,0:0|0:0,0:0:0:0:
289,344,15537,6,0,L|303:222,1,104.500003189087
245,45,15798,2,0,L|259:167,1,104.500003189087,8|0,0:0|0:0,0:0:0:0:
403,259,16059,1,0,0:0:0:0:
256,148,16189,1,0,0:0:0:0:
425,256,16319,1,8,0:0:0:0:
211,230,16450,1,0,0:0:0:0:
494,318,16580,6,0,B|514:268|514:268|490:104,1,209.000006378174,0|8,0:0|0:0,0:0:0:0:
327,370,16972,1,0,0:0:0:0:
211,230,17102,2,0,P|220:179|257:144,1,104.500003189087
491,114,17363,2,0,P|442:131|393:116,1,104.500003189087,8|0,0:0|0:0,0:0:0:0:
292,0,17624,5,0,0:0:0:0:
436,26,17754,1,0,0:0:0:0:
257,144,17885,2,0,B|200:159|200:159|90:125,1,156.750004783631,8|0,0:0|0:0,0:0:0:0:
33,71,18145,2,0,P|12:119|39:196,1,104.500003189087
120,262,18406,1,8,0:0:0:0:
199,56,18537,1,0,0:0:0:0:
13,281,18667,6,0,B|31:354|101:365|101:365|149:333|215:348,1,209.000006378174,0|8,0:0|0:0,0:0:0:0:
329,376,19059,1,0,0:0:0:0:
218,239,19189,2,0,P|222:172|278:128,1,104.500003189087
458,212,19450,2,0,P|397:242|331:215,1,104.500003189087,8|0,0:0|0:0,0:0:0:0:
314,17,19711,6,0,P|370:53|380:124,1,104.500003189087
218,239,19972,1,8,0:0:0:0:
141,93,20102,2,0,B|124:136|124:136|133:228,1,104.500003189087
210,254,20363,1,0,0:0:0:0:
52,74,20493,2,0,B|32:123|32:123|44:246,1,156.750004783631,8|0,0:0|0:0,0:0:0:0:
118,298,20754,6,0,P|74:329|1:318,1,104.500003189087
141,93,21015,2,0,B|179:79|179:79|242:89,1,104.500003189087,8|0,0:0|0:0,0:0:0:0:
364,252,21276,6,0,P|420:236|455:159,1,104.500003189087
341,31,21537,2,0,P|326:87|376:156,1,104.500003189087,8|0,0:0|0:0,0:0:0:0:
512,113,21798,5,0,0:0:0:0:
511,286,21928,1,0,0:0:0:0:
421,83,22059,1,8,0:0:0:0:
428,329,22189,1,0,0:0:0:0:
492,23,22319,5,0,0:0:0:0:
501,381,22450,1,0,0:0:0:0:
354,140,22580,1,8,0:0:0:0:
309,126,22645,1,0,0:0:0:0:
263,137,22711,1,0,0:0:0:0:
228,168,22776,1,0,0:0:0:0:
215,213,22841,6,0,L|224:325,1,104.500003189087,4|0,0:0|0:0,0:0:0:0:
35,384,23102,2,0,L|44:272,1,104.500003189087,8|0,0:0|0:0,0:0:0:0:
228,168,23363,2,0,L|245:384,1,209.000006378174,0|8,0:0|0:0,0:0:0:0:
43,279,23754,1,0,0:0:0:0:
126,103,23885,6,0,P|158:64|222:50,1,104.500003189087
140,293,24145,2,0,P|89:301|42:278,1,104.500003189087,8|0,0:0|0:0,0:0:0:0:
208,49,24406,1,0,0:0:0:0:
104,204,24537,1,0,0:0:0:0:
302,101,24667,1,8,0:0:0:0:
36,140,24798,6,0,B|13:112|13:112|18:32,1,104.500003189087
317,94,25059,1,0,0:0:0:0:
287,300,25189,2,0,B|244:297|244:297|207:276|207:276|170:293|170:293|122:291,1,156.750004783631,8|0,0:0|0:0,0:0:0:0:
42,277,25450,6,0,P|59:229|103:202,1,104.500003189087
296,184,25711,2,0,P|245:192|199:169,1,104.500003189087,8|0,0:0|0:0,0:0:0:0:
406,21,25972,1,0,0:0:0:0:
264,95,26102,1,0,0:0:0:0:
471,173,26232,2,0,B|492:140|492:140|484:40,1,104.500003189087,8|0,0:0|0:0,0:0:0:0:
298,0,26493,1,0,0:0:0:0:
150,52,26624,1,0,0:0:0:0:
401,111,26754,1,8,0:0:0:0:
286,3,26885,1,0,0:0:0:0:
172,216,27015,6,0,L|178:332,1,104.500003189087
372,201,27276,1,8,0:0:0:0:
264,95,27406,1,0,0:0:0:0:
311,280,27537,2,0,B|414:338|415:241|515:302,1,209.000006378174,0|8,0:0|0:0,0:0:0:0:
453,384,27928,1,0,0:0:0:0:
372,201,28059,6,0,P|373:150|402:107,1,104.500003189087
512,0,28319,2,0,B|469:28|469:28|345:15,1,156.750004783631,8|0,0:0|0:0,0:0:0:0:
246,3,28580,2,0,P|250:54|281:95,1,104.500003189087
472,185,28841,1,8,0:0:0:0:
364,17,28972,1,0,0:0:0:0:
262,194,29102,6,0,B|222:224|178:216|178:216|156:185|116:172|116:172|89:186|52:185,1,209.000006378174,0|8,0:0|0:0,0:0:0:0:
190,324,29493,1,0,0:0:0:0:
360,230,29624,2,0,L|352:115,1,104.500003189087
221,10,29885,2,0,L|213:125,1,104.500003189087,8|0,0:0|0:0,0:0:0:0:
190,324,30145,5,0,0:0:0:0:
262,194,30276,1,0,0:0:0:0:
102,317,30406,1,8,0:0:0:0:
261,384,30537,1,0,0:0:0:0:
213,114,30667,5,0,0:0:0:0:
190,324,30798,1,0,0:0:0:0:
298,60,30928,1,8,0:0:0:0:
134,172,31059,1,0,0:0:0:0:
134,172,31124,1,0,0:0:0:0:
134,172,31189,6,0,P|76:168|35:119,1,104.500003189087,4|0,0:0|0:0,0:0:0:0:
298,60,31450,2,0,P|356:64|397:113,1,104.500003189087,8|0,0:0|0:0,0:0:0:0:
44,139,31711,2,0,B|-4:67|58:1|58:1|92:9|118:66,1,209.000006378174,0|8,0:0|0:0,0:0:0:0:
213,114,32102,1,0,0:0:0:0:
389,96,32232,6,0,B|413:60|413:60|403:0,1,104.500003189087
206,15,32493,1,8,0:0:0:0:
308,170,32624,1,0,0:0:0:0:
482,56,32754,2,0,P|451:15|402:-1,1,104.500003189087
213,114,33015,1,8,0:0:0:0:
402,0,33145,1,0,0:0:0:0:
373,243,33276,6,0,B|259:304|255:199|157:256,1,209.000006378174,0|8,0:0|0:0,0:0:0:0:
212,353,33667,1,0,0:0:0:0:
308,170,33798,2,0,P|276:129|227:114,1,104.500003189087
84,289,34059,2,0,P|134:282|172:247,1,104.500003189087,8|0,0:0|0:0,0:0:0:0:
171,37,34319,5,0,0:0:0:0:
89,192,34450,1,0,0:0:0:0:
308,170,34580,2,0,B|319:131|319:131|309:41,1,104.500003189087,8|0,0:0|0:0,0:0:0:0:
71,83,34841,1,0,0:0:0:0:
222,122,34972,1,0,0:0:0:0:
14,149,35102,1,8,0:0:0:0:
232,116,35232,1,0,0:0:0:0:
225,283,35363,5,0,0:0:0:0:
159,65,35493,1,0,0:0:0:0:
165,351,35624,2,0,B|218:369|218:369|336:349,1,156.750004783631,8|0,0:0|0:0,0:0:0:0:
363,258,35885,2,0,P|404:289|421:337,1,104.500003189087
192,206,36145,2,0,P|198:154|231:115,1,104.500003189087,8|0,0:0|0:0,0:0:0:0:
410,171,36406,5,0,0:0:0:0:
317,352,36537,1,0,0:0:0:0:
329,92,36667,1,8,0:0:0:0:
480,231,36798,2,0,B|503:197|503:197|496:110,1,104.500003189087
280,192,37059,1,0,0:0:0:0:
509,290,37189,2,0,L|497:133,1,156.750004783631,8|0,0:0|0:0,0:0:0:0:
490,22,37450,5,0,0:0:0:0:
410,171,37580,1,0,0:0:0:0:
233,49,37711,2,0,B|167:45|167:45|138:73|138:73|72:70,1,156.750004783631,8|0,0:0|0:0,0:0:0:0:
55,154,37972,2,0,P|13:123|0:73,1,104.500003189087
213,163,38232,2,0,P|206:214|171:251,1,104.500003189087,8|0,0:0|0:0,0:0:0:0:
87,70,38493,5,0,0:0:0:0:
305,120,38624,1,0,0:0:0:0:
69,242,38754,1,8,0:0:0:0:
233,49,38885,1,0,0:0:0:0:
295,314,39015,5,0,0:0:0:0:
55,154,39145,1,0,0:0:0:0:
305,120,39276,1,8,0:0:0:0:
350,130,39341,1,0,0:0:0:0:
385,162,39407,1,0,0:0:0:0:
400,207,39472,1,0,0:0:0:0:
388,252,39537,6,0,P|398:309|449:351,1,104.500003189087,4|0,0:0|0:0,0:0:0:0:
482,154,39798,1,8,0:0:0:0:
307,210,39928,1,0,0:0:0:0:
489,259,40059,2,0,L|481:131,1,104.500003189087
460,0,40319,2,0,P|450:57|367:107,1,156.750004783631,8|0,0:0|0:0,0:0:0:0:
277,63,40580,5,0,0:0:0:0:
482,154,40711,1,0,0:0:0:0:
231,150,40841,2,0,P|186:112|175:47,1,104.500003189087,8|0,0:0|0:0,0:0:0:0:
386,208,41102,1,0,0:0:0:0:
277,63,41232,1,0,0:0:0:0:
283,247,41363,1,8,0:0:0:0:
289,61,41493,1,0,0:0:0:0:
368,317,41624,6,0,B|295:341|295:341|132:321,1,209.000006378174,0|8,0:0|0:0,0:0:0:0:
25,145,42015,1,0,0:0:0:0:
177,227,42145,1,0,0:0:0:0:
13,324,42276,1,0,0:0:0:0:
190,227,42406,1,8,0:0:0:0:
25,145,42537,1,0,0:0:0:0:
175,324,42667,6,0,P|226:318|267:287,1,104.500003189087
147,53,42928,1,8,0:0:0:0:
99,201,43059,1,0,0:0:0:0:
267,286,43189,2,0,B|284:244|284:244|277:165,1,104.500003189087
238,10,43450,1,8,0:0:0:0:
190,227,43580,1,0,0:0:0:0:
440,178,43711,6,0,B|429:19|429:19|402:77,1,209.000006378174,0|8,0:0|0:0,0:0:0:0:
278,185,44102,1,0,0:0:0:0:
440,178,44232,2,0,P|480:206|505:287,1,104.500003189087
387,373,44493,1,8,0:0:0:0:
503,255,44624,1,0,0:0:0:0:
290,343,44754,6,0,L|147:333,1,104.500003189087
58,327,45015,1,8,0:0:0:0:
175,195,45145,2,0,B|186:156|186:156|178:65,1,104.500003189087
43,323,45406,1,0,0:0:0:0:
186,154,45537,2,0,B|180:90|180:90|202:50|202:50|197:1,1,156.750004783631,8|0,0:0|0:0,0:0:0:0:
83,26,45798,6,0,L|95:163,1,104.500003189087
262,212,46059,2,0,P|225:163|165:156,1,104.500003189087,8|0,0:0|0:0,0:0:0:0:
38,228,46319,1,0,0:0:0:0:
187,59,46450,1,0,0:0:0:0:
213,325,46580,1,8,0:0:0:0:
93,131,46711,1,0,0:0:0:0:
318,123,46841,5,0,0:0:0:0:
318,123,46906,1,0,0:0:0:0:
318,123,46972,2,0,L|309:50,1,52.2500015945435
411,26,47102,2,0,L|409:59,6,26.1250007972718,8|0|0|0|0|0|0,0:0|0:0|0:0|0:0|0:0|0:0|0:0,0:0:0:0:
478,127,47363,1,0,0:0:0:0:
475,153,47428,1,0,0:0:0:0:
474,181,47493,1,0,0:0:0:0:
472,208,47559,1,0,0:0:0:0:
471,237,47624,2,0,L|470:261,12,13.0625003986359,8|0|0|0|0|0|0|0|0|0|0|0|0,0:0|0:0|0:0|0:0|0:0|0:0|0:0|0:0|0:0|0:0|0:0|0:0|0:0,0:0:0:0:
508,332,47885,6,0,B|472:339|472:339|383:319,1,104.500003189087,4|0,0:0|0:0,0:0:0:0:
244,229,48145,1,8,0:0:0:0:
327,383,48276,2,0,P|374:363|405:322,1,104.500003189087
230,129,48537,2,0,P|223:180|243:228,1,104.500003189087,0|8,0:0|0:0,0:0:0:0:
499,172,48798,6,0,B|466:155|466:155|370:166,1,104.500003189087
318,291,49059,1,0,0:0:0:0:
399,162,49189,1,8,0:0:0:0:
309,307,49319,2,0,B|276:324|276:324|180:313,1,104.500003189087
314,57,49580,2,0,L|310:182,1,104.500003189087,0|8,0:0|0:0,0:0:0:0:
309,307,49841,1,0,0:0:0:0:
184,209,49972,6,0,B|186:171|186:171|206:142|206:142|208:94,1,104.500003189087
0,44,50232,1,8,0:0:0:0:
0,44,50493,2,0,P|31:87|98:107,1,104.500003189087
207,110,50754,1,8,0:0:0:0:
77,214,50885,1,0,0:0:0:0:
144,355,51015,6,0,B|173:370|173:370|277:359,1,104.500003189087
177,221,51276,2,0,B|148:206|148:206|44:217,1,104.500003189087,8|0,0:0|0:0,0:0:0:0:
406,286,51537,1,0,0:0:0:0:
306,123,51667,1,0,0:0:0:0:
332,359,51798,1,8,0:0:0:0:
401,175,51928,1,0,0:0:0:0:
177,221,52059,5,0,0:0:0:0:
291,243,52189,1,0,0:0:0:0:
401,175,52319,2,0,B|418:146|416:123|416:123|396:105|391:76|391:76|407:50|409:27,1,156.750004783631,8|0,0:0|0:0,0:0:0:0:
491,72,52580,1,0,0:0:0:0:
486,227,52711,1,0,0:0:0:0:
308,24,52841,2,0,B|219:14|246:83|157:67,1,156.750004783631,8|0,0:0|0:0,0:0:0:0:
67,25,53102,6,0,P|56:78|84:134,1,104.500003189087
146,257,53363,2,0,B|148:227|148:227|141:203|141:203|154:183|154:183|156:157,1,104.500003189087,8|0,0:0|0:0,0:0:0:0:
33,307,53624,1,0,0:0:0:0:
227,350,53754,1,0,0:0:0:0:
49,222,53885,2,0,B|27:197|27:197|34:337,1,142.500005435944,8|0,0:0|0:0,0:0:0:0:
289,242,54145,5,0,0:0:0:0:
215,146,54276,1,0,0:0:0:0:
227,350,54406,2,0,B|269:373|269:373|384:357,1,156.750004783631,8|0,0:0|0:0,0:0:0:0:
481,331,54667,2,0,P|469:263|490:219,1,104.500003189087
376,357,54928,1,8,0:0:0:0:
481,231,55059,1,0,0:0:0:0:
288,242,55189,6,0,L|298:118,1,104.500003189087
489,94,55450,2,0,P|452:130|402:143,1,104.500003189087,8|0,0:0|0:0,0:0:0:0:
231,27,55711,1,0,0:0:0:0:
400,44,55841,1,0,0:0:0:0:
198,115,55972,1,8,0:0:0:0:
414,44,56102,1,0,0:0:0:0:
134,37,56232,6,0,B|85:64|90:135|90:135|126:185|108:239,1,209.000006378174,4|8,0:0|0:0,0:0:0:0:
22,376,56624,2,0,B|3:346|3:346|15:250,1,104.500003189087
215,158,56885,2,0,B|234:188|234:188|222:284,1,104.500003189087,0|8,0:0|0:0,0:0:0:0:
0,158,57145,6,0,B|30:139|30:139|126:151,1,104.500003189087
225,256,57406,1,0,0:0:0:0:
98,147,57537,1,8,0:0:0:0:
223,273,57667,2,0,L|333:265,1,104.500003189087
417,140,57928,2,0,L|307:132,1,104.500003189087,0|8,0:0|0:0,0:0:0:0:
327,265,58189,1,0,0:0:0:0:
499,192,58319,6,0,B|514:154|514:154|503:73,1,104.500003189087
269,19,58580,1,8,0:0:0:0:
269,19,58841,2,0,P|248:66|204:91,1,104.500003189087
30,26,59102,1,8,0:0:0:0:
179,0,59232,1,0,0:0:0:0:
145,159,59363,6,0,P|114:117|114:66,1,104.500003189087
330,158,59624,2,0,P|361:200|361:251,1,104.500003189087,8|0,0:0|0:0,0:0:0:0:
91,378,59885,1,0,0:0:0:0:
263,232,60015,1,0,0:0:0:0:
38,249,60145,1,8,0:0:0:0:
229,367,60276,1,0,0:0:0:0:
145,159,60406,5,0,0:0:0:0:
235,348,60537,1,0,0:0:0:0:
413,195,60667,2,0,B|422:230|422:230|409:259|409:259|433:303|409:366,1,156.750004783631,8|0,0:0|0:0,0:0:0:0:
329,313,60928,1,0,0:0:0:0:
179,232,61059,1,0,0:0:0:0:
327,143,61189,2,0,L|320:10,1,104.500003189087,8|0,0:0|0:0,0:0:0:0:
178,0,61450,5,0,0:0:0:0:
64,88,61580,1,0,0:0:0:0:
319,39,61711,2,0,B|384:35|384:35|415:57|415:57|496:53,1,156.750004783631,8|0,0:0|0:0,0:0:0:0:
488,141,61972,2,0,B|472:166|472:166|466:33,1,142.500005435944
327,143,62232,1,8,0:0:0:0:
239,250,62363,1,0,0:0:0:0:
321,364,62493,6,0,B|368:361|368:361|400:343|400:343|432:358|432:358|469:356,1,156.750004783631
450,262,62754,1,8,0:0:0:0:
237,338,62885,1,0,0:0:0:0:
64,88,63145,2,0,P|90:141|84:194,2,104.500003189087,0|8|0,0:0|0:0|0:0,0:0:0:0:
9,259,63537,6,0,P|53:285|164:270,1,156.750004783631
226,207,63798,2,0,P|180:231|153:275,1,104.500003189087,8|0,0:0|0:0,0:0:0:0:
200,361,63993,1,0,0:0:0:0:
200,361,64059,1,0,0:0:0:0:
357,222,64189,1,0,0:0:0:0:
87,185,64319,1,8,0:0:0:0:
373,223,64450,1,0,0:0:0:0:
9,259,64580,6,0,L|4:141,1,95,4|0,0:0|0:0,0:0:0:0:
1,68,64841,1,0,0:0:0:0:
1,68,65102,1,0,0:0:0:0:
226,207,65493,1,0,0:0:0:0:
230,112,65624,6,0,L|225:230,1,95
222,303,65885,1,0,0:0:0:0:
222,303,66146,1,0,0:0:0:0:
488,247,66537,1,0,0:0:0:0:
471,338,66667,6,0,B|492:359|492:359|487:246,1,142.5
484,150,66928,1,0,0:0:0:0:
484,150,67189,1,0,0:0:0:0:
254,10,67580,1,0,0:0:0:0:
276,204,67711,5,0,0:0:0:0:
276,204,67972,1,0,0:0:0:0:
373,35,68102,1,0,0:0:0:0:
195,115,68232,1,0,0:0:0:0:
195,115,68493,1,0,0:0:0:0:
385,154,68624,2,0,L|388:192,2,23.75
387,211,68754,6,0,P|376:257|340:293,1,95
247,307,69015,1,0,0:0:0:0:
247,307,69276,1,0,0:0:0:0:
103,99,69667,1,0,0:0:0:0:
146,179,69798,6,0,P|136:133|100:97,1,95
6,83,70059,1,0,0:0:0:0:
6,83,70320,1,0,0:0:0:0:
298,21,70711,1,0,0:0:0:0:
255,101,70842,6,0,P|265:55|301:19,1,95
395,5,71103,1,0,0:0:0:0:
395,5,71364,1,0,0:0:0:0:
205,347,71754,1,0,0:0:0:0:
18,301,71885,5,0,0:0:0:0:
18,301,72145,1,0,0:0:0:0:
151,162,72276,1,0,0:0:0:0:
106,349,72406,2,0,B|116:315|116:315|111:229,1,95
52,164,72667,1,0,0:0:0:0:
238,209,72798,1,0,0:0:0:0:
363,55,72928,5,4,0:0:0:0:
406,334,73189,1,0,0:0:0:0:
363,55,73450,1,0,0:0:0:0:
52,164,73841,1,0,0:0:0:0:
74,25,73972,5,0,0:0:0:0:
31,304,74233,1,0,0:0:0:0:
74,25,74494,1,0,0:0:0:0:
339,257,74885,1,0,0:0:0:0:
200,279,75016,5,0,0:0:0:0:
200,279,75276,1,0,0:0:0:0:
339,257,75406,1,0,0:0:0:0:
478,235,75537,1,0,0:0:0:0:
478,235,75798,1,0,0:0:0:0:
339,257,75928,1,0,0:0:0:0:
250,147,76059,5,0,0:0:0:0:
250,147,76124,1,0,0:0:0:0:
250,147,76189,1,0,0:0:0:0:
389,125,76319,2,0,L|393:77,2,47.5
154,72,76580,1,0,0:0:0:0:
154,72,76645,1,0,0:0:0:0:
154,72,76710,1,0,0:0:0:0:
292,49,76841,2,0,L|297:2,2,47.5
29,10,77102,5,0,0:0:0:0:
126,257,77363,1,0,0:0:0:0:
292,49,77624,2,0,B|346:34|346:34|470:58,1,161.500003080368
449,54,78015,1,0,0:0:0:0:
352,131,78145,5,0,0:0:0:0:
255,378,78406,1,0,0:0:0:0:
89,170,78667,2,0,B|58:124|58:124|69:241,1,161.500003080368
71,331,79059,1,0,0:0:0:0:
71,331,79189,1,0,0:0:0:0:
