osu file format v14

[General]
AudioFilename: audio.mp3
AudioLeadIn: 0
PreviewTime: 63389
Countdown: 0
SampleSet: Soft
StackLeniency: 0.7
Mode: 0
LetterboxInBreaks: 0
WidescreenStoryboard: 1

[Editor]
DistanceSpacing: 0.4
BeatDivisor: 4
GridSize: 16
TimelineZoom: 1

[Metadata]
Title:The story so far (TV Size)
TitleUnicode:The story so far (TV Size)
Artist:Akita Chisato
ArtistUnicode:秋田知里
Creator:KennethBBG
Version:iRedi's Hard
Source:The Legend of Heroes 閃の軌跡 Northern War
Tags:Aurorance iredi aundy Falcom anime 英雄伝説 anime opening op j-pop jpop pop j-rock jrock rock japanese female vocal vocalist Eiyuu Densetsu: Sen no Kiseki Trails of Cold Steel
BeatmapID:3985411
BeatmapSetID:1929468

[Difficulty]
HPDrainRate:5
CircleSize:3.5
OverallDifficulty:6
ApproachRate:7.5
SliderMultiplier:1.4
SliderTickRate:1

[Events]
//Background and Video events
0,0,"BackG.jpg",0,0
Video,-140,"video (2).mp4"
//Break Periods
//Storyboard Layer 0 (Background)
//Storyboard Layer 1 (Fail)
//Storyboard Layer 2 (Pass)
//Storyboard Layer 3 (Foreground)
//Storyboard Layer 4 (Overlay)
//Storyboard Sound Samples

[TimingPoints]
1161,342.857142857143,4,2,1,22,1,0
1161,-166.666666666667,4,2,1,22,0,0
5789,-166.666666666667,4,2,1,40,0,0
6303,-166.666666666667,4,2,1,45,0,0
6646,-90.9090909090909,4,2,1,70,0,0
17618,-142.857142857143,4,2,1,60,0,0
17961,-142.857142857143,4,2,1,30,0,0
20018,-142.857142857143,4,2,1,60,0,0
20703,-142.857142857143,4,2,1,30,0,0
22761,-142.857142857143,4,2,1,60,0,0
23446,-142.857142857143,4,2,1,30,0,0
23961,-142.857142857143,4,2,1,40,0,0
24646,-142.857142857143,4,2,1,30,0,0
25503,-142.857142857143,4,2,1,60,0,0
26189,-142.857142857143,4,2,1,30,0,0
27218,-142.857142857143,4,2,1,50,0,0
28075,-142.857142857143,4,2,1,55,0,0
28589,-125,4,2,1,55,0,0
39561,-117.647058823529,4,2,1,50,0,0
47789,-117.647058823529,4,2,1,55,0,0
50532,-105.263157894737,4,2,1,50,0,0
53275,-105.263157894737,4,2,1,55,0,0
56018,-105.263157894737,4,2,1,60,0,0
58761,-105.263157894737,4,2,1,65,0,0
59789,-105.263157894737,4,2,1,70,0,0
60303,-105.263157894737,4,2,1,65,0,0
61503,-105.263157894737,4,2,1,80,0,0
62018,-200,4,2,1,50,0,0
63389,-125,4,2,1,40,0,0
64075,-90.9090909090909,4,2,1,80,0,1
69732,-90.9090909090909,4,2,1,75,0,1
69989,-90.9090909090909,4,2,1,5,0,1
70075,-90.9090909090909,4,2,1,75,0,1
71360,-90.9090909090909,4,2,1,5,0,1
71446,-90.9090909090909,4,2,1,75,0,1
75046,-90.9090909090909,4,2,1,80,0,1
80703,-90.9090909090909,4,2,1,75,0,1
80960,-90.9090909090909,4,2,1,5,0,1
81046,-90.9090909090909,4,2,1,75,0,1
82332,-90.9090909090909,4,2,1,5,0,1
82417,-90.9090909090909,4,2,1,75,0,1
86189,-90.9090909090909,4,2,1,70,0,1
88160,-90.9090909090909,4,2,1,5,0,1
88246,-90.9090909090909,4,2,1,70,0,1
88932,-90.9090909090909,4,2,1,75,0,1
89275,-83.3333333333333,4,2,1,5,0,0

[Colours]
Combo1 : 230,226,81
Combo2 : 60,119,67
Combo3 : 63,47,204
Combo4 : 228,105,228

[HitObjects]
0,41,1161,6,0,P|53:-4|118:5,2,125.999996154785,2|2|2,0:2|0:2|0:2,0:0:0:0:
142,72,2532,2,0,P|120:136|109:193,1,125.999996154785,2|2,0:2|0:2,0:0:0:0:
341,23,3903,6,0,L|407:5,2,41.9999987182618,2|2|2,0:2|0:2|0:2,0:0:0:0:
260,0,4418,2,0,P|234:31|230:84,1,83.9999974365235,2|2,0:2|0:2,0:0:0:0:
309,102,4932,1,2,0:2:0:0:
309,102,5103,2,0,P|330:166|341:223,1,125.999996154785,2|0,0:2|0:0,0:0:0:0:
411,274,5789,5,2,0:2:0:0:
512,127,6132,2,0,L|493:194,2,41.9999987182618,2|2|2,0:2|0:2|0:2,0:0:0:0:
473,47,6646,6,0,P|415:62|349:3,1,154.000004699707,6|10,3:2|0:2,0:0:0:0:
259,19,7161,1,0,0:0:0:0:
259,19,7332,2,0,P|222:6|184:0,1,77.0000023498536,0|0,3:2|3:2,0:0:0:0:
213,92,7675,1,10,0:2:0:0:
140,148,7846,6,0,P|88:71|29:74,1,154.000004699707,2|0,3:2|3:2,0:0:0:0:
0,156,8361,2,0,P|22:228|39:304,1,154.000004699707,8|0,0:2|3:2,0:0:0:0:
0,384,8875,1,2,3:2:0:0:
92,384,9046,1,10,0:2:0:0:
92,384,9218,1,2,0:2:0:0:
165,323,9389,6,0,P|216:246|277:245,1,154.000004699707,6|10,3:2|0:2,0:0:0:0:
282,344,9903,1,0,0:0:0:0:
282,344,10075,2,0,P|309:371|367:384,1,77.0000023498536,0|0,3:2|3:2,0:0:0:0:
360,287,10418,1,10,0:2:0:0:
445,342,10589,6,0,P|461:265|484:193,1,154.000004699707,2|0,3:2|3:2,0:0:0:0:
456,96,11103,2,0,P|389:124|383:198,1,154.000004699707,8|0,0:2|3:2,0:0:0:0:
360,287,11618,1,2,3:2:0:0:
270,243,11789,1,10,0:2:0:0:
270,243,11961,1,2,0:2:0:0:
194,305,12132,6,0,P|156:308|122:289,1,77.0000023498536,6|0,3:2|3:2,0:0:0:0:
35,255,12475,2,0,P|51:220|83:201,1,77.0000023498536,10|0,0:2|0:0,0:0:0:0:
156,142,12818,2,0,P|177:173|178:211,1,77.0000023498536,2|0,3:2|3:2,0:0:0:0:
270,243,13161,1,10,0:2:0:0:
284,338,13332,6,0,P|351:354|414:279,1,154.000004699707,2|0,3:2|3:2,0:0:0:0:
360,217,13846,2,0,P|373:183|379:142,1,77.0000023498536,8|0,0:2|0:0,0:0:0:0:
477,136,14189,2,0,P|463:102|457:61,1,77.0000023498536,2|0,3:2|3:2,0:0:0:0:
363,49,14532,1,8,0:2:0:0:
504,231,14875,6,0,P|473:260|434:265,1,77.0000023498536,6|0,3:2|3:2,0:0:0:0:
383,339,15218,2,0,P|342:326|318:295,1,77.0000023498536,10|0,0:2|0:0,0:0:0:0:
228,288,15561,2,0,P|218:246|233:210,1,77.0000023498536,2|0,3:2|3:2,0:0:0:0:
323,205,15903,1,10,0:2:0:0:
270,122,16075,6,0,P|191:108|121:82,1,154.000004699707,2|0,3:2|3:2,0:0:0:0:
72,0,16589,2,0,P|38:27|25:59,1,77.0000023498536,8|0,0:2|1:2,0:0:0:0:
34,112,16846,1,0,1:2:0:0:
34,112,16932,1,2,1:2:0:0:
102,177,17103,1,8,0:2:0:0:
102,177,17275,2,0,L|89:223,3,38.5000011749268,8|8|8|8,0:2|0:2|0:2|0:2,0:0:0:0:
45,239,17618,5,2,3:2:0:0:
45,239,17789,2,0,L|57:286,1,48.9999985046387,2|8,3:2|0:2,0:0:0:0:
206,384,18303,2,0,L|218:336,1,48.9999985046387,2|2,0:2|0:2,0:0:0:0:
156,281,18646,1,10,0:2:0:0:
156,281,18818,2,0,P|190:255|250:258,1,97.9999970092774,2|2,0:2|0:2,0:0:0:0:
366,374,19503,2,0,P|414:375|453:348,1,97.9999970092774,2|0,3:2|3:2,0:0:0:0:
501,279,20018,2,0,L|434:261,1,48.9999985046387,2|0,3:2|0:0,0:0:0:0:
369,285,20361,5,2,3:2:0:0:
369,285,20532,2,0,L|355:233,1,48.9999985046387,0|8,3:2|0:2,0:0:0:0:
416,177,20875,2,0,P|426:122|441:82,1,97.9999970092774,2|0,0:2|0:0,0:0:0:0:
356,59,21389,2,0,P|345:113|330:153,1,97.9999970092774,10|0,0:2|3:2,0:0:0:0:
217,15,22075,2,0,P|169:28|143:71,1,97.9999970092774,10|2,0:2|0:2,0:0:0:0:
0,133,22761,2,0,L|17:199,1,48.9999985046387,2|0,3:2|0:0,0:0:0:0:
88,228,23103,5,2,3:2:0:0:
88,228,23275,2,0,L|139:214,1,48.9999985046387,2|8,3:2|0:2,0:0:0:0:
321,85,23961,2,0,L|269:71,2,48.9999985046387,2|10|2,0:2|0:2|0:2,0:0:0:0:
364,158,24475,2,0,L|415:144,1,48.9999985046387,2|2,3:2|0:2,0:0:0:0:
352,8,24989,1,0,3:2:0:0:
352,8,25161,1,2,0:2:0:0:
512,95,25503,2,0,L|498:146,1,48.9999985046387,2|2,3:2|0:2,0:0:0:0:
462,220,25846,5,2,3:2:0:0:
462,220,26018,2,0,L|475:271,1,48.9999985046387,2|8,3:2|0:2,0:0:0:0:
512,345,26361,2,0,P|484:370|421:375,1,97.9999970092774,2|2,0:2|0:2,0:0:0:0:
331,239,27046,1,2,0:2:0:0:
331,239,27218,6,0,L|382:252,2,48.9999985046387,2|0|8,3:2|0:0|0:2,0:0:0:0:
281,169,27732,2,0,L|233:181,1,48.9999985046387,0|2,3:2|0:2,0:0:0:0:
160,227,28075,2,0,L|147:179,1,48.9999985046387,2|2,3:2|3:2,0:0:0:0:
195,108,28418,1,2,3:2:0:0:
143,41,28589,5,6,3:2:0:0:
143,41,28761,2,0,L|77:58,1,56,2|8,0:2|0:2,0:0:0:0:
18,7,29103,1,0,0:0:0:0:
18,7,29189,1,0,0:0:0:0:
18,7,29275,2,0,P|2:38|0:72,1,56,2|0,3:2|3:2,0:0:0:0:
46,132,29618,1,10,0:2:0:0:
46,132,29789,6,0,P|59:162|63:197,1,56,2|0,0:2|3:2,0:0:0:0:
124,251,30132,2,0,P|144:223|172:202,1,56,2|8,0:2|0:2,0:0:0:0:
188,123,30475,2,0,P|154:119|122:105,1,56,2|0,0:2|3:2,0:0:0:0:
119,27,30818,1,0,3:2:0:0:
119,27,30989,2,0,L|184:9,1,56,10|0,0:2|0:0,0:0:0:0:
248,57,31332,6,0,P|302:67|355:85,1,112,2|8,3:2|0:2,0:0:0:0:
423,32,31846,1,2,0:2:0:0:
423,32,31932,1,0,0:0:0:0:
423,32,32018,2,0,P|438:61|440:97,1,56,0|0,3:2|3:2,0:0:0:0:
512,130,32361,6,0,P|491:186|481:237,1,112,10|0,0:2|3:2,0:0:0:0:
504,324,32875,1,0,0:0:0:0:
504,324,33046,2,0,P|479:336|451:337,1,56,10|0,0:2|0:0,0:0:0:0:
381,384,33389,2,0,P|357:368|343:345,1,56,2|0,3:2|3:2,0:0:0:0:
267,307,33732,2,0,P|268:279|281:254,1,56,10|0,0:2|0:0,0:0:0:0:
369,261,34075,6,0,P|403:226|398:165,1,112,6|8,3:2|0:2,0:0:0:0:
337,108,34589,2,0,L|315:26,2,56,2|0|0,0:2|3:2|3:2,0:0:0:0:
278,170,35103,2,0,P|224:149|169:141,1,112,10|0,0:2|3:2,0:0:0:0:
94,102,35618,1,0,0:0:0:0:
94,102,35789,1,8,0:2:0:0:
138,264,36132,6,0,L|83:249,1,56,2|0,3:2|3:2,0:0:0:0:
14,201,36475,2,0,L|0:255,1,56,10|0,0:2|0:0,0:0:0:0:
48,328,36818,1,2,3:2:0:0:
48,328,36989,2,0,L|102:342,1,56,2|8,0:2|0:2,0:0:0:0:
177,384,37332,2,0,L|231:369,1,56,2|0,0:2|3:2,0:0:0:0:
272,294,37675,2,0,L|257:239,1,56,2|8,3:2|0:2,0:0:0:0:
185,191,38018,1,2,0:2:0:0:
265,151,38189,6,0,L|319:165,2,56,2|0|8,3:2|3:2|0:2,0:0:0:0:
224,75,38703,1,2,0:2:0:0:
224,75,38875,2,0,L|177:87,3,28,10|8|0|0,0:2|0:2|1:2|1:2,0:0:0:0:
149,57,39218,1,0,1:2:0:0:
149,57,39389,1,0,3:2:0:0:
79,0,39561,6,0,P|63:26|58:55,1,59.5000011348725,6|0,3:2|1:2,0:0:0:0:
1,123,39903,1,10,0:2:0:0:
86,138,40075,2,0,P|101:164|106:193,1,59.5000011348725,2|0,0:2|3:2,0:0:0:0:
164,261,40418,1,2,1:2:0:0:
164,261,40589,1,10,0:2:0:0:
248,263,40761,6,0,P|227:317|162:345,1,119.000002269745,2|0,3:2|3:2,0:0:0:0:
98,384,41275,2,0,L|40:368,1,59.5000011348725,10|0,0:2|0:0,0:0:0:0:
0,293,41618,2,0,L|15:235,1,59.5000011348725,8|0,0:2|3:2,0:0:0:0:
97,205,41961,1,2,0:2:0:0:
97,205,42132,1,8,0:2:0:0:
50,128,42303,6,0,P|21:116|-1:98,2,59.5000011348725,6|0|8,3:2|1:2|0:2,0:0:0:0:
97,205,42818,1,2,0:2:0:0:
138,126,42989,2,0,L|215:105,1,59.5000011348725,0|0,3:2|1:2,0:0:0:0:
217,29,43332,5,10,0:2:0:0:
217,29,43503,2,0,P|268:49|331:59,1,119.000002269745,0|2,3:2|3:2,0:0:0:0:
404,9,44018,2,0,P|406:42|419:66,1,59.5000011348725,10|2,0:2|0:2,0:0:0:0:
497,23,44361,1,8,0:2:0:0:
497,23,44446,1,8,0:2:0:0:
497,23,44532,1,0,3:2:0:0:
498,108,44703,2,0,L|477:185,1,59.5000011348725,2|8,0:0|0:2,0:0:0:0:
403,212,45046,6,0,P|436:237|446:265,1,59.5000011348725,6|0,3:2|1:2,0:0:0:0:
511,314,45389,1,10,0:2:0:0:
428,340,45561,2,0,P|389:356|360:350,1,59.5000011348725,2|0,0:2|3:2,0:0:0:0:
290,384,45903,1,2,1:2:0:0:
290,384,46075,1,10,0:2:0:0:
239,307,46246,6,0,P|181:329|124:337,1,119.000002269745,0|0,3:2|3:2,0:0:0:0:
55,384,46761,2,0,L|38:322,1,59.5000011348725,10|0,0:2|0:0,0:0:0:0:
0,252,47103,2,0,L|16:190,1,59.5000011348725,10|0,0:2|3:2,0:0:0:0:
97,159,47446,1,2,0:2:0:0:
97,159,47618,1,8,0:2:0:0:
87,68,47789,6,0,L|148:84,1,59.5000011348725,6|0,3:2|1:2,0:0:0:0:
205,24,48132,1,8,0:2:0:0:
321,151,48475,2,0,L|259:167,1,59.5000011348725,2|0,3:2|1:2,0:0:0:0:
227,245,48818,1,8,0:2:0:0:
227,245,48989,1,2,3:2:0:0:
140,238,49161,6,0,P|142:269|155:295,1,59.5000011348725,6|0,0:2|3:2,0:0:0:0:
108,366,49503,2,0,P|135:379|165:381,1,59.5000011348725,8|2,0:2|0:2,0:0:0:0:
236,335,49846,1,8,0:2:0:0:
236,335,49932,1,8,0:2:0:0:
236,335,50018,1,8,0:2:0:0:
304,382,50189,2,0,L|334:373,3,29.7500005674362,8|8|8|8,0:2|0:2|0:2|0:2,0:0:0:0:
367,333,50532,6,0,L|342:240,1,66.4999982242585,6|0,3:2|0:0,0:0:0:0:
261,250,50875,1,10,0:2:0:0:
261,250,51046,2,0,P|284:199|305:186,1,66.4999982242585,2|0,0:2|3:2,0:0:0:0:
380,185,51389,1,2,3:2:0:0:
443,257,51561,1,10,0:2:0:0:
443,257,51732,1,2,0:2:0:0:
504,192,51903,6,0,L|479:99,1,66.4999982242585,2|0,3:2|3:2,0:0:0:0:
476,44,52246,1,10,0:2:0:0:
476,44,52418,2,0,P|425:67|412:88,1,66.4999982242585,2|0,0:2|3:2,0:0:0:0:
340,108,52761,1,2,3:2:0:0:
295,38,52932,1,10,0:2:0:0:
295,38,53103,1,10,0:2:0:0:
250,110,53275,6,0,P|203:113|146:41,1,132.999996448517,6|8,3:2|0:2,0:0:0:0:
84,0,53789,1,2,0:2:0:0:
84,0,53961,2,0,L|19:17,1,66.4999982242585,0|0,3:2|3:2,0:0:0:0:
0,100,54303,1,10,0:2:0:0:
81,129,54475,6,0,P|54:193|46:257,1,132.999996448517,4|0,3:2|3:2,0:0:0:0:
6,333,54989,2,0,P|39:358|75:362,1,66.4999982242585,8|0,0:2|3:2,0:0:0:0:
122,299,55332,2,0,L|186:281,1,66.4999982242585,2|8,0:2|0:2,0:0:0:0:
216,237,55589,1,8,0:2:0:0:
216,237,55675,2,0,L|280:254,1,66.4999982242585,10|8,0:2|0:2,0:0:0:0:
256,342,56018,5,14,0:2:0:0:
340,364,56189,2,0,L|360:286,1,66.4999982242585,0|0,3:2|3:2,0:0:0:0:
362,217,56532,5,14,0:2:0:0:
445,194,56703,2,0,L|424:116,1,66.4999982242585,0|0,3:2|3:2,0:0:0:0:
497,68,57046,6,0,P|473:20|394:0,1,132.999996448517,14|0,0:2|0:0,0:0:0:0:
358,75,57561,1,0,3:2:0:0:
358,75,57732,2,0,L|293:57,1,66.4999982242585,8|0,0:2|3:2,0:0:0:0:
225,10,58075,1,8,0:2:0:0:
225,10,58161,1,8,0:2:0:0:
225,10,58246,1,0,3:2:0:0:
162,64,58418,2,0,L|115:51,2,33.2499991121292,2|0|8,1:2|1:2|0:2,0:0:0:0:
196,145,58761,6,0,L|273:165,1,66.4999982242585,6|0,3:2|1:2,0:0:0:0:
286,215,59018,1,0,1:2:0:0:
286,215,59103,1,8,0:2:0:0:
236,285,59275,6,0,L|313:305,1,66.4999982242585,6|0,3:2|1:2,0:0:0:0:
326,355,59532,1,0,1:2:0:0:
326,355,59617,1,8,0:2:0:0:
409,384,59789,6,0,P|465:358|475:281,1,132.999996448517,6|0,3:2|0:0,0:0:0:0:
391,291,60303,1,10,0:2:0:0:
391,291,60389,1,10,0:2:0:0:
391,291,60475,2,0,L|411:213,1,66.4999982242585,2|10,3:2|0:2,0:0:0:0:
470,169,60818,6,0,L|516:181,2,44.3333321495057,10|2|2,0:2|1:2|1:2,0:0:0:0:
398,97,61161,6,0,L|351:109,2,44.3333321495057,10|2|2,0:2|1:2|1:2,0:0:0:0:
464,15,61503,5,10,0:2:0:0:
464,15,61675,1,10,0:2:0:0:
512,365,63389,6,0,P|455:367|399:317,1,112,2|2,0:2|0:2,0:0:0:0:
481,287,63903,1,2,3:2:0:0:
512,183,64075,6,0,P|483:108|472:34,1,154.000004699707,6|0,3:2|3:2,0:0:0:0:
390,1,64589,2,0,P|348:15|324:56,1,77.0000023498536,8|0,0:2|0:0,0:0:0:0:
379,127,64932,1,2,3:2:0:0:
379,127,65103,1,2,3:2:0:0:
296,185,65275,1,10,0:2:0:0:
240,100,65446,6,0,P|208:102|167:141,1,77.0000023498536,2|0,0:2|3:2,0:0:0:0:
78,105,65789,2,0,P|64:134|77:187,1,77.0000023498536,2|8,3:2|0:2,0:0:0:0:
4,248,66132,2,0,P|22:274|75:289,1,77.0000023498536,2|0,0:2|0:0,0:0:0:0:
149,240,66475,1,2,3:2:0:0:
149,240,66646,1,10,0:2:0:0:
207,323,66818,6,0,P|282:334|354:362,1,154.000004699707,6|0,3:2|3:2,0:0:0:0:
428,301,67332,1,8,0:2:0:0:
428,301,67503,2,0,P|451:328|494:339,2,77.0000023498536,0|0|0,0:0|0:0|3:2,0:0:0:0:
370,227,68018,1,10,0:2:0:0:
439,166,68190,6,0,P|441:131|398:79,1,77.0000023498536,2|0,0:2|3:2,0:0:0:0:
394,0,68533,2,0,P|362:15|339:78,1,77.0000023498536,2|8,3:2|0:2,0:0:0:0:
272,121,68876,2,0,P|300:140|367:128,1,77.0000023498536,2|0,0:2|3:2,0:0:0:0:
421,94,69218,1,2,3:2:0:0:
421,94,69389,1,8,0:2:0:0:
512,293,69732,6,0,P|449:303|400:322,1,115.50000352478,6|0,3:2|0:0,0:0:0:0:
350,302,70075,1,10,0:2:0:0:
293,375,70246,2,0,P|251:361|230:328,1,77.0000023498536,2|0,0:2|3:2,0:0:0:0:
162,271,70589,1,0,3:2:0:0:
162,271,70761,2,0,P|125:284|87:290,1,77.0000023498536,10|2,0:2|0:0,0:0:0:0:
41,369,71103,6,0,P|-1:311|9:242,1,115.50000352478,6|0,3:2|0:0,0:0:0:0:
25,222,71446,1,10,0:2:0:0:
0,132,71618,2,0,P|36:121|60:92,1,77.0000023498536,2|0,0:2|3:2,0:0:0:0:
13,14,71961,1,0,3:2:0:0:
13,14,72132,1,8,0:2:0:0:
239,73,72475,6,0,P|233:33|219:-1,2,77.0000023498536,6|2|10,3:2|3:2|0:2,0:0:0:0:
319,119,72989,2,0,P|292:153|258:168,1,77.0000023498536,2|0,0:2|0:0,0:0:0:0:
173,141,73332,1,2,3:2:0:0:
173,141,73503,1,10,0:2:0:0:
111,211,73675,6,0,P|123:248|130:285,1,77.0000023498536,6|0,3:2|0:0,0:0:0:0:
60,351,74018,1,8,0:2:0:0:
60,351,74103,1,8,0:2:0:0:
60,351,74189,1,8,0:2:0:0:
148,376,74361,1,10,0:2:0:0:
220,314,74532,2,0,L|266:326,3,38.5000011749268,8|8|10|8,0:2|0:0|0:2|0:2,0:0:0:0:
287,372,74875,1,8,0:2:0:0:
358,298,75046,6,0,P|342:243|411:176,1,154.000004699707,6|0,3:2|3:2,0:0:0:0:
483,232,75561,2,0,P|518:207|524:165,1,77.0000023498536,8|0,0:2|0:0,0:0:0:0:
462,103,75903,1,2,3:2:0:0:
462,103,76074,1,2,3:2:0:0:
483,10,76246,1,10,0:2:0:0:
388,0,76418,6,0,P|369:26|316:41,1,77.0000023498536,2|0,0:2|3:2,0:0:0:0:
302,138,76761,2,0,P|270:135|229:96,1,77.0000023498536,2|8,3:2|0:2,0:0:0:0:
141,131,77104,2,0,P|127:101|140:48,1,77.0000023498536,2|0,3:2|0:0,0:0:0:0:
52,3,77446,1,2,3:2:0:0:
52,3,77617,1,10,0:2:0:0:
0,88,77789,6,0,P|25:156|39:236,1,154.000004699707,6|0,3:2|3:2,0:0:0:0:
134,221,78303,1,10,0:2:0:0:
134,221,78475,2,0,P|167:203|205:206,2,77.0000023498536,2|0|0,3:2|0:0|3:2,0:0:0:0:
102,309,78989,1,10,0:2:0:0:
166,376,79161,6,0,P|200:378|252:335,1,77.0000023498536,2|0,0:2|3:2,0:0:0:0:
331,330,79504,2,0,P|315:298|252:275,1,77.0000023498536,2|8,3:2|0:2,0:0:0:0:
211,208,79847,2,0,P|191:236|203:303,1,77.0000023498536,2|0,0:2|3:2,0:0:0:0:
237,358,80189,1,2,3:2:0:0:
237,358,80360,1,8,0:2:0:0:
471,255,80703,6,0,P|414:258|370:223,1,115.50000352478,6|0,3:2|0:0,0:0:0:0:
318,205,81046,1,10,0:2:0:0:
254,132,81217,2,0,P|290:125|328:112,1,77.0000023498536,2|0,0:2|3:2,0:0:0:0:
414,143,81560,1,0,3:2:0:0:
488,98,81732,2,0,P|478:48|448:20,1,77.0000023498536,10|0,0:2|0:0,0:0:0:0:
367,35,82075,6,0,P|313:13|255:5,1,115.50000352478,6|0,3:2|0:0,0:0:0:0:
220,48,82417,1,8,0:2:0:0:
134,6,82589,2,0,L|105:114,1,77.0000023498536,2|0,0:2|3:2,0:0:0:0:
25,110,82932,1,0,3:2:0:0:
25,110,83103,1,8,0:2:0:0:
215,236,83446,6,0,P|250:221|289:216,2,77.0000023498536,6|2|10,3:2|3:2|0:2,0:0:0:0:
195,329,83961,2,0,P|151:304|131:275,1,77.0000023498536,2|0,0:2|3:2,0:0:0:0:
135,188,84303,1,2,3:2:0:0:
135,188,84474,1,10,0:2:0:0:
115,92,84646,6,0,P|152:105|189:111,1,77.0000023498536,6|0,3:2|0:0,0:0:0:0:
264,55,84989,1,0,1:2:0:0:
264,55,85074,1,0,1:2:0:0:
264,55,85160,1,8,0:2:0:0:
308,133,85332,2,0,P|335:99|388:92,1,77.0000023498536,2|0,3:2|0:0,0:0:0:0:
406,7,85675,1,10,0:2:0:0:
406,7,85761,1,8,0:2:0:0:
406,7,85846,2,0,L|467:23,3,38.5000011749268,10|8|10|8,0:2|0:2|0:2|0:2,0:0:0:0:
497,0,86189,6,0,P|473:72|457:148,1,154.000004699707,6|10,3:2|0:2,0:0:0:0:
512,237,86703,1,0,0:0:0:0:
512,237,86875,2,0,P|489:281|453:294,1,77.0000023498536,0|2,3:2|3:2,0:0:0:0:
397,366,87218,1,10,0:2:0:0:
361,272,87389,6,0,P|294:339|209:323,1,154.000004699707,2|0,3:2|3:2,0:0:0:0:
150,384,87903,2,0,P|138:327|120:272,1,115.50000352478,8|0,0:2|0:0,0:0:0:0:
71,242,88246,2,0,L|83:195,3,38.5000011749268,8|8|10|8,0:2|0:2|0:2|0:2,0:0:0:0:
127,169,88589,2,0,L|114:122,3,38.5000011749268,10|8|10|8,3:2|0:2|0:2|0:2,0:0:0:0:
81,93,88932,5,10,1:2:0:0:
81,93,89103,2,0,B|85:54|85:54|56:88,1,77.0000023498536,10|0,1:2|0:0,0:0:0:0:
