osu file format v14

[General]
AudioFilename: audio.mp3
AudioLeadIn: 0
PreviewTime: 63389
Countdown: 0
SampleSet: Soft
StackLeniency: 0.4
Mode: 0
LetterboxInBreaks: 0
WidescreenStoryboard: 1

[Editor]
DistanceSpacing: 1.1
BeatDivisor: 4
GridSize: 32
TimelineZoom: 1.3

[Metadata]
Title:The story so far (TV Size)
TitleUnicode:The story so far (TV Size)
Artist:Akita Chisato
ArtistUnicode:秋田知里
Creator:KennethBBG
Version:aundy's Insane
Source:The Legend of Heroes 閃の軌跡 Northern War
Tags:Aurorance iredi aundy Falcom anime 英雄伝説 anime opening op j-pop jpop pop j-rock jrock rock japanese female vocal vocalist Eiyuu Densetsu: Sen no Kiseki Trails of Cold Steel
BeatmapID:3992575
BeatmapSetID:1929468

[Difficulty]
HPDrainRate:5.5
CircleSize:3.8
OverallDifficulty:7.5
ApproachRate:9
SliderMultiplier:1.8
SliderTickRate:1

[Events]
//Background and Video events
0,0,"BackG.jpg",0,0
Video,-140,"video (2).mp4"
//Break Periods
2,62018,63389
//Storyboard Layer 0 (Background)
//Storyboard Layer 1 (Fail)
//Storyboard Layer 2 (Pass)
//Storyboard Layer 3 (Foreground)
//Storyboard Layer 4 (Overlay)
//Storyboard Sound Samples

[TimingPoints]
1161,342.857142857143,4,2,1,22,1,0
1161,-166.666666666667,4,2,1,22,0,0
5789,-166.666666666667,4,2,1,40,0,0
6303,-166.666666666667,4,2,1,45,0,0
6646,-100,4,2,1,70,0,0
12389,-100,4,2,1,5,0,0
12475,-100,4,2,1,70,0,0
15132,-100,4,2,1,5,0,0
15218,-100,4,2,1,70,0,0
17618,-125,4,2,1,60,0,0
17961,-125,4,2,1,30,0,0
20018,-125,4,2,1,60,0,0
20703,-125,4,2,1,30,0,0
22761,-125,4,2,1,60,0,0
23446,-125,4,2,1,30,0,0
23961,-125,4,2,1,40,0,0
24646,-125,4,2,1,30,0,0
25503,-125,4,2,1,60,0,0
26189,-125,4,2,1,30,0,0
27218,-125,4,2,1,50,0,0
28075,-125,4,2,1,55,0,0
28589,-111.111111111111,4,2,1,55,0,0
39561,-111.111111111111,4,2,1,50,0,0
47789,-111.111111111111,4,2,1,55,0,0
50532,-111.111111111111,4,2,1,50,0,0
53275,-111.111111111111,4,2,1,55,0,0
56018,-111.111111111111,4,2,1,60,0,0
58761,-111.111111111111,4,2,1,65,0,0
59789,-111.111111111111,4,2,1,70,0,0
60303,-111.111111111111,4,2,1,65,0,0
61503,-111.111111111111,4,2,1,80,0,0
62018,-111.111111111111,4,2,1,50,0,0
63389,-111.111111111111,4,2,1,40,0,0
64075,-90.9090909090909,4,2,1,80,0,1
69732,-90.9090909090909,4,2,1,75,0,1
75046,-90.9090909090909,4,2,1,80,0,1
80703,-90.9090909090909,4,2,1,75,0,1
86189,-90.9090909090909,4,2,1,70,0,1
89275,-90.9090909090909,4,2,1,75,0,0

[Colours]
Combo1 : 230,226,81
Combo2 : 60,119,67
Combo3 : 63,47,204
Combo4 : 228,105,228

[HitObjects]
281,253,1161,6,0,B|374:231|339:301|437:278,2,161.999995056153,2|2|2,0:2|0:2|0:2,0:0:0:0:
172,355,2532,2,0,P|163:306|140:182,1,161.999995056153,2|2,0:2|0:2,0:0:0:0:
131,114,3903,5,2,0:2:0:0:
131,114,4075,2,0,P|164:112|189:127,1,53.9999983520508,2|2,0:2|0:2,0:0:0:0:
240,188,4418,2,0,P|296:193|334:154,1,107.999996704102,2|2,0:2|0:2,0:0:0:0:
359,84,4932,1,2,0:2:0:0:
359,84,5103,1,2,0:2:0:0:
359,84,6646,6,0,B|315:46|261:64|261:64|244:103|201:106,1,180,6|10,3:2|0:2,0:0:0:0:
73,250,7161,1,0,0:0:0:0:
29,142,7332,2,0,P|72:151|116:162,1,90,0|0,3:2|3:2,0:0:0:0:
228,321,7675,1,10,0:2:0:0:
320,280,7846,6,0,P|262:226|164:242,1,180,2|0,3:2|3:2,0:0:0:0:
47,355,8361,2,0,P|90:344|134:334,1,90,8|0,0:2|0:0,0:0:0:0:
311,183,8703,1,0,3:2:0:0:
311,183,8875,1,2,3:2:0:0:
191,148,9046,2,0,P|201:191|211:235,1,90,10|2,0:2|0:2,0:0:0:0:
315,372,9389,6,0,B|375:357|375:357|426:371|426:371|490:355,1,180,6|10,3:2|0:2,0:0:0:0:
353,201,9903,1,0,0:0:0:0:
457,179,10075,2,0,P|446:222|436:266,1,90,0|0,3:2|3:2,0:0:0:0:
308,72,10418,1,10,0:2:0:0:
247,151,10589,6,0,P|332:166|398:109,1,180,2|0,3:2|3:2,0:0:0:0:
491,13,11103,2,0,P|500:56|512:100,1,90,8|0,0:2|0:0,0:0:0:0:
435,266,11446,1,0,3:2:0:0:
435,266,11618,1,2,3:2:0:0:
369,157,11789,2,0,P|412:168|456:178,1,90,10|2,0:2|0:2,0:0:0:0:
324,339,12132,6,0,P|280:302|204:311,1,135,6|0,3:2|0:0,0:0:0:0:
182,335,12475,2,0,P|172:291|160:247,1,90,10|0,0:2|0:0,0:0:0:0:
180,94,12818,1,2,3:2:0:0:
180,94,12989,1,0,3:2:0:0:
13,142,13161,1,10,0:2:0:0:
105,28,13332,6,0,B|89:92|89:92|103:143|103:143|88:203,1,180,2|0,3:2|3:2,0:0:0:0:
0,326,13846,2,0,P|43:314|87:304,1,90,8|0,0:2|0:0,0:0:0:0:
229,175,14189,1,2,3:2:0:0:
229,175,14361,1,0,3:2:0:0:
66,115,14532,2,0,P|78:158|88:202,1,90,8|0,0:2|0:0,0:0:0:0:
206,368,14875,6,0,P|250:331|326:340,1,135,6|0,3:2|0:0,0:0:0:0:
355,359,15218,2,0,P|365:318|377:271,1,90,10|0,0:2|0:0,0:0:0:0:
424,116,15561,1,2,3:2:0:0:
424,116,15732,1,0,3:2:0:0:
512,249,15903,1,10,0:2:0:0:
483,32,16075,6,0,P|392:18|329:80,1,180,2|0,3:2|3:2,0:0:0:0:
245,236,16589,2,0,P|288:224|332:214,1,90,8|0,0:2|1:2,0:0:0:0:
365,208,16846,1,0,1:2:0:0:
365,208,16932,1,2,1:2:0:0:
206,102,17103,1,8,0:2:0:0:
340,29,17275,1,8,0:2:0:0:
340,29,17361,1,8,0:2:0:0:
340,29,17446,2,0,L|330:77,1,45,8|8,0:2|0:2,0:0:0:0:
245,236,17618,5,2,3:2:0:0:
245,236,17789,2,0,P|190:223|164:217,1,72,2|8,3:2|0:2,0:0:0:0:
81,125,18303,2,0,P|89:89|97:54,2,72,2|2|10,0:2|0:2|0:2,0:0:0:0:
3,186,18818,6,0,P|19:257|37:326,1,144,2|2,0:2|0:2,0:0:0:0:
176,299,19503,2,0,P|245:315|315:333,1,144,2|0,3:2|3:2,0:0:0:0:
391,375,20018,2,0,P|399:339|407:304,1,72,2|0,3:2|0:0,0:0:0:0:
422,148,20361,5,2,3:2:0:0:
422,148,20532,2,0,P|386:156|351:164,1,72,0|8,3:2|0:2,0:0:0:0:
293,243,20875,2,0,P|260:202|281:111,1,144,2|0,0:2|0:0,0:0:0:0:
355,71,21389,2,0,P|346:35|339:0,1,72,10|0,0:2|0:0,0:0:0:0:
339,0,21732,1,0,3:2:0:0:
179,154,22075,6,0,P|109:136|39:119,2,144,10|2|2,0:2|0:2|3:2,0:0:0:0:
293,243,23103,1,2,3:2:0:0:
293,243,23275,2,0,P|285:279|277:314,2,72,2|8|0,3:2|0:2|0:0,0:0:0:0:
179,154,23961,6,0,P|170:118|163:83,2,72,2|10|2,0:2|0:2|0:2,0:0:0:0:
119,225,24475,1,2,3:2:0:0:
119,225,24646,2,0,P|174:246|250:212,1,144,2|0,0:2|3:2,0:0:0:0:
323,155,25161,6,0,P|330:190|338:225,1,72,2|0,0:2|3:2,0:0:0:0:
417,178,25503,2,0,P|408:142|401:107,1,72,2|2,3:2|0:2,0:0:0:0:
507,213,25846,1,2,3:2:0:0:
507,213,26017,2,0,P|499:249|491:284,1,72,2|8,3:2|0:2,0:0:0:0:
425,355,26361,2,0,P|362:322|295:343,1,144,2|2,0:2|0:2,0:0:0:0:
295,343,26875,1,8,0:2:0:0:
256,220,27218,6,0,P|221:227|185:235,2,72,2|0|8,3:2|0:0|0:2,0:0:0:0:
176,329,27732,2,0,P|141:320|105:313,1,72,0|2,3:2|0:2,0:0:0:0:
106,314,28075,1,2,3:2:0:0:
94,228,28246,1,2,3:2:0:0:
81,142,28418,1,2,3:2:0:0:
8,74,28589,5,6,3:2:0:0:
8,74,28761,2,0,P|59:44|161:80,1,161.999995056153,2|0,0:2|0:0,0:0:0:0:
215,206,29275,2,0,P|221:170|232:121,1,80.9999975280763,2|0,3:2|3:2,0:0:0:0:
371,6,29618,1,10,0:2:0:0:
428,87,29789,6,0,P|370:102|281:41,1,161.999995056153,2|2,0:2|0:2,0:0:0:0:
172,0,30303,1,8,0:2:0:0:
172,0,30475,2,0,P|189:79|204:158,1,161.999995056153,2|0,0:2|3:2,0:0:0:0:
136,241,30989,2,0,P|175:249|215:256,1,80.9999975280763,10|0,0:2|0:0,0:0:0:0:
272,343,31332,6,0,P|330:290|409:296,1,161.999995056153,2|8,3:2|0:2,0:0:0:0:
511,226,31846,2,0,P|493:305|478:384,1,161.999995056153,2|0,0:2|3:2,0:0:0:0:
418,249,32361,2,0,P|411:209|429:173,1,80.9999975280763,10|0,0:2|0:0,0:0:0:0:
496,90,32703,5,0,3:2:0:0:
496,90,33046,2,0,P|456:82|416:74,1,80.9999975280763,10|0,0:2|0:0,0:0:0:0:
281,163,33389,2,0,P|316:180|356:173,1,80.9999975280763,2|0,3:2|3:2,0:0:0:0:
305,65,33732,2,0,P|265:57|229:75,1,80.9999975280763,10|0,0:2|0:0,0:0:0:0:
147,182,34075,6,0,P|131:102|113:23,1,161.999995056153,6|8,3:2|0:2,0:0:0:0:
31,85,34589,2,0,P|48:163|64:243,1,161.999995056153,2|0,0:2|3:2,0:0:0:0:
14,354,35103,2,0,P|54:346|94:338,1,80.9999975280763,10|0,0:2|0:0,0:0:0:0:
147,182,35446,6,0,P|225:176|283:229,1,161.999995056153,0|8,3:2|0:2,0:0:0:0:
283,229,36132,1,2,3:2:0:0:
398,337,36303,1,0,3:2:0:0:
313,384,36475,2,0,P|273:376|233:368,1,80.9999975280763,10|0,0:2|0:0,0:0:0:0:
380,238,36818,5,2,3:2:0:0:
380,238,36989,2,0,P|420:230|460:222,1,80.9999975280763,2|8,0:2|0:2,0:0:0:0:
489,131,37332,2,0,P|496:91|479:55,1,80.9999975280763,2|0,0:2|3:2,0:0:0:0:
388,37,37675,2,0,P|380:76|397:112,1,80.9999975280763,2|8,3:2|0:2,0:0:0:0:
397,112,38018,1,2,0:2:0:0:
380,238,38189,5,2,3:2:0:0:
300,278,38361,1,0,3:2:0:0:
219,243,38532,1,8,0:2:0:0:
195,157,38703,1,2,0:2:0:0:
221,71,38875,5,10,0:2:0:0:
221,71,38961,1,8,0:2:0:0:
221,71,39046,2,0,L|260:61,1,40.4999987640381,0|0,1:2|1:2,0:0:0:0:
110,17,39218,2,0,P|118:57|126:97,1,80.9999975280763,0|0,1:2|3:2,0:0:0:0:
82,290,39561,6,0,P|139:236|218:242,1,161.999995056153,6|10,3:2|0:2,0:0:0:0:
340,180,40075,2,0,P|332:220|324:260,1,80.9999975280763,2|0,0:2|3:2,0:0:0:0:
324,259,40418,1,2,1:2:0:0:
270,340,40589,1,10,0:2:0:0:
174,321,40761,1,2,3:2:0:0:
174,321,41103,5,0,3:2:0:0:
143,228,41275,2,0,P|103:236|63:244,1,80.9999975280763,10|0,0:2|0:0,0:0:0:0:
177,137,41618,2,0,P|217:145|257:153,1,80.9999975280763,8|0,0:2|3:2,0:0:0:0:
68,73,41961,2,0,P|76:113|84:153,1,80.9999975280763,2|8,0:2|0:2,0:0:0:0:
174,321,42303,6,0,P|231:267|310:273,1,161.999995056153,6|8,3:2|0:2,0:0:0:0:
392,104,42818,2,0,P|334:158|256:152,1,161.999995056153,2|0,0:2|1:2,0:0:0:0:
256,152,43332,1,10,0:2:0:0:
225,1,43503,1,0,3:2:0:0:
225,1,43846,5,2,3:2:0:0:
304,65,44018,2,0,P|344:57|384:49,1,80.9999975280763,10|2,0:2|0:2,0:0:0:0:
497,165,44361,1,8,0:2:0:0:
497,165,44446,1,8,0:2:0:0:
497,165,44532,1,0,3:2:0:0:
385,214,44703,2,0,P|393:174|401:134,1,80.9999975280763,2|8,0:0|0:2,0:0:0:0:
512,316,45046,6,0,B|452:305|452:305|408:321|408:321|354:310,1,161.999995056153,6|10,3:2|0:2,0:0:0:0:
285,220,45561,2,0,P|318:197|358:198,1,80.9999975280763,2|0,0:2|3:2,0:0:0:0:
358,198,45903,1,2,1:2:0:0:
512,90,46075,1,10,0:2:0:0:
412,48,46246,6,0,P|428:127|444:206,1,161.999995056153,0|0,3:2|3:2,0:0:0:0:
354,310,46761,2,0,P|314:301|274:294,1,80.9999975280763,10|0,0:2|0:0,0:0:0:0:
151,138,47103,2,0,P|190:129|230:122,1,80.9999975280763,10|0,0:2|3:2,0:0:0:0:
230,121,47446,1,2,0:2:0:0:
412,48,47618,1,8,0:2:0:0:
458,136,47789,6,0,P|379:141|322:87,2,161.999995056153,6|8|2,3:2|0:2|3:2,0:0:0:0:
287,195,48646,1,0,1:2:0:0:
354,310,48818,2,0,P|362:270|369:230,1,80.9999975280763,8|2,0:2|3:2,0:0:0:0:
322,87,49161,6,0,P|282:86|249:109,1,80.9999975280763,6|0,0:2|3:2,0:0:0:0:
143,282,49503,2,0,P|182:274|222:267,1,80.9999975280763,8|2,0:2|0:2,0:0:0:0:
99,194,49846,1,8,0:2:0:0:
99,194,49932,1,8,0:2:0:0:
99,194,50018,1,8,0:2:0:0:
249,108,50189,1,8,0:2:0:0:
249,108,50275,1,8,0:2:0:0:
249,108,50360,2,0,L|239:147,1,40.4999987640381,8|8,0:2|0:2,0:0:0:0:
143,282,50532,6,0,P|64:287|7:233,1,161.999995056153,6|10,3:2|0:2,0:0:0:0:
114,114,51046,2,0,P|105:153|98:193,1,80.9999975280763,2|0,0:2|3:2,0:0:0:0:
98,193,51389,1,2,3:2:0:0:
22,312,51561,2,0,P|15:272|6:232,1,80.9999975280763,10|2,0:2|0:2,0:0:0:0:
150,318,51903,6,0,B|237:298|211:363|303:341,1,161.999995056153,2|10,3:2|0:2,0:0:0:0:
352,225,52418,2,0,P|312:223|279:246,1,80.9999975280763,2|0,0:2|3:2,0:0:0:0:
279,245,52761,1,2,3:2:0:0:
452,312,52932,1,10,0:2:0:0:
452,312,53103,1,10,0:2:0:0:
384,383,53275,6,0,P|368:304|352:225,1,161.999995056153,6|8,3:2|0:2,0:0:0:0:
479,72,53789,2,0,B|419:83|419:83|383:113|383:113|329:123,1,161.999995056153,2|0,0:2|3:2,0:0:0:0:
186,67,54303,1,10,0:2:0:0:
186,67,54475,6,0,P|243:12|321:18,1,161.999995056153,4|0,3:2|3:2,0:0:0:0:
226,176,54989,2,0,P|186:167|146:160,1,80.9999975280763,8|0,0:2|3:2,0:0:0:0:
0,70,55332,1,2,0:2:0:0:
104,0,55503,1,8,0:2:0:0:
104,0,55589,1,8,0:2:0:0:
104,0,55675,2,0,P|95:40|88:80,1,80.9999975280763,10|8,0:2|0:2,0:0:0:0:
0,257,56018,5,14,0:2:0:0:
146,160,56189,1,0,3:2:0:0:
0,70,56361,1,0,3:2:0:0:
95,244,56532,5,14,0:2:0:0:
196,81,56703,1,0,3:2:0:0:
29,52,56875,1,0,3:2:0:0:
171,179,57046,6,0,B|258:159|232:224|324:202,1,161.999995056153,14|0,0:2|0:0,0:0:0:0:
324,201,57561,1,0,3:2:0:0:
512,73,57732,2,0,P|472:65|432:58,1,80.9999975280763,8|0,0:2|3:2,0:0:0:0:
310,29,58075,5,8,0:2:0:0:
310,29,58161,1,8,0:2:0:0:
310,29,58246,1,0,3:2:0:0:
437,210,58418,1,2,1:2:0:0:
437,210,58504,1,0,1:2:0:0:
437,210,58589,1,8,0:2:0:0:
213,344,58761,6,0,P|206:304|198:264,1,80.9999975280763,6|0,3:2|1:2,0:0:0:0:
198,265,59018,1,0,1:2:0:0:
198,265,59103,1,8,0:2:0:0:
338,121,59275,6,0,P|331:161|323:201,1,80.9999975280763,6|0,3:2|1:2,0:0:0:0:
323,200,59532,1,0,1:2:0:0:
323,200,59617,1,8,0:2:0:0:
67,162,59789,6,0,P|124:107|202:113,1,161.999995056153,6|0,3:2|0:0,0:0:0:0:
311,306,60303,1,10,0:2:0:0:
311,306,60389,1,10,0:2:0:0:
311,306,60475,1,2,3:2:0:0:
152,190,60646,1,10,0:2:0:0:
347,67,60818,5,10,0:2:0:0:
347,67,60932,2,0,L|337:122,1,53.9999983520508,2|2,1:2|1:2,0:0:0:0:
142,243,61161,5,10,0:2:0:0:
142,243,61275,2,0,L|152:188,1,53.9999983520508,2|2,1:2|1:2,0:0:0:0:
224,84,61503,5,10,0:2:0:0:
311,306,61675,1,10,0:2:0:0:
34,347,64075,6,0,B|78:307|137:327|137:327|154:371|206:373,1,198.000006042481,6|0,3:2|3:2,0:0:0:0:
318,256,64589,2,0,P|270:267|222:278,1,99.0000030212403,8|0,0:2|0:0,0:0:0:0:
383,353,64932,1,2,3:2:0:0:
354,158,65103,1,2,3:2:0:0:
354,158,65275,1,10,0:2:0:0:
221,278,65446,6,0,P|210:230|199:182,1,99.0000030212403,2|0,0:2|3:2,0:0:0:0:
376,61,65789,2,0,P|365:109|354:157,1,99.0000030212403,2|8,3:2|0:2,0:0:0:0:
157,37,66132,2,0,P|205:26|253:15,1,99.0000030212403,2|0,0:2|0:0,0:0:0:0:
287,233,66475,1,2,3:2:0:0:
376,61,66646,1,10,0:2:0:0:
379,271,66818,6,0,P|301:326|210:298,1,198.000006042481,6|0,3:2|3:2,0:0:0:0:
166,152,67332,2,0,B|235:166|235:166|281:140|281:140|353:156,1,198.000006042481,8|0,0:2|0:0,0:0:0:0:
512,258,67846,1,0,3:2:0:0:
512,258,68018,1,10,0:2:0:0:
446,372,68189,6,0,P|435:324|424:276,1,99.0000030212403,2|0,0:2|3:2,0:0:0:0:
414,66,68532,1,2,3:2:0:0:
287,233,68703,1,8,0:2:0:0:
450,179,68875,2,0,P|402:168|354:157,1,99.0000030212403,2|0,0:2|3:2,0:0:0:0:
225,292,69218,2,0,P|265:319|313:316,1,99.0000030212403,2|8,3:2|0:2,0:0:0:0:
282,101,69561,5,2,0:0:0:0:
282,101,69646,1,2,0:0:0:0:
282,101,69732,2,0,B|171:82|217:161|94:140,1,198.000006042481,6|10,3:2|0:2,0:0:0:0:
22,299,70246,2,0,P|11:251|0:203,1,99.0000030212403,2|0,0:2|3:2,0:0:0:0:
128,48,70589,1,0,3:2:0:0:
173,229,70761,1,10,0:2:0:0:
173,229,70932,1,2,0:0:0:0:
289,104,71103,6,0,P|222:35|127:47,1,198.000006042481,6|10,3:2|0:2,0:0:0:0:
76,251,71618,2,0,P|124:240|172:229,1,99.0000030212403,2|0,0:2|3:2,0:0:0:0:
377,216,71961,1,0,3:2:0:0:
289,104,72132,2,0,P|278:152|267:200,1,99.0000030212403,8|0,0:2|0:0,0:0:0:0:
226,364,72475,5,6,3:2:0:0:
377,216,72646,1,2,3:2:0:0:
194,134,72818,1,10,0:2:0:0:
352,307,72989,2,0,P|400:310|440:283,1,99.0000030212403,2|0,0:2|0:0,0:0:0:0:
415,71,73332,1,2,3:2:0:0:
266,200,73503,1,10,0:2:0:0:
377,216,73675,6,0,B|359:143|359:143|322:110|322:110|303:28,1,198.000006042481,6|8,3:2|0:2,0:0:0:0:
302,9,74103,1,8,0:2:0:0:
302,9,74189,1,8,0:2:0:0:
133,72,74361,1,10,0:2:0:0:
266,200,74532,1,8,0:2:0:0:
85,307,74703,1,10,0:2:0:0:
85,307,74789,1,8,0:2:0:0:
85,307,74875,1,8,0:2:0:0:
19,217,75046,6,0,P|113:205|180:274,1,198.000006042481,6|0,3:2|3:2,0:0:0:0:
308,384,75561,2,0,P|319:336|330:288,1,99.0000030212403,8|0,0:2|0:0,0:0:0:0:
281,111,75903,1,2,3:2:0:0:
180,274,76075,1,2,3:2:0:0:
374,173,76246,1,10,0:2:0:0:
170,72,76418,6,0,P|181:120|192:168,1,99.0000030212403,2|0,0:2|3:2,0:0:0:0:
204,363,76761,2,0,P|155:365|115:338,1,99.0000030212403,2|8,3:2|0:2,0:0:0:0:
0,234,77103,2,0,P|48:223|96:212,1,99.0000030212403,2|0,3:2|0:0,0:0:0:0:
281,111,77446,1,2,3:2:0:0:
103,13,77618,1,10,0:2:0:0:
315,216,77789,6,0,P|383:149|372:54,1,198.000006042481,6|0,3:2|3:2,0:0:0:0:
245,14,78303,2,0,B|317:-2|317:-2|363:24|363:24|432:9,1,198.000006042481,10|0,0:2|0:0,0:0:0:0:
512,118,78818,1,0,3:2:0:0:
396,212,78989,2,0,P|407:164|418:116,1,99.0000030212403,10|2,0:2|0:2,0:0:0:0:
512,33,79332,5,0,3:2:0:0:
322,97,79503,1,2,3:2:0:0:
322,97,79675,1,8,0:2:0:0:
490,214,79846,2,0,P|501:166|512:118,1,99.0000030212403,2|0,0:2|3:2,0:0:0:0:
410,0,80189,1,2,3:2:0:0:
302,198,80361,1,8,0:2:0:0:
195,40,80532,1,2,0:0:0:0:
200,170,80703,6,0,P|267:101|362:113,1,198.000006042481,6|10,3:2|0:2,0:0:0:0:
428,327,81218,2,0,P|380:316|332:305,1,99.0000030212403,2|0,0:2|3:2,0:0:0:0:
133,339,81561,1,0,3:2:0:0:
200,170,81732,2,0,P|211:218|222:266,1,99.0000030212403,10|0,0:2|0:0,0:0:0:0:
68,175,82075,6,0,B|85:103|85:103|128:73|128:73|145:4,1,198.000006042481,6|8,3:2|0:2,0:0:0:0:
289,144,82589,2,0,P|248:171|199:169,1,99.0000030212403,2|0,0:2|3:2,0:0:0:0:
27,26,82932,1,0,3:2:0:0:
145,3,83103,2,0,P|134:51|123:99,1,99.0000030212403,8|0,0:2|0:0,0:0:0:0:
63,310,83446,5,6,3:2:0:0:
199,169,83618,1,2,3:2:0:0:
17,114,83789,1,10,0:2:0:0:
181,290,83961,2,0,P|229:279|277:268,1,99.0000030212403,2|0,0:2|3:2,0:0:0:0:
512,99,84303,1,2,3:2:0:0:
496,197,84475,1,10,0:2:0:0:
478,294,84646,6,0,P|383:282|316:351,1,198.000006042481,6|0,3:2|1:2,0:0:0:0:
312,384,85075,1,0,1:2:0:0:
312,384,85161,2,0,P|264:373|216:362,1,99.0000030212403,8|2,0:2|3:2,0:0:0:0:
48,351,85503,1,0,0:0:0:0:
172,174,85675,1,10,0:2:0:0:
167,192,85760,1,8,0:2:0:0:
163,210,85846,1,10,0:2:0:0:
159,228,85932,1,8,0:2:0:0:
155,246,86017,1,10,0:2:0:0:
151,264,86103,1,8,0:2:0:0:
147,282,86189,6,0,P|158:330|169:378,1,99.0000030212403,6|2,3:2|3:2,0:0:0:0:
333,230,86532,2,0,P|266:161|171:173,1,198.000006042481,10|0,0:2|3:2,0:0:0:0:
48,351,87046,1,2,3:2:0:0:
236,254,87218,1,10,0:2:0:0:
1,146,87389,6,0,B|45:106|104:126|104:126|121:170|173:172,1,198.000006042481,2|0,3:2|3:2,0:0:0:0:
362,0,87903,2,0,P|351:48|340:96,1,99.0000030212403,8|0,0:2|0:0,0:0:0:0:
236,254,88246,5,8,0:2:0:0:
236,254,88332,1,8,0:2:0:0:
236,254,88418,2,0,L|299:239,1,49.5000015106202,10|8,0:2|0:2,0:0:0:0:
420,323,88589,1,10,3:2:0:0:
420,323,88675,1,8,0:2:0:0:
420,323,88761,2,0,L|357:338,1,49.5000015106202,10|8,0:2|0:2,0:0:0:0:
262,384,88932,5,10,1:2:0:0:
332,128,89103,1,10,1:2:0:0:
