osu file format v14

[General]
AudioFilename: audio.mp3
AudioLeadIn: 0
PreviewTime: 63389
Countdown: 0
SampleSet: Soft
StackLeniency: 0.7
Mode: 0
LetterboxInBreaks: 0
WidescreenStoryboard: 1

[Editor]
DistanceSpacing: 1
BeatDivisor: 4
GridSize: 16
TimelineZoom: 1

[Metadata]
Title:The story so far (TV Size)
TitleUnicode:The story so far (TV Size)
Artist:Akita Chisato
ArtistUnicode:秋田知里
Creator:KennethBBG
Version:Easy
Source:The Legend of Heroes 閃の軌跡 Northern War
Tags:Aurorance iredi aundy Falcom anime 英雄伝説 anime opening op j-pop jpop pop j-rock jrock rock japanese female vocal vocalist Eiyuu Densetsu: Sen no Kiseki Trails of Cold Steel
BeatmapID:3986675
BeatmapSetID:1929468

[Difficulty]
HPDrainRate:3
CircleSize:3
OverallDifficulty:3
ApproachRate:4
SliderMultiplier:0.799999999999999
SliderTickRate:1

[Events]
//Background and Video events
0,0,"BackG.jpg",0,0
Video,-140,"video (2).mp4"
//Break Periods
//Storyboard Layer 0 (Background)
//Storyboard Layer 1 (Fail)
//Storyboard Layer 2 (Pass)
//Storyboard Layer 3 (Foreground)
//Storyboard Layer 4 (Overlay)
//Storyboard Sound Samples

[TimingPoints]
1161,342.857142857143,4,2,1,22,1,0
5789,-100,4,2,1,40,0,0
6303,-100,4,2,1,45,0,0
6646,-100,4,2,1,70,0,0
17618,-100,4,2,1,60,0,0
17961,-100,4,2,1,30,0,0
20018,-100,4,2,1,60,0,0
20703,-100,4,2,1,30,0,0
22761,-100,4,2,1,60,0,0
23446,-100,4,2,1,30,0,0
23961,-100,4,2,1,40,0,0
24646,-100,4,2,1,30,0,0
25503,-100,4,2,1,60,0,0
26189,-100,4,2,1,30,0,0
27218,-100,4,2,1,50,0,0
28075,-100,4,2,1,55,0,0
39561,-100,4,2,1,50,0,0
47789,-100,4,2,1,55,0,0
50532,-100,4,2,1,50,0,0
53275,-100,4,2,1,55,0,0
56018,-100,4,2,1,60,0,0
58761,-100,4,2,1,65,0,0
59789,-100,4,2,1,70,0,0
60303,-100,4,2,1,65,0,0
61503,-100,4,2,1,80,0,0
62018,-100,4,2,1,50,0,0
63389,-100,4,2,1,40,0,0
64075,-100,4,2,1,80,0,1
69732,-100,4,2,1,75,0,1
75046,-100,4,2,1,80,0,1
80703,-100,4,2,1,75,0,1
86189,-100,4,2,1,70,0,1
88932,-100,4,2,1,75,0,1
89275,-100,4,2,1,75,0,0

[Colours]
Combo1 : 230,226,81
Combo2 : 60,119,67
Combo3 : 63,47,204
Combo4 : 228,105,228

[HitObjects]
11,29,6646,6,0,P|20:69|28:111,1,79.9999999999999,6|10,3:2|0:2,0:0:0:0:
7,185,7332,1,0,3:2:0:0:
83,277,7846,2,0,P|129:299|205:278,1,120,2|8,3:2|0:2,0:0:0:0:
244,223,8703,1,0,3:2:0:0:
215,148,9046,1,10,0:2:0:0:
242,72,9389,6,0,P|282:81|324:89,1,79.9999999999999,6|10,3:2|0:2,0:0:0:0:
398,69,10075,1,0,3:2:0:0:
475,160,10589,2,0,P|497:206|476:282,1,120,2|8,3:2|0:2,0:0:0:0:
434,334,11446,1,0,3:2:0:0:
366,291,11789,1,10,0:2:0:0:
297,332,12132,5,6,3:2:0:0:
223,299,12475,1,10,0:2:0:0:
220,219,12818,2,0,L|205:85,1,120,2|2,3:2|3:2,0:0:0:0:
93,59,13846,1,8,0:2:0:0:
41,120,14189,2,0,P|31:164|50:205,1,79.9999999999999,2|8,3:2|0:2,0:0:0:0:
78,267,14875,5,6,3:2:0:0:
51,342,15218,1,10,0:2:0:0:
127,366,15561,2,0,L|261:351,1,120,2|2,3:2|3:2,0:0:0:0:
334,271,16589,1,8,0:2:0:0:
399,316,16932,1,2,1:2:0:0:
460,264,17275,1,8,0:2:0:0:
423,192,17618,5,2,3:2:0:0:
415,32,18303,2,0,P|357:48|300:68,1,120,2|2,0:2|0:2,0:0:0:0:
223,44,19161,2,0,P|180:37|146:26,1,79.9999999999999,2|2,0:2|3:2,0:0:0:0:
51,89,20018,1,2,3:2:0:0:
19,162,20361,1,2,3:2:0:0:
59,274,20875,2,0,B|128:297|87:311|173:338,1,120,2|10,0:2|0:2,0:0:0:0:
305,265,22075,2,0,P|315:212|302:182,1,79.9999999999999,10|2,0:2|0:2,0:0:0:0:
240,142,22761,1,2,3:2:0:0:
212,67,23103,5,2,3:2:0:0:
404,21,23961,2,0,P|464:13|495:104,1,160,2|2,0:2|0:2,0:0:0:0:
492,214,25161,1,2,0:2:0:0:
448,281,25503,1,2,3:2:0:0:
463,359,25846,1,2,3:2:0:0:
344,381,26361,2,0,P|268:363|250:359,1,79.9999999999999,2|2,0:2|0:2,0:0:0:0:
157,311,27218,2,0,P|144:263|166:222,1,79.9999999999999,2|8,3:2|0:2,0:0:0:0:
187,163,27903,1,2,0:2:0:0:
233,97,28246,1,2,3:2:0:0:
188,30,28589,6,0,L|100:19,1,79.9999999999999,6|8,3:2|0:2,0:0:0:0:
34,50,29275,2,0,P|21:112|47:163,1,120,2|2,3:2|0:2,0:0:0:0:
101,217,30132,1,2,0:2:0:0:
145,283,30475,2,0,L|263:264,1,120,2|10,0:2|0:2,0:0:0:0:
285,187,31332,6,0,L|403:205,2,120,2|2|10,3:2|0:2|0:2,0:0:0:0:
151,98,33046,2,0,P|151:57|185:19,1,79.9999999999999,10|2,0:2|3:2,0:0:0:0:
252,34,33732,1,10,0:2:0:0:
327,60,34075,6,0,P|383:53|449:33,2,120,6|2|10,3:2|0:2|0:2,0:0:0:0:
239,193,35789,1,8,0:2:0:0:
295,249,36132,2,0,P|303:320|303:345,1,79.9999999999999,2|10,3:2|0:2,0:0:0:0:
233,368,36818,6,0,P|169:366|124:318,1,120,2|2,3:2|0:2,0:0:0:0:
69,276,37675,1,2,3:2:0:0:
131,173,38189,2,0,L|140:45,1,120,2|2,3:2|0:2,0:0:0:0:
209,14,39046,2,0,L|255:19,1,40,0|0,1:2|1:2,0:0:0:0:
292,85,39561,6,0,L|301:216,1,120,6|2,3:2|0:2,0:0:0:0:
316,282,40418,2,0,P|352:295|404:278,1,79.9999999999999,2|2,1:2|3:2,0:0:0:0:
485,211,41275,2,0,L|499:132,2,79.9999999999999,10|8|2,0:2|0:2|0:2,0:0:0:0:
408,188,42303,6,0,P|366:144|367:87,1,120,6|2,3:2|0:2,0:0:0:0:
272,12,43332,2,0,B|169:26|227:68|120:86,1,160,10|10,0:2|0:2,0:0:0:0:
59,53,44361,1,8,0:2:0:0:
0,201,45046,6,0,L|9:332,1,120,6|2,3:2|0:2,0:0:0:0:
73,367,45903,2,0,P|109:380|161:363,1,79.9999999999999,2|0,1:2|3:2,0:0:0:0:
232,284,46761,2,0,L|246:205,2,79.9999999999999,10|10|2,0:2|0:2|0:2,0:0:0:0:
287,341,47789,6,0,P|331:327|375:329,1,79.9999999999999,6|8,3:2|0:2,0:0:0:0:
444,317,48475,2,0,L|428:230,1,79.9999999999999,2|8,3:2|0:2,0:0:0:0:
405,161,49161,2,0,P|356:153|299:194,1,120,6|2,0:2|0:2,0:0:0:0:
194,247,50189,1,8,0:2:0:0:
132,195,50532,6,0,L|154:77,1,120,6|2,3:2|0:2,0:0:0:0:
209,19,51389,1,2,3:2:0:0:
309,84,51903,2,0,P|358:77|430:63,1,120,2|2,3:2|0:2,0:0:0:0:
505,155,52932,1,10,0:2:0:0:
453,216,53275,6,0,B|383:225|424:246|331:266,1,120,6|2,3:2|0:2,0:0:0:0:
211,197,54475,2,0,P|208:153|193:60,1,120,4|8,3:2|0:2,0:0:0:0:
127,37,55332,2,0,P|84:36|42:58,1,79.9999999999999,2|10,0:2|0:2,0:0:0:0:
8,119,56018,5,14,0:2:0:0:
86,210,56532,1,14,0:2:0:0:
17,308,57046,2,0,B|112:323|56:377|162:377,1,160,14|8,0:2|0:2,0:0:0:0:
228,346,58075,1,8,0:2:0:0:
217,266,58418,1,2,1:2:0:0:
262,200,58761,5,6,3:2:0:0:
181,111,59275,1,6,3:2:0:0:
268,28,59789,2,0,B|363:38|317:81|419:94,1,160,6|2,3:2|3:2,0:0:0:0:
479,132,60818,2,0,L|458:230,1,79.9999999999999,10|10,0:2|0:2,0:0:0:0:
434,285,61503,5,10,0:2:0:0:
0,53,64075,6,0,P|58:37|133:23,1,120,6|8,3:2|0:2,0:0:0:0:
189,59,64932,2,0,P|212:121|188:169,1,120,2|2,3:2|0:2,0:0:0:0:
115,195,65789,1,2,3:2:0:0:
70,261,66132,1,2,0:2:0:0:
90,338,66475,1,2,3:2:0:0:
167,359,66818,6,0,P|216:349|304:337,1,120,6|8,3:2|0:2,0:0:0:0:
418,250,68018,2,0,P|407:190|392:132,1,120,10|2,0:2|3:2,0:0:0:0:
383,53,68875,2,0,P|337:68|293:143,1,120,2|8,0:2|0:2,0:0:0:0:
222,155,69732,5,6,3:2:0:0:
174,90,70075,2,0,L|83:79,1,79.9999999999999,10|0,0:2|3:2,0:0:0:0:
23,117,70761,1,10,0:2:0:0:
62,186,71103,2,0,P|77:224|31:285,1,120,6|2,3:2|0:2,0:0:0:0:
116,372,72132,1,8,0:2:0:0:
195,375,72475,6,0,P|263:370|294:328,1,120,6|2,3:2|0:2,0:0:0:0:
289,252,73332,1,2,3:2:0:0:
218,213,73675,2,0,L|205:125,1,79.9999999999999,6|8,3:2|0:2,0:0:0:0:
154,72,74361,1,10,0:2:0:0:
205,11,74703,1,10,0:2:0:0:
281,33,75046,6,0,P|339:49|414:63,1,120,6|8,3:2|0:2,0:0:0:0:
473,87,75903,2,0,P|496:149|472:197,1,120,2|2,3:2|0:2,0:0:0:0:
396,213,76760,1,2,3:2:0:0:
380,291,77103,1,2,3:2:0:0:
331,355,77446,1,2,3:2:0:0:
254,376,77789,6,0,P|204:363|126:352,1,120,6|10,3:2|0:2,0:0:0:0:
58,371,78646,1,0,0:0:0:0:
4,311,78989,2,0,P|13:261|27:189,1,120,10|2,0:2|3:2,0:0:0:0:
61,121,79846,2,0,P|96:116|141:134,1,79.9999999999999,2|2,0:2|3:2,0:0:0:0:
240,70,80703,6,0,P|298:62|376:43,1,120,6|2,3:2|0:2,0:0:0:0:
476,29,81732,1,10,0:2:0:0:
499,105,82075,2,0,P|485:153|466:230,1,120,6|2,3:2|0:2,0:0:0:0:
389,311,83103,1,8,0:2:0:0:
320,351,83446,2,0,P|293:346|266:332,1,40,6|2,3:2|3:2,0:0:0:0:
237,274,83961,1,2,0:2:0:0:
277,205,84303,1,2,3:2:0:0:
227,142,84646,6,0,L|220:55,1,79.9999999999999,6|0,3:2|1:2,0:0:0:0:
151,21,85332,1,2,3:2:0:0:
77,51,85675,2,0,P|59:59|30:60,1,40,10|10,0:2|0:2,0:0:0:0:
12,136,86189,6,0,P|21:176|29:218,1,79.9999999999999,6|10,3:2|0:2,0:0:0:0:
5,291,86875,1,0,3:2:0:0:
110,348,87389,2,0,P|156:370|232:349,1,120,2|8,3:2|0:2,0:0:0:0:
269,292,88246,1,8,0:2:0:0:
230,221,88589,1,10,3:2:0:0:
280,158,88932,6,0,P|320:167|336:171,1,40,10|10,1:2|1:2,0:0:0:0:
