osu file format v14

[General]
AudioFilename: audio.mp3
AudioLeadIn: 0
PreviewTime: 63389
Countdown: 0
SampleSet: Soft
StackLeniency: 0.7
Mode: 0
LetterboxInBreaks: 0
WidescreenStoryboard: 1

[Editor]
DistanceSpacing: 0.4
BeatDivisor: 4
GridSize: 32
TimelineZoom: 1.4

[Metadata]
Title:The story so far (TV Size)
TitleUnicode:The story so far (TV Size)
Artist:Akita Chisato
ArtistUnicode:秋田知里
Creator:KennethBBG
Version:Bravery
Source:The Legend of Heroes 閃の軌跡 Northern War
Tags:Aurorance iredi aundy Falcom anime 英雄伝説 anime opening op j-pop jpop pop j-rock jrock rock japanese female vocal vocalist Eiyuu Densetsu: Sen no Kiseki Trails of Cold Steel
BeatmapID:3985409
BeatmapSetID:1929468

[Difficulty]
HPDrainRate:6
CircleSize:4
OverallDifficulty:8
ApproachRate:9.2
SliderMultiplier:1.8
SliderTickRate:1

[Events]
//Background and Video events
0,0,"BackG.jpg",0,0
Video,-140,"video (2).mp4"
//Break Periods
2,62018,63389
//Storyboard Layer 0 (Background)
//Storyboard Layer 1 (Fail)
//Storyboard Layer 2 (Pass)
//Storyboard Layer 3 (Foreground)
//Storyboard Layer 4 (Overlay)
//Storyboard Sound Samples

[TimingPoints]
1161,342.857142857143,4,2,1,22,1,0
1161,-181.818181818182,4,2,1,22,0,0
5789,-181.818181818182,4,2,1,40,0,0
6303,-181.818181818182,4,2,1,45,0,0
6646,-95.2380952380952,4,2,1,70,0,0
17618,-125,4,2,1,60,0,0
17961,-125,4,2,1,30,0,0
18303,-166.666666666667,4,2,1,30,0,0
20018,-125,4,2,1,60,0,0
20703,-125,4,2,1,30,0,0
20875,-166.666666666667,4,2,1,30,0,0
22761,-125,4,2,1,60,0,0
23446,-125,4,2,1,30,0,0
23618,-166.666666666667,4,2,1,30,0,0
23961,-166.666666666667,4,2,1,40,0,0
24646,-166.666666666667,4,2,1,30,0,0
25503,-125,4,2,1,60,0,0
26189,-125,4,2,1,30,0,0
26361,-166.666666666667,4,2,1,30,0,0
27218,-142.857142857143,4,2,1,50,0,0
28075,-142.857142857143,4,2,1,55,0,0
28589,-133.333333333333,4,2,1,55,0,0
39561,-133.333333333333,4,2,1,50,0,0
47789,-111.111111111111,4,2,1,55,0,0
50532,-125,4,2,1,50,0,0
53275,-111.111111111111,4,2,1,55,0,0
56018,-100,4,2,1,60,0,0
58761,-100,4,2,1,65,0,0
59789,-100,4,2,1,70,0,0
60303,-100,4,2,1,65,0,0
61503,-100,4,2,1,80,0,0
62018,-100,4,2,1,50,0,0
63389,-100,4,2,1,40,0,0
64075,-95.2380952380952,4,2,1,80,0,1
69732,-95.2380952380952,4,2,1,75,0,1
75046,-95.2380952380952,4,2,1,80,0,1
77789,-80,4,2,1,80,0,1
79418,-80,4,2,1,5,0,1
79503,-80,4,2,1,80,0,1
80532,-95.2380952380952,4,2,1,80,0,1
80703,-95.2380952380952,4,2,1,75,0,1
82332,-95.2380952380952,4,2,1,5,0,1
82418,-95.2380952380952,4,2,1,75,0,1
84903,-95.2380952380952,4,2,1,5,0,1
84989,-95.2380952380952,4,2,1,75,0,1
86189,-95.2380952380952,4,2,1,70,0,1
88932,-95.2380952380952,4,2,1,75,0,1
89275,-95.2380952380952,4,2,1,75,0,0

[Colours]
Combo1 : 230,226,81
Combo2 : 60,119,67
Combo3 : 63,47,204
Combo4 : 228,105,228

[HitObjects]
223,384,1161,6,0,P|276:339|362:351,2,148.50000453186,2|2|2,0:2|0:2|0:2,0:0:0:0:
223,169,2532,2,0,P|243:225|268:313,1,148.50000453186,2|2,0:2|0:2,0:0:0:0:
401,136,3903,5,2,0:2:0:0:
401,136,4075,2,0,P|430:126|467:118,1,49.5000015106202,2|2,0:2|0:2,0:0:0:0:
379,54,4418,2,0,P|340:22|281:21,1,99.0000030212403,2|2,0:2|0:2,0:0:0:0:
305,115,4932,1,2,0:2:0:0:
305,115,5103,2,0,P|326:179|337:224,1,99.0000030212403,2|0,0:2|0:0,0:0:0:0:
6,285,6646,6,0,P|67:232|171:228,1,188.999994232178,6|10,3:2|0:2,0:0:0:0:
372,130,7161,1,0,0:0:0:0:
289,275,7332,2,0,P|279:232|262:160,1,94.499997116089,0|0,3:2|3:2,0:0:0:0:
360,6,7675,1,10,0:2:0:0:
110,61,7846,6,0,P|196:74|305:95,1,188.999994232178,2|0,3:2|3:2,0:0:0:0:
167,301,8361,2,0,P|157:258|140:186,1,94.499997116089,8|0,0:2|0:0,0:0:0:0:
312,272,8703,1,0,3:2:0:0:
232,384,8875,1,2,3:2:0:0:
436,278,9046,1,10,0:2:0:0:
281,130,9218,1,2,0:2:0:0:
167,301,9389,6,0,B|127:283|65:259|65:259|36:284|-2:304,1,188.999994232178,6|10,3:2|0:2,0:0:0:0:
152,140,9903,1,0,0:0:0:0:
19,80,10075,2,0,P|31:121|48:183,1,94.499997116089,0|0,3:2|3:2,0:0:0:0:
198,16,10418,1,10,0:2:0:0:
337,174,10589,6,0,P|273:161|142:138,1,188.999994232178,2|0,3:2|3:2,0:0:0:0:
16,275,11103,2,0,P|57:262|131:247,1,94.499997116089,8|0,0:2|0:0,0:0:0:0:
236,274,11446,1,0,3:2:0:0:
145,384,11618,1,2,3:2:0:0:
336,260,11789,1,10,0:2:0:0:
151,139,11961,1,2,0:2:0:0:
377,76,12132,6,0,P|364:117|352:171,1,94.499997116089,6|0,3:2|3:2,0:0:0:0:
470,384,12475,2,0,P|460:341|443:285,1,94.499997116089,10|0,0:2|0:0,0:0:0:0:
236,274,12818,2,0,P|248:228|262:183,1,94.499997116089,2|0,3:2|3:2,0:0:0:0:
439,199,13161,1,10,0:2:0:0:
294,351,13332,6,0,P|222:372|143:301,1,188.999994232178,2|0,3:2|3:2,0:0:0:0:
2,156,13846,2,0,P|43:168|94:178,1,94.499997116089,8|0,0:2|0:0,0:0:0:0:
269,40,14189,2,0,P|226:49|177:67,1,94.499997116089,2|0,3:2|3:2,0:0:0:0:
322,209,14532,1,8,0:2:0:0:
322,209,14875,6,0,P|332:162|346:117,1,94.499997116089,6|0,3:2|3:2,0:0:0:0:
218,384,15218,2,0,P|208:341|191:285,1,94.499997116089,10|0,0:2|0:0,0:0:0:0:
445,145,15561,2,0,P|429:193|418:235,1,94.499997116089,2|0,3:2|3:2,0:0:0:0:
475,345,15903,1,10,0:2:0:0:
322,209,16075,6,0,B|218:201|251:278|128:271,1,188.999994232178,2|0,3:2|3:2,0:0:0:0:
15,139,16589,1,8,0:2:0:0:
211,67,16761,1,0,1:2:0:0:
211,67,16846,1,0,1:2:0:0:
211,67,16932,1,2,1:2:0:0:
45,232,17103,1,8,0:2:0:0:
286,300,17275,1,8,0:2:0:0:
286,300,17361,1,8,0:2:0:0:
286,300,17446,2,0,L|357:292,1,47.2499985580445,8|8,0:2|0:2,0:0:0:0:
74,327,17618,5,2,3:2:0:0:
149,176,17789,2,0,L|130:89,1,72,2|8,3:2|0:2,0:0:0:0:
269,217,18303,6,0,L|332:207,1,53.9999983520508,2|2,0:2|0:2,0:0:0:0:
395,242,18646,1,10,0:2:0:0:
395,242,18818,2,0,P|408:189|380:137,1,107.999996704102,2|2,0:2|0:2,0:0:0:0:
233,63,19503,2,0,P|248:127|263:187,1,107.999996704102,2|0,3:2|3:2,0:0:0:0:
218,283,20018,6,0,L|147:267,1,72,2|0,3:2|0:0,0:0:0:0:
1,331,20360,1,2,3:2:0:0:
41,140,20532,2,0,L|56:210,1,72,0|8,3:2|0:2,0:0:0:0:
135,150,20875,6,0,P|147:97|160:44,1,107.999996704102,2|0,0:2|0:0,0:0:0:0:
261,19,21389,2,0,P|308:7|353:48,1,107.999996704102,10|0,0:2|3:2,0:0:0:0:
399,176,22075,2,0,P|346:188|293:201,1,107.999996704102,10|2,0:2|0:2,0:0:0:0:
204,174,22589,1,0,3:2:0:0:
14,291,22761,6,0,L|84:275,1,72,2|0,3:2|0:0,0:0:0:0:
254,352,23103,1,2,3:2:0:0:
204,174,23275,2,0,L|188:244,1,72,2|8,3:2|0:2,0:0:0:0:
162,332,23618,1,0,0:0:0:0:
352,380,23961,5,2,0:2:0:0:
352,380,24132,2,0,L|338:324,1,53.9999983520508,10|2,0:2|0:2,0:0:0:0:
407,263,24475,2,0,L|421:207,1,53.9999983520508,2|2,3:2|0:2,0:0:0:0:
325,78,24989,1,0,3:2:0:0:
413,17,25161,2,0,L|426:69,1,53.9999983520508,2|0,0:2|3:2,0:0:0:0:
303,166,25503,6,0,L|232:150,1,72,2|2,3:2|0:2,0:0:0:0:
53,199,25845,1,2,3:2:0:0:
113,49,26017,2,0,L|128:119,1,72,2|8,3:2|0:2,0:0:0:0:
122,267,26361,6,0,P|162:236|218:233,1,107.999996704102,2|2,0:2|0:2,0:0:0:0:
282,293,26875,1,8,0:2:0:0:
330,209,27046,1,2,0:2:0:0:
181,384,27218,6,0,L|191:321,1,62.9999980773926,2|0,3:2|0:0,0:0:0:0:
296,384,27561,1,8,0:2:0:0:
373,288,27732,2,0,L|388:350,1,62.9999980773926,0|2,3:2|0:2,0:0:0:0:
460,258,28075,1,2,3:2:0:0:
328,209,28246,1,2,3:2:0:0:
460,258,28418,1,2,3:2:0:0:
505,131,28589,6,0,P|489:62|472:-5,1,135.000005149842,6|8,3:2|0:2,0:0:0:0:
393,95,29103,1,0,0:0:0:0:
280,17,29275,2,0,P|317:7|371:-4,1,67.5000025749208,2|0,3:2|3:2,0:0:0:0:
304,106,29618,1,10,0:2:0:0:
190,0,29789,6,0,P|176:69|166:140,1,135.000005149842,2|2,0:2|0:2,0:0:0:0:
73,300,30303,1,8,0:2:0:0:
0,229,30475,2,0,P|57:196|120:212,1,135.000005149842,2|0,0:2|3:2,0:0:0:0:
233,383,30989,2,0,P|195:373|142:362,1,67.5000025749208,10|0,0:2|0:0,0:0:0:0:
218,270,31332,6,0,P|286:254|354:237,1,135.000005149842,2|8,3:2|0:2,0:0:0:0:
512,106,31846,2,0,P|446:105|395:155,1,135.000005149842,2|0,0:2|3:2,0:0:0:0:
465,270,32361,2,0,P|474:232|486:179,1,67.5000025749208,10|0,0:2|0:0,0:0:0:0:
306,146,32703,5,0,3:2:0:0:
306,146,33046,2,0,P|315:183|327:237,1,67.5000025749208,10|0,0:2|0:0,0:0:0:0:
199,130,33389,1,2,3:2:0:0:
311,62,33561,1,0,3:2:0:0:
228,228,33732,2,0,P|191:219|137:207,1,67.5000025749208,10|0,0:2|0:0,0:0:0:0:
67,1,34075,6,0,B|152:2|118:39|193:38,1,135.000005149842,6|8,3:2|0:2,0:0:0:0:
90,164,34589,2,0,P|82:131|74:98,1,67.5000025749208,2|0,0:2|3:2,0:0:0:0:
199,130,34932,1,0,3:2:0:0:
76,260,35103,2,0,P|43:251|10:244,1,67.5000025749208,10|0,0:2|0:0,0:0:0:0:
192,384,35446,6,0,B|179:345|164:305|164:305|180:279|195:248,1,135.000005149842,0|8,3:2|0:2,0:0:0:0:
333,373,36132,2,0,P|365:364|398:357,1,67.5000025749208,2|0,3:2|3:2,0:0:0:0:
292,238,36475,2,0,P|283:270|276:303,1,67.5000025749208,10|0,0:2|0:0,0:0:0:0:
387,198,36818,1,2,3:2:0:0:
187,259,36989,2,0,P|154:250|121:243,1,67.5000025749208,2|8,0:2|0:2,0:0:0:0:
208,105,37332,2,0,P|216:137|223:170,1,67.5000025749208,2|0,0:2|3:2,0:0:0:0:
315,83,37674,1,2,3:2:0:0:
197,15,37846,1,8,0:2:0:0:
315,83,38018,1,2,0:2:0:0:
445,4,38189,6,0,P|428:70|413:137,1,135.000005149842,2|8,3:2|0:2,0:0:0:0:
310,234,38703,1,2,0:2:0:0:
247,108,38875,1,10,0:2:0:0:
247,108,38961,1,8,0:2:0:0:
247,108,39046,2,0,L|288:102,1,33.7500012874604,0|0,1:2|1:2,0:0:0:0:
147,56,39218,1,0,1:2:0:0:
78,155,39389,1,0,3:2:0:0:
201,311,39561,6,0,P|184:244|169:177,1,135.000005149842,6|10,3:2|0:2,0:0:0:0:
20,244,40075,2,0,P|52:252|85:259,1,67.5000025749208,2|0,0:2|3:2,0:0:0:0:
268,247,40418,1,2,1:2:0:0:
141,360,40589,1,10,0:2:0:0:
282,327,40761,6,0,P|349:344|416:359,1,135.000005149842,2|0,3:2|3:2,0:0:0:0:
412,190,41275,2,0,P|404:222|397:255,1,67.5000025749208,10|0,0:2|0:0,0:0:0:0:
512,384,41618,2,0,P|504:352|497:319,1,67.5000025749208,8|0,0:2|3:2,0:0:0:0:
412,190,41961,1,2,0:2:0:0:
512,122,42132,1,8,0:2:0:0:
309,256,42303,6,0,P|252:223|184:244,1,135.000005149842,6|8,3:2|0:2,0:0:0:0:
23,197,42817,2,0,P|55:189|88:182,1,67.5000025749208,2|0,0:2|3:2,0:0:0:0:
136,76,43160,1,0,1:2:0:0:
16,31,43331,1,10,0:2:0:0:
250,18,43503,6,0,P|233:85|218:152,1,135.000005149842,0|2,3:2|3:2,0:0:0:0:
392,99,44017,2,0,P|358:105|326:114,1,67.5000025749208,10|2,0:2|0:2,0:0:0:0:
122,225,44361,1,8,0:2:0:0:
122,225,44446,1,8,0:2:0:0:
122,225,44532,2,0,P|154:233|187:240,1,67.5000025749208,0|2,3:2|0:0,0:0:0:0:
274,349,44874,1,8,0:2:0:0:
499,276,45046,6,0,B|504:252|511:222|511:222|502:190|502:190|511:163|514:131,1,135.000005149842,6|10,3:2|0:2,0:0:0:0:
373,184,45560,2,0,P|379:217|389:250,1,67.5000025749208,2|0,0:2|3:2,0:0:0:0:
272,131,45903,1,2,1:2:0:0:
395,45,46074,1,10,0:2:0:0:
272,131,46246,6,0,P|205:114|138:99,1,135.000005149842,0|0,3:2|3:2,0:0:0:0:
142,268,46760,2,0,P|150:236|157:203,1,67.5000025749208,10|0,0:2|0:0,0:0:0:0:
38,67,47103,2,0,P|46:99|53:132,1,67.5000025749208,10|0,0:2|3:2,0:0:0:0:
142,268,47446,1,2,0:2:0:0:
1,373,47617,1,8,0:2:0:0:
226,282,47789,6,0,P|289:300|316:310,1,80.9999975280763,6|0,3:2|1:2,0:0:0:0:
197,165,48132,2,0,P|134:183|114:192,1,80.9999975280763,8|0,0:2|0:0,0:0:0:0:
262,46,48475,1,2,3:2:0:0:
356,204,48646,1,0,1:2:0:0:
161,86,48818,1,8,0:2:0:0:
239,290,48989,1,2,3:2:0:0:
442,173,49161,6,0,P|394:119|300:137,1,161.999995056153,6|8,0:2|0:2,0:0:0:0:
448,295,49675,1,2,0:2:0:0:
289,374,49846,1,8,0:2:0:0:
289,374,49932,1,8,0:2:0:0:
289,374,50018,1,8,0:2:0:0:
189,202,50189,1,8,0:2:0:0:
189,202,50275,1,8,0:2:0:0:
189,202,50361,2,0,L|199:157,1,40.4999987640381,8|8,0:2|0:2,0:0:0:0:
364,223,50532,6,0,B|289:245|325:271|231:292,1,144,6|10,3:2|0:2,0:0:0:0:
96,212,51046,2,0,P|103:177|110:135,1,72,2|0,0:2|3:2,0:0:0:0:
204,49,51389,1,2,3:2:0:0:
14,3,51561,2,0,P|21:38|26:73,1,72,10|2,0:2|0:2,0:0:0:0:
197,162,51903,6,0,P|256:172|324:99,1,144,2|10,3:2|0:2,0:0:0:0:
444,18,52418,2,0,P|436:53|431:88,1,72,2|0,0:2|3:2,0:0:0:0:
473,295,52761,1,2,3:2:0:0:
319,188,52932,1,10,0:2:0:0:
503,143,53103,1,10,0:2:0:0:
307,304,53275,6,0,B|205:293|250:246|161:229,1,161.999995056153,6|8,3:2|0:2,0:0:0:0:
54,337,53789,2,0,P|89:329|136:317,1,80.9999975280763,2|0,0:2|3:2,0:0:0:0:
190,136,54132,1,0,3:2:0:0:
27,203,54303,1,10,0:2:0:0:
59,1,54475,6,0,P|74:53|108:171,1,161.999995056153,4|0,3:2|3:2,0:0:0:0:
280,50,54989,2,0,P|240:39|201:28,1,80.9999975280763,8|0,0:2|3:2,0:0:0:0:
307,184,55332,1,2,0:2:0:0:
393,37,55503,1,8,0:2:0:0:
393,37,55589,1,8,0:2:0:0:
393,37,55675,1,10,0:2:0:0:
512,188,55846,5,8,0:2:0:0:
512,188,55932,1,8,0:2:0:0:
512,188,56018,1,14,0:2:0:0:
281,49,56189,1,0,3:2:0:0:
281,49,56361,1,0,3:2:0:0:
303,361,56532,5,14,0:2:0:0:
379,121,56704,1,0,3:2:0:0:
379,121,56875,1,0,3:2:0:0:
131,136,57046,6,0,B|236:165|176:194|285:223,1,180,14|0,0:2|0:0,0:0:0:0:
302,47,57561,1,0,3:2:0:0:
123,237,57732,2,0,P|83:247|10:267,1,90,8|0,0:2|3:2,0:0:0:0:
152,55,58075,1,8,0:2:0:0:
152,55,58161,1,8,0:2:0:0:
152,55,58246,1,0,3:2:0:0:
284,222,58418,1,2,1:2:0:0:
278,247,58504,1,0,1:2:0:0:
274,274,58589,1,8,0:2:0:0:
42,157,58761,6,0,P|30:113|19:69,1,90,6|0,3:2|1:2,0:0:0:0:
16,37,59018,1,0,1:2:0:0:
16,37,59103,1,8,0:2:0:0:
228,150,59275,1,6,3:2:0:0:
60,265,59446,1,0,1:2:0:0:
35,259,59532,1,0,1:2:0:0:
8,255,59617,1,8,0:2:0:0:
262,375,59789,6,0,B|367:355|321:314|421:290,1,180,6|0,3:2|0:0,0:0:0:0:
360,112,60303,2,0,L|353:162,1,45,10|10,0:2|0:2,0:0:0:0:
261,274,60475,1,2,3:2:0:0:
121,101,60646,1,10,0:2:0:0:
55,319,60818,5,10,0:2:0:0:
55,319,60932,2,0,P|101:308|115:305,1,60,2|2,1:2|1:2,0:0:0:0:
197,208,61161,5,10,0:2:0:0:
197,208,61275,2,0,P|155:198|137:194,1,60,2|2,1:2|1:2,0:0:0:0:
309,354,61503,5,10,0:2:0:0:
512,121,61675,1,10,0:2:0:0:
357,173,64075,6,0,P|291:119|183:146,1,188.999994232178,6|0,3:2|3:2,0:0:0:0:
6,103,64589,2,0,P|28:159|45:214,1,94.499997116089,8|0,0:2|0:0,0:0:0:0:
175,369,64932,1,2,3:2:0:0:
195,137,65103,1,2,3:2:0:0:
286,334,65275,1,10,0:2:0:0:
18,336,65446,6,0,P|102:292|205:255,1,188.999994232178,2|2,0:2|3:2,0:0:0:0:
472,382,65961,1,8,0:2:0:0:
350,264,66132,2,0,P|364:222|381:175,1,94.499997116089,2|0,0:2|0:0,0:0:0:0:
255,15,66475,1,2,3:2:0:0:
272,211,66646,1,10,0:2:0:0:
35,165,66818,6,0,P|102:104|196:121,1,188.999994232178,6|0,3:2|3:2,0:0:0:0:
166,311,67332,2,0,B|108:291|61:267|61:267|33:290|-1:310,1,188.999994232178,8|0,0:2|0:0,0:0:0:0:
120,197,67846,1,0,3:2:0:0:
261,351,68018,1,10,0:2:0:0:
282,165,68189,6,0,P|265:209|250:254,1,94.499997116089,2|0,0:2|3:2,0:0:0:0:
149,79,68532,1,2,3:2:0:0:
301,153,68703,1,8,0:2:0:0:
152,279,68875,2,0,P|122:240|121:190,1,94.499997116089,2|0,0:2|3:2,0:0:0:0:
198,11,69218,2,0,P|228:47|231:93,1,94.499997116089,2|8,3:2|0:2,0:0:0:0:
491,182,69561,5,2,0:0:0:0:
491,182,69646,1,2,0:0:0:0:
491,182,69732,2,0,B|418:155|373:135|373:135|347:157|312:183,1,188.999994232178,6|10,3:2|0:2,0:0:0:0:
166,347,70246,2,0,P|208:361|255:378,1,94.499997116089,2|0,0:2|3:2,0:0:0:0:
395,247,70589,1,0,3:2:0:0:
255,271,70761,1,10,0:2:0:0:
275,20,70932,5,2,0:0:0:0:
275,20,71018,1,2,0:0:0:0:
275,20,71103,2,0,P|336:76|325:174,1,188.999994232178,6|10,3:2|0:2,0:0:0:0:
112,196,71618,5,2,0:2:0:0:
174,293,71789,1,0,3:2:0:0:
280,278,71961,1,0,3:2:0:0:
240,116,72132,2,0,P|223:160|208:205,1,94.499997116089,8|0,0:2|0:0,0:0:0:0:
314,384,72475,5,6,3:2:0:0:
399,170,72646,1,2,3:2:0:0:
174,293,72818,1,10,0:2:0:0:
420,383,72989,2,0,P|406:341|389:294,1,94.499997116089,2|0,0:2|0:0,0:0:0:0:
248,121,73332,1,2,3:2:0:0:
457,35,73503,1,10,0:2:0:0:
228,238,73675,6,0,B|119:219|166:171|58:152,1,188.999994232178,6|8,3:2|0:2,0:0:0:0:
37,144,74103,1,8,0:2:0:0:
37,144,74189,1,8,0:2:0:0:
202,354,74361,1,10,0:2:0:0:
64,255,74532,1,8,0:2:0:0:
246,135,74703,1,10,0:2:0:0:
246,135,74789,1,8,0:2:0:0:
246,135,74875,1,8,0:2:0:0:
325,384,75046,6,0,B|307:326|285:275|285:275|313:237|329:204,1,188.999994232178,6|0,3:2|3:2,0:0:0:0:
156,103,75561,2,0,P|198:117|245:134,1,94.499997116089,8|0,0:2|0:0,0:0:0:0:
384,0,75904,1,2,3:2:0:0:
512,226,76075,1,2,3:2:0:0:
328,160,76246,1,10,0:2:0:0:
480,0,76418,6,0,P|451:91|424:193,1,188.999994232178,2|2,0:2|3:2,0:0:0:0:
512,384,76932,1,8,0:2:0:0:
281,273,77103,2,0,P|239:287|192:304,1,94.499997116089,2|0,3:2|0:0,0:0:0:0:
317,107,77446,1,2,3:2:0:0:
440,279,77617,1,10,0:2:0:0:
88,298,77789,6,0,B|78:235|50:179|50:179|73:128|135:127,1,225,6|0,3:2|3:2,0:0:0:0:
347,293,78303,1,10,0:2:0:0:
347,293,78389,1,2,0:2:0:0:
347,293,78475,1,2,3:2:0:0:
102,384,78646,1,0,0:0:0:0:
240,300,78818,1,0,3:2:0:0:
124,72,78989,5,10,0:2:0:0:
0,250,79161,2,0,P|41:235|158:190,1,168.75,2|0,0:2|0:0,0:0:0:0:
186,179,79503,1,2,3:2:0:0:
52,139,79675,1,8,0:2:0:0:
225,285,79846,1,2,0:2:0:0:
306,79,80018,1,0,3:2:0:0:
306,79,80103,1,0,3:2:0:0:
306,79,80189,1,2,3:2:0:0:
186,179,80361,1,8,0:2:0:0:
347,293,80532,5,2,0:0:0:0:
347,293,80618,1,2,0:0:0:0:
347,293,80703,2,0,P|392:277|437:262,1,94.499997116089,6|0,3:2|3:2,0:0:0:0:
303,183,81046,1,10,0:2:0:0:
439,54,81218,2,0,P|424:102|417:153,1,94.499997116089,2|0,0:2|3:2,0:0:0:0:
304,80,81561,1,0,3:2:0:0:
512,0,81732,1,10,0:2:0:0:
303,183,81903,5,0,0:0:0:0:
303,183,81989,1,0,0:0:0:0:
303,183,82075,2,0,P|236:157|168:139,1,141.749995674133,6|0,3:2|0:0,0:0:0:0:
136,127,82418,1,8,0:2:0:0:
0,293,82589,5,2,0:2:0:0:
51,220,82760,1,0,3:2:0:0:
144,219,82932,1,0,3:2:0:0:
133,384,83103,2,0,P|116:340|101:295,1,94.499997116089,8|0,0:2|0:0,0:0:0:0:
240,51,83446,5,6,3:2:0:0:
144,219,83617,1,2,3:2:0:0:
321,95,83789,1,10,0:2:0:0:
92,4,83961,2,0,P|108:48|123:93,1,94.499997116089,2|0,0:2|3:2,0:0:0:0:
284,193,84303,1,2,3:2:0:0:
101,295,84474,1,10,0:2:0:0:
212,99,84646,6,0,P|275:114|363:129,1,141.749995674133,6|0,3:2|0:0,0:0:0:0:
387,131,84989,2,0,P|392:100|403:75,1,47.2499985580445,0|0,1:2|1:2,0:0:0:0:
488,0,85161,1,8,0:2:0:0:
294,112,85332,1,2,3:2:0:0:
479,271,85503,1,0,0:0:0:0:
260,384,85675,5,10,0:2:0:0:
216,379,85760,1,8,0:2:0:0:
179,356,85846,1,10,0:2:0:0:
153,321,85932,1,8,0:2:0:0:
116,298,86017,1,10,0:2:0:0:
74,287,86103,1,8,0:2:0:0:
32,281,86189,6,0,P|31:190|108:141,1,188.999994232178,6|10,3:2|0:2,0:0:0:0:
304,87,86704,1,0,0:0:0:0:
183,0,86875,2,0,P|193:43|210:115,1,94.499997116089,0|2,3:2|3:2,0:0:0:0:
306,236,87218,1,10,0:2:0:0:
483,136,87389,6,0,B|447:125|403:118|403:118|380:98|380:98|346:96|303:86,1,188.999994232178,2|0,3:2|3:2,0:0:0:0:
117,238,87904,2,0,P|162:227|209:216,1,94.499997116089,8|0,0:2|0:0,0:0:0:0:
411,362,88246,1,8,0:2:0:0:
411,362,88332,1,8,0:2:0:0:
411,362,88418,1,10,0:2:0:0:
457,356,88503,1,8,0:2:0:0:
494,328,88589,1,10,3:2:0:0:
512,285,88675,1,8,0:2:0:0:
507,239,88761,2,0,L|497:177,1,47.2499985580445,10|8,0:2|0:2,0:0:0:0:
140,31,88932,5,10,1:2:0:0:
402,249,89103,1,10,1:2:0:0:
