osu file format v14

[General]
AudioFilename: audio.mp3
AudioLeadIn: 0
PreviewTime: 63389
Countdown: 0
SampleSet: Soft
StackLeniency: 0.7
Mode: 0
LetterboxInBreaks: 0
WidescreenStoryboard: 1

[Editor]
DistanceSpacing: 1
BeatDivisor: 2
GridSize: 16
TimelineZoom: 1.3

[Metadata]
Title:The story so far (TV Size)
TitleUnicode:The story so far (TV Size)
Artist:Akita Chisato
ArtistUnicode:秋田知里
Creator:KennethBBG
Version:Aurorance's Normal
Source:The Legend of Heroes 閃の軌跡 Northern War
Tags:Aurorance iredi aundy Falcom anime 英雄伝説 anime opening op j-pop jpop pop j-rock jrock rock japanese female vocal vocalist Eiyuu Densetsu: Sen no Kiseki Trails of Cold Steel
BeatmapID:3985408
BeatmapSetID:1929468

[Difficulty]
HPDrainRate:4
CircleSize:3.3
OverallDifficulty:4
ApproachRate:5.5
SliderMultiplier:0.999999999999999
SliderTickRate:1

[Events]
//Background and Video events
0,0,"BackG.jpg",0,0
Video,-140,"video (2).mp4"
//Break Periods
//Storyboard Layer 0 (Background)
//Storyboard Layer 1 (Fail)
//Storyboard Layer 2 (Pass)
//Storyboard Layer 3 (Foreground)
//Storyboard Layer 4 (Overlay)
//Storyboard Sound Samples

[TimingPoints]
1161,342.857142857143,4,2,1,22,1,0
5789,-100,4,2,1,40,0,0
6303,-100,4,2,1,45,0,0
6646,-100,4,2,1,70,0,0
17618,-111.111111111111,4,2,1,60,0,0
17961,-111.111111111111,4,2,1,30,0,0
20018,-111.111111111111,4,2,1,60,0,0
20703,-111.111111111111,4,2,1,30,0,0
22761,-111.111111111111,4,2,1,60,0,0
23446,-111.111111111111,4,2,1,30,0,0
23961,-111.111111111111,4,2,1,40,0,0
24646,-111.111111111111,4,2,1,30,0,0
25503,-111.111111111111,4,2,1,60,0,0
26189,-111.111111111111,4,2,1,30,0,0
27218,-111.111111111111,4,2,1,50,0,0
28075,-111.111111111111,4,2,1,55,0,0
28589,-100,4,2,1,55,0,0
39561,-100,4,2,1,50,0,0
47789,-100,4,2,1,55,0,0
50532,-100,4,2,1,50,0,0
53275,-100,4,2,1,55,0,0
56018,-100,4,2,1,60,0,0
58761,-100,4,2,1,65,0,0
59789,-100,4,2,1,70,0,0
60303,-100,4,2,1,65,0,0
61503,-100,4,2,1,80,0,0
62018,-100,4,2,1,50,0,0
63389,-100,4,2,1,40,0,0
64075,-100,4,2,1,80,0,1
69732,-100,4,2,1,75,0,1
75046,-100,4,2,1,80,0,1
80703,-100,4,2,1,75,0,1
86189,-100,4,2,1,70,0,1
88932,-100,4,2,1,75,0,1
89275,-100,4,2,1,75,0,0

[Colours]
Combo1 : 230,226,81
Combo2 : 60,119,67
Combo3 : 63,47,204
Combo4 : 228,105,228

[HitObjects]
53,91,6646,6,0,L|39:26,2,50,6|2|10,3:2|3:2|0:2,0:0:0:0:
121,164,7332,2,0,L|184:149,1,50,0|0,3:2|3:2,0:0:0:0:
216,182,7675,1,10,0:2:0:0:
216,182,7846,2,0,P|264:173|285:121,1,99.9999999999999,2|0,3:2|3:2,0:0:0:0:
262,85,8361,1,8,0:2:0:0:
341,23,8703,1,0,3:2:0:0:
341,23,8875,2,0,L|416:36,1,50,2|10,3:2|0:2,0:0:0:0:
432,68,9218,1,2,0:2:0:0:
432,68,9389,6,0,L|506:54,2,50,6|2|10,3:2|3:2|0:2,0:0:0:0:
381,154,10075,2,0,L|393:221,1,50,0|0,3:2|3:2,0:0:0:0:
429,242,10418,1,10,0:2:0:0:
429,242,10589,2,0,L|404:351,1,99.9999999999999,2|0,3:2|3:2,0:0:0:0:
367,370,11103,1,8,0:2:0:0:
285,312,11446,1,0,3:2:0:0:
285,312,11618,2,0,L|234:322,1,50,2|10,3:2|0:2,0:0:0:0:
197,353,11961,1,2,0:2:0:0:
197,353,12132,6,0,L|145:341,1,50,6|0,3:2|3:2,0:0:0:0:
114,304,12475,1,10,0:2:0:0:
162,216,12818,2,0,L|153:152,1,50,2|0,3:2|3:2,0:0:0:0:
183,126,13161,1,10,0:2:0:0:
183,126,13332,2,0,P|186:70|139:39,1,99.9999999999999,2|0,3:2|3:2,0:0:0:0:
108,25,13846,1,8,0:2:0:0:
25,80,14189,2,0,L|37:149,1,50,2|0,3:2|3:2,0:0:0:0:
66,167,14532,1,8,0:2:0:0:
10,249,14875,6,0,L|0:322,1,50,6|0,3:2|3:2,0:0:0:0:
26,343,15218,2,0,L|80:336,1,50,10|0,0:2|0:0,0:0:0:0:
113,369,15561,2,0,L|181:381,1,50,2|0,3:2|3:2,0:0:0:0:
209,356,15903,1,10,0:2:0:0:
209,356,16075,2,0,P|228:315|197:250,1,99.9999999999999,2|0,3:2|3:2,0:0:0:0:
174,232,16589,1,8,0:2:0:0:
213,140,16932,2,0,L|201:77,1,50,2|8,1:2|0:2,0:0:0:0:
226,46,17275,2,0,L|286:33,1,50,8|8,0:2|0:2,0:0:0:0:
321,65,17618,5,2,3:2:0:0:
321,65,17789,1,2,3:2:0:0:
447,16,18303,1,2,0:2:0:0:
504,92,18646,1,10,0:2:0:0:
504,92,18818,2,0,P|485:149|476:199,1,89.999997253418,2|2,0:2|0:2,0:0:0:0:
498,266,19503,2,0,P|495:309|434:333,1,89.999997253418,2|0,3:2|3:2,0:0:0:0:
414,327,20018,1,2,3:2:0:0:
345,268,20361,6,0,P|274:277|181:296,2,134.999995880127,2|2|10,3:2|0:2|0:2,0:0:0:0:
483,152,22075,2,0,P|493:99|452:58,1,89.999997253418,10|2,0:2|0:2,0:0:0:0:
392,34,22761,1,2,3:2:0:0:
325,93,23103,6,0,P|277:103|223:120,1,89.999997253418,2|8,3:2|0:2,0:0:0:0:
153,221,23961,1,2,0:2:0:0:
153,221,24132,2,0,L|101:210,1,44.999998626709,10|2,0:2|0:2,0:0:0:0:
76,180,24475,2,0,L|90:111,2,44.999998626709,2|2|8,3:2|0:2|0:2,0:0:0:0:
27,256,25161,1,2,0:2:0:0:
68,335,25503,1,2,3:2:0:0:
158,315,25846,5,2,3:2:0:0:
158,315,26018,2,0,P|212:322|264:355,2,89.999997253418,2|2|2,3:2|0:2|0:2,0:0:0:0:
107,247,27046,1,2,0:2:0:0:
107,247,27218,2,0,P|94:199|137:142,1,89.999997253418,2|8,3:2|0:2,0:0:0:0:
172,99,27903,1,2,0:2:0:0:
172,99,28075,2,0,L|164:42,2,44.999998626709,2|2|2,3:2|3:2|3:2,0:0:0:0:
217,119,28589,6,0,L|275:125,1,50,6|2,3:2|0:2,0:0:0:0:
312,103,28932,1,8,0:2:0:0:
408,129,29275,2,0,P|421:191|398:234,1,99.9999999999999,2|10,3:2|0:2,0:0:0:0:
376,262,29789,1,2,0:2:0:0:
282,226,30132,2,0,L|228:233,1,50,2|8,0:2|0:2,0:0:0:0:
184,217,30475,2,0,P|173:160|205:119,1,99.9999999999999,2|0,0:2|3:2,0:0:0:0:
240,108,30989,1,10,0:2:0:0:
186,23,31332,6,0,L|84:10,1,99.9999999999999,2|8,3:2|0:2,0:0:0:0:
42,33,31846,2,0,P|23:77|42:126,1,99.9999999999999,2|0,0:2|3:2,0:0:0:0:
75,161,32361,1,10,0:2:0:0:
170,130,32703,1,0,3:2:0:0:
231,209,33046,2,0,L|213:320,1,99.9999999999999,10|2,0:2|3:2,0:0:0:0:
281,383,33732,1,10,0:2:0:0:
368,335,34075,6,0,P|415:352|471:345,1,99.9999999999999,6|8,3:2|0:2,0:0:0:0:
510,328,34589,1,2,0:2:0:0:
452,253,34932,1,0,3:2:0:0:
452,253,35103,2,0,L|441:184,1,50,10|0,0:2|0:0,0:0:0:0:
482,170,35446,2,0,L|498:53,1,99.9999999999999,0|8,3:2|0:2,0:0:0:0:
413,13,36132,2,0,L|363:22,1,50,2|0,3:2|3:2,0:0:0:0:
325,54,36475,1,10,0:2:0:0:
279,145,36818,5,2,3:2:0:0:
279,145,36989,2,0,P|292:198|298:254,2,99.9999999999999,2|2|2,0:2|0:2|3:2,0:0:0:0:
194,90,38018,1,2,0:2:0:0:
194,90,38189,2,0,P|143:78|88:107,1,99.9999999999999,2|8,3:2|0:2,0:0:0:0:
63,128,38703,1,2,0:2:0:0:
63,128,38875,2,0,L|6:117,2,50,10|0|0,0:2|1:2|1:2,0:0:0:0:
111,216,39561,6,0,L|226:198,1,99.9999999999999,6|10,3:2|0:2,0:0:0:0:
250,170,40075,1,2,0:2:0:0:
343,219,40418,1,2,1:2:0:0:
343,219,40589,2,0,L|335:277,1,50,10|2,0:2|3:2,0:0:0:0:
259,331,41103,1,0,3:2:0:0:
259,331,41275,2,0,P|206:310|148:313,2,99.9999999999999,10|8|2,0:2|0:2|0:2,0:0:0:0:
300,368,42132,1,8,0:2:0:0:
300,368,42303,6,0,P|368:350|424:343,1,99.9999999999999,6|8,3:2|0:2,0:0:0:0:
432,316,42818,1,2,0:2:0:0:
500,200,43332,1,10,0:2:0:0:
500,200,43503,2,0,P|485:154|472:91,1,99.9999999999999,0|2,3:2|3:2,0:0:0:0:
438,68,44018,1,10,0:2:0:0:
361,132,44361,2,0,P|315:153|253:137,1,99.9999999999999,8|2,0:2|0:0,0:0:0:0:
223,134,44875,1,8,0:2:0:0:
223,134,45046,6,0,L|240:242,1,99.9999999999999,6|10,3:2|0:2,0:0:0:0:
270,272,45561,1,2,0:2:0:0:
205,348,45903,1,2,1:2:0:0:
205,348,46075,2,0,L|145:337,1,50,10|0,0:2|3:2,0:0:0:0:
66,377,46589,1,0,3:2:0:0:
66,377,46761,1,10,0:2:0:0:
1,300,47103,1,10,0:2:0:0:
53,215,47446,2,0,L|41:140,1,50,2|8,0:2|0:2,0:0:0:0:
7,132,47789,6,0,L|29:25,1,99.9999999999999,6|8,3:2|0:2,0:0:0:0:
123,4,48475,2,0,L|101:111,1,99.9999999999999,2|8,3:2|0:2,0:0:0:0:
135,147,48989,1,2,3:2:0:0:
135,147,49161,2,0,P|184:155|232:120,1,99.9999999999999,6|8,0:2|0:2,0:0:0:0:
286,50,49846,2,0,L|359:62,1,50,8|8,0:2|0:2,0:0:0:0:
370,94,50189,2,0,L|445:82,1,50,8|8,0:2|0:2,0:0:0:0:
461,114,50532,6,0,P|473:170|432:222,1,99.9999999999999,6|10,3:2|0:2,0:0:0:0:
415,237,51046,1,2,0:2:0:0:
333,189,51389,1,2,3:2:0:0:
333,189,51561,1,10,0:2:0:0:
273,269,51903,2,0,P|220:276|163:288,1,99.9999999999999,2|10,3:2|0:2,0:0:0:0:
138,320,52418,1,2,0:2:0:0:
73,243,52761,2,0,L|6:227,2,50,2|10|10,3:2|0:2|0:2,0:0:0:0:
109,208,53275,6,0,P|89:149|98:110,1,99.9999999999999,6|8,3:2|0:2,0:0:0:0:
120,69,53789,1,2,0:2:0:0:
201,126,54132,2,0,L|270:119,1,50,0|10,3:2|0:2,0:0:0:0:
291,149,54475,2,0,P|332:137|345:68,1,99.9999999999999,4|0,3:2|3:2,0:0:0:0:
378,44,54989,1,8,0:2:0:0:
463,106,55332,1,2,0:2:0:0:
463,106,55503,2,0,L|528:115,2,50,8|10|8,0:2|0:2|0:2,0:0:0:0:
428,142,56018,5,14,0:2:0:0:
428,142,56189,1,0,3:2:0:0:
474,236,56532,1,14,0:2:0:0:
474,236,56703,1,0,3:2:0:0:
430,326,57046,2,0,P|351:340|282:360,1,150,14|0,0:2|3:2,0:0:0:0:
237,341,57732,1,8,0:2:0:0:
298,262,58075,1,8,0:2:0:0:
208,217,58418,2,0,L|215:153,1,50,2|8,1:2|0:2,0:0:0:0:
196,120,58761,6,0,L|128:114,2,50,6|0|8,3:2|1:2|0:2,0:0:0:0:
228,81,59275,2,0,L|296:87,2,50,6|0|8,3:2|1:2|0:2,0:0:0:0:
214,33,59789,2,0,L|56:17,1,150,6|10,3:2|0:2,0:0:0:0:
5,99,60646,1,10,0:2:0:0:
5,99,60818,2,0,P|2:154|41:186,1,99.9999999999999,10|10,0:2|0:2,0:0:0:0:
128,225,61503,1,10,0:2:0:0:
128,225,61675,1,10,0:2:0:0:
27,360,64075,6,0,P|85:344|154:334,1,99.9999999999999,6|0,3:2|3:2,0:0:0:0:
160,302,64589,1,8,0:2:0:0:
243,356,64932,2,0,L|300:367,1,50,2|2,3:2|3:2,0:0:0:0:
339,343,65275,1,10,0:2:0:0:
339,343,65446,2,0,P|353:284|306:243,1,99.9999999999999,2|2,0:2|3:2,0:0:0:0:
292,234,65961,1,8,0:2:0:0:
292,234,66132,1,2,0:2:0:0:
238,149,66475,2,0,L|249:96,1,50,2|10,3:2|0:2,0:0:0:0:
281,62,66818,6,0,P|330:52|395:32,1,99.9999999999999,6|0,3:2|3:2,0:0:0:0:
425,22,67332,1,8,0:2:0:0:
499,88,67675,1,0,0:0:0:0:
415,139,68018,1,10,0:2:0:0:
415,139,68189,2,0,P|429:198|438:254,1,99.9999999999999,2|2,0:2|3:2,0:0:0:0:
469,281,68703,1,8,0:2:0:0:
469,281,68875,2,0,P|440:338|389:336,1,99.9999999999999,2|2,0:2|3:2,0:0:0:0:
369,312,69389,1,8,0:2:0:0:
286,368,69732,5,6,3:2:0:0:
226,295,70075,1,10,0:2:0:0:
226,295,70246,2,0,P|242:237|254:184,1,99.9999999999999,2|0,0:2|3:2,0:0:0:0:
287,162,70761,1,10,0:2:0:0:
222,85,71103,2,0,P|164:69|111:57,1,99.9999999999999,6|10,3:2|0:2,0:0:0:0:
89,24,71618,1,2,0:2:0:0:
9,83,71961,1,0,3:2:0:0:
9,83,72132,2,0,L|23:149,1,50,8|0,0:2|0:0,0:0:0:0:
58,163,72475,6,0,L|47:221,2,50,6|2|10,3:2|3:2|0:2,0:0:0:0:
106,150,72989,2,0,P|154:144|186:203,1,99.9999999999999,2|2,0:2|3:2,0:0:0:0:
227,216,73503,1,10,0:2:0:0:
227,216,73675,1,6,3:2:0:0:
151,281,74018,2,0,L|160:343,1,50,8|8,0:2|0:2,0:0:0:0:
191,368,74361,2,0,L|253:359,1,50,10|8,0:2|0:2,0:0:0:0:
279,329,74703,2,0,L|341:338,1,50,10|8,0:2|0:2,0:0:0:0:
368,366,75046,6,0,P|419:364|436:301,1,99.9999999999999,6|0,3:2|3:2,0:0:0:0:
413,283,75561,1,8,0:2:0:0:
488,218,75903,2,0,L|495:155,1,50,2|2,3:2|3:2,0:0:0:0:
474,127,76246,1,10,0:2:0:0:
474,127,76417,2,0,P|419:111|374:140,1,99.9999999999999,2|2,0:2|3:2,0:0:0:0:
351,168,76932,1,8,0:2:0:0:
351,168,77103,1,2,3:2:0:0:
303,93,77446,1,2,3:2:0:0:
303,93,77618,1,10,0:2:0:0:
303,93,77789,6,0,L|192:71,1,99.9999999999999,6|0,3:2|3:2,0:0:0:0:
157,90,78303,1,10,0:2:0:0:
206,176,78646,1,0,0:0:0:0:
138,250,78989,1,10,0:2:0:0:
138,250,79160,2,0,P|86:237|39:228,1,99.9999999999999,2|2,0:2|3:2,0:0:0:0:
11,194,79674,1,8,0:2:0:0:
11,194,79846,2,0,P|2:135|31:100,1,99.9999999999999,2|2,0:2|3:2,0:0:0:0:
68,80,80360,1,8,0:2:0:0:
144,144,80703,5,6,3:2:0:0:
211,70,81046,1,10,0:2:0:0:
211,70,81217,2,0,P|269:62|322:47,1,99.9999999999999,2|0,0:2|3:2,0:0:0:0:
345,16,81732,1,10,0:2:0:0:
433,62,82074,2,0,P|419:110|407:170,1,99.9999999999999,6|8,3:2|0:2,0:0:0:0:
439,199,82589,1,2,0:2:0:0:
359,258,82932,1,0,3:2:0:0:
359,258,83103,2,0,L|309:265,1,50,8|0,0:2|0:0,0:0:0:0:
263,246,83446,6,0,L|256:191,2,50,6|2|10,3:2|3:2|0:2,0:0:0:0:
226,281,83961,1,2,0:2:0:0:
135,239,84303,2,0,L|125:174,1,50,2|10,3:2|0:2,0:0:0:0:
87,158,84646,2,0,L|106:36,1,99.9999999999999,6|0,3:2|1:2,0:0:0:0:
141,26,85161,1,8,0:2:0:0:
141,26,85332,1,2,3:2:0:0:
235,57,85675,2,0,L|224:131,1,50,10|10,0:2|0:2,0:0:0:0:
264,148,86018,1,10,0:2:0:0:
264,148,86189,6,0,L|339:135,2,50,6|2|10,3:2|3:2|0:2,0:0:0:0:
193,219,86875,2,0,L|202:279,1,50,0|2,3:2|3:2,0:0:0:0:
235,304,87218,1,10,0:2:0:0:
235,304,87389,2,0,P|288:307|345:330,1,99.9999999999999,2|0,3:2|3:2,0:0:0:0:
381,311,87904,1,8,0:2:0:0:
437,230,88246,1,8,0:2:0:0:
437,230,88418,2,0,L|510:216,2,50,10|10|10,0:2|3:2|0:2,0:0:0:0:
404,199,88932,5,10,1:2:0:0:
404,199,89103,1,10,1:2:0:0:
