osu file format v14

[General]
AudioFilename: audio.ogg
AudioLeadIn: 0
PreviewTime:55535
Countdown: 0
SampleSet: Soft
StackLeniency: 0.7
Mode: 0
LetterboxInBreaks: 0
WidescreenStoryboard: 1

[Editor]
Bookmarks: 195,36558,56558,85649
DistanceSpacing: 1
BeatDivisor: 2
GridSize: 16
TimelineZoom: 2

[Metadata]
Title:Link ~past and future~ (TV Size)
TitleUnicode:リンク ~past and future~ (TV Size)
Artist:Akisato Konoha (CV: Koga Aoi)
ArtistUnicode:秋里コノハ (CV: 古賀葵)
Creator:tilda
Version:Amats' Normal
Source:16bitセンセーション ANOTHER LAYER
Tags:16bit Sensation japanese pop jpop j-pop KOTOKO Shinji Orito 折戸伸治 Tomoyuki Nakazawa 中沢伴行 anime ed ending Aniplex Studio Silver st.シルバー Amats
BeatmapID:4389641
BeatmapSetID:2088600

[Difficulty]
HPDrainRate:3
CircleSize:3
OverallDifficulty:4
ApproachRate:5
SliderMultiplier:1.3
SliderTickRate:1

[Events]
//Background and Video events
Video,-275,"mono.avi"
0,0,"JellyfinMediaPlayer_zJRty9g6WQ.jpg",0,0
//Break Periods
//Storyboard Layer 0 (Background)
//Storyboard Layer 1 (Fail)
//Storyboard Layer 2 (Pass)
//Storyboard Layer 3 (Foreground)
//Storyboard Layer 4 (Overlay)
//Storyboard Sound Samples

[TimingPoints]
195,454.545454545455,4,2,1,50,1,0
7467,-125,4,2,1,40,0,0
17467,-125,4,2,1,50,0,0
21104,-111.111111111111,4,2,2,50,0,0
21558,-111.111111111111,4,2,1,50,0,0
22013,-111.111111111111,4,2,1,50,0,0
27239,-111.111111111111,4,2,2,50,0,0
27922,-111.111111111111,4,2,1,50,0,0
28149,-111.111111111111,4,2,2,50,0,0
28376,-111.111111111111,4,2,1,50,0,0
33831,-111.111111111111,4,2,2,50,0,0
34058,-111.111111111111,4,2,1,50,0,0
36558,-111.111111111111,4,2,1,55,0,0
37467,-111.111111111111,4,2,2,55,0,0
38376,-111.111111111111,4,2,1,55,0,0
39285,-111.111111111111,4,2,2,55,0,0
39740,-111.111111111111,4,2,1,55,0,0
40195,-111.111111111111,4,2,1,55,0,0
41104,-111.111111111111,4,2,2,55,0,0
42013,-111.111111111111,4,2,1,55,0,0
42922,-111.111111111111,4,2,2,55,0,0
43376,-111.111111111111,4,2,1,55,0,0
44740,-111.111111111111,4,2,2,55,0,0
45194,-111.111111111111,4,2,1,55,0,0
45649,-111.111111111111,4,2,1,55,0,0
46558,-111.111111111111,4,2,2,55,0,0
47467,-111.111111111111,4,2,1,60,0,0
48376,-111.111111111111,4,2,2,60,0,0
48604,-111.111111111111,4,2,1,60,0,0
50195,-111.111111111111,4,2,2,60,0,0
50422,-111.111111111111,4,2,1,60,0,0
54740,-111.111111111111,4,2,1,60,0,0
56558,-100,4,2,3,85,0,1
57012,-100,4,2,3,85,0,1
85649,-100,4,2,3,85,0,0
87467,-100,4,2,3,50,0,0
89285,-100,4,2,3,25,0,0

[Colours]
Combo1 : 135,105,224
Combo2 : 66,210,207
Combo3 : 83,56,231
Combo4 : 164,232,38

[HitObjects]
13,52,7467,6,0,P|27:138|41:225,1,156,0|0,3:0|0:0,0:0:0:0:
60,228,8376,1,10,0:0:0:0:
173,343,9058,1,10,0:0:0:0:
173,343,9285,2,0,P|228:355|280:332,1,104,0|0,0:0|3:0,0:0:0:0:
359,285,10195,2,0,P|349:227|340:169,1,104,8|2,0:1|0:0,0:0:0:0:
348,78,11104,6,0,P|291:62|239:84,1,104,0|0,3:0|0:0,0:0:0:0:
147,61,12013,2,0,P|157:118|166:176,1,104,10|0,0:0|0:0,0:0:0:0:
185,194,12695,1,10,0:0:0:0:
185,194,12922,1,2,0:1:0:0:
257,268,13376,1,0,3:0:0:0:
339,204,13831,2,0,P|396:214|454:223,1,104,8|10,0:1|0:0,0:0:0:0:
498,308,14740,6,0,P|433:363|349:349,1,156,2|0,3:2|3:0,3:0:0:0:
341,340,15649,1,10,0:0:0:0:
192,375,16331,1,2,0:0:0:0:
192,375,16558,2,0,P|134:366|76:355,1,104,0|0,0:0|3:0,0:0:0:0:
20,279,17467,2,0,P|-11:215|30:127,1,156,8|2,0:1|0:0,0:0:0:0:
60,111,18376,6,0,P|117:122|175:131,1,104,0|0,3:0|0:0,0:0:0:0:
187,157,19058,1,0,0:0:0:0:
187,157,19285,1,10,0:0:0:0:
270,95,19740,2,0,L|258:37,1,52,2|0,0:0|0:0,0:0:0:0:
227,3,20195,2,0,P|169:13|111:22,1,104,2|0,0:0|3:0,0:0:0:0:
97,21,20876,1,2,0:0:0:0:
97,21,21104,1,10,0:2:0:0:
16,105,21558,1,2,0:0:0:0:
89,197,22013,6,0,P|142:215|197:197,1,116.999996429443,2|0,3:1|0:0,0:0:0:0:
255,94,22922,1,10,0:1:0:0:
332,181,23376,2,0,P|360:175|389:170,1,58.4999982147217,2|2,0:0|0:0,0:0:0:0:
432,165,23831,2,0,P|457:216|446:272,1,116.999996429443,0|0,0:0|3:0,0:0:0:0:
359,352,24740,2,0,P|301:341|243:332,1,116.999996429443,10|0,0:1|0:0,0:0:0:0:
176,236,25649,6,0,P|118:246|60:255,1,116.999996429443,2|0,3:2|0:0,0:0:0:0:
44,144,26558,1,8,0:1:0:0:
44,144,26785,2,0,P|101:134|159:124,1,116.999996429443,2|8,0:0|0:0,0:0:0:0:
196,144,27467,1,10,0:0:0:0:
312,124,27922,2,0,P|306:152|301:181,1,58.4999982147217,2|8,3:2|0:0,0:0:0:0:
292,220,28376,2,0,P|343:245|399:234,1,116.999996429443,8|10,0:1|0:0,0:0:0:0:
504,180,29285,6,0,P|494:122|484:64,1,116.999996429443,2|0,3:1|0:0,0:0:0:0:
384,4,30195,2,0,P|326:14|268:23,1,116.999996429443,10|0,0:2|0:0,0:0:0:0:
236,40,30876,1,10,0:0:0:0:
236,40,31104,2,0,P|210:91|221:147,1,116.999996429443,2|0,0:0|3:0,0:0:0:0:
328,195,32013,2,0,P|353:246|342:302,1,116.999996429443,8|2,0:1|0:0,0:0:0:0:
326,346,32695,1,0,0:0:0:0:
326,346,32922,6,0,P|268:335|210:326,1,116.999996429443,2|8,3:2|0:0,0:0:0:0:
100,360,33831,1,8,0:0:0:0:
100,360,34058,2,0,P|90:302|80:244,1,116.999996429443,0|10,3:0|0:0,0:0:0:0:
52,216,34740,1,10,0:0:0:0:
140,136,35195,1,2,3:2:0:0:
240,196,35649,2,0,P|297:185|355:176,1,116.999996429443,10|2,0:1|0:0,0:0:0:0:
467,209,36558,6,0,P|509:134|480:54,1,175.499994644165,2|0,3:1|0:0,0:0:0:0:
447,30,37467,1,8,0:1:0:0:
339,75,37922,2,0,P|317:71|281:65,1,58.4999982147217,2|0,0:0|0:0,0:0:0:0:
259,30,38376,2,0,P|202:41|144:50,1,116.999996429443,2|2,3:1|0:0,0:0:0:0:
112,33,39058,1,0,3:0:0:0:
112,33,39285,1,8,0:1:0:0:
1,73,39740,2,0,P|7:108|13:144,1,58.4999982147217,2|0,0:0|0:0,0:0:0:0:
50,142,40195,6,0,P|39:199|30:257,1,116.999996429443,2|0,3:1|0:0,0:0:0:0:
139,298,41104,2,0,P|195:309|246:283,1,116.999996429443,8|2,0:1|0:0,0:0:0:0:
283,262,41785,1,0,0:0:0:0:
283,262,42013,2,0,P|272:205|263:147,1,116.999996429443,2|2,3:1|0:0,0:0:0:0:
340,58,42922,1,10,0:1:0:0:
454,79,43376,2,0,P|447:114|441:150,1,58.4999982147217,2|0,3:2|3:0,0:0:0:0:
472,164,43831,6,0,P|461:221|452:279,1,116.999996429443,2|0,3:1|0:0,0:0:0:0:
364,356,44740,2,0,P|307:345|249:336,1,116.999996429443,8|2,0:1|0:0,0:0:0:0:
216,360,45422,1,0,0:0:0:0:
216,360,45649,1,2,3:1:0:0:
167,253,46104,1,2,0:0:0:0:
260,180,46558,2,0,P|248:122|239:64,1,116.999996429443,8|2,0:1|0:0,0:0:0:0:
136,8,47467,6,0,P|78:19|20:28,1,116.999996429443,2|2,3:2|3:2,0:0:0:0:
0,68,48149,1,2,0:0:0:0:
0,68,48376,2,0,P|11:125|20:183,1,116.999996429443,8|2,0:1|3:2,0:0:0:0:
99,268,49285,2,0,P|134:262|170:256,1,58.4999982147217,0|2,3:0|3:2,0:0:0:0:
185,228,49740,2,0,P|220:234|256:240,1,58.4999982147217,2|0,3:2|3:2,0:0:0:0:
268,271,50195,2,0,P|325:259|383:250,1,116.999996429443,10|2,3:1|3:2,3:0:0:0:
486,194,51104,6,0,P|512:142|500:86,1,116.999996429443,2|0,3:1|3:0,0:0:0:0:
472,58,51785,1,2,3:2:0:0:
472,58,52013,2,0,P|436:64|400:70,1,58.4999982147217,2|2,3:1|3:2,0:0:0:0:
380,90,52467,2,0,P|351:85|322:79,1,58.4999982147217,2|2,3:2|3:2,0:0:0:0:
284,66,52922,1,4,3:0:0:0:
256,192,53035,12,8,54740,3:0:0:0:
234,126,56558,6,0,P|297:96|368:127,1,130,6|8,3:1|0:0,0:0:0:0:
401,183,57240,2,0,P|388:246|378:310,1,130,2|2,0:0|0:0,0:0:0:0:
296,336,57922,2,0,P|264:329|232:324,1,65,8|2,0:0|0:0,0:0:0:0:
152,352,58376,1,0,3:0:0:0:
67,205,58831,1,8,0:0:0:0:
221,135,59285,2,0,P|252:142|284:147,1,65,0|2,3:0|0:0,0:0:0:0:
348,203,59740,2,0,P|379:196|411:191,1,65,10|2,0:0|0:0,0:0:0:0:
490,160,60195,6,0,P|509:124|489:32,1,130,2|8,3:2|0:0,0:0:0:0:
419,1,60876,2,0,P|355:14|291:24,1,130,2|2,0:0|0:0,0:0:0:0:
210,19,61558,1,8,0:0:0:0:
210,19,61785,2,0,P|191:55|211:147,1,130,2|0,0:0|0:0,0:0:0:0:
266,198,62467,1,10,0:0:0:0:
431,160,62922,2,0,P|437:191|442:223,1,65,2|2,3:1|0:0,0:0:0:0:
512,274,63376,2,0,P|505:305|500:337,1,65,8|2,0:0|0:0,0:0:0:0:
418,360,63831,6,0,P|356:378|297:355,1,130,6|8,3:2|0:0,0:0:0:0:
176,235,64740,2,0,P|143:241|112:247,1,65,0|2,3:0|0:0,0:0:0:0:
35,223,65195,1,8,0:0:0:0:
35,223,65422,2,0,P|12:163|30:102,1,130,2|0,0:0|0:0,0:0:0:0:
88,41,66104,1,8,0:0:0:0:
88,41,66331,2,0,P|152:54|216:64,1,130,2|2,0:0|0:0,0:0:0:0:
295,34,67013,1,8,0:0:0:0:
356,190,67467,6,0,P|296:212|235:194,1,130,2|8,3:1|0:0,0:0:0:0:
171,146,68149,1,2,0:0:0:0:
171,146,68376,2,0,P|177:114|183:82,1,65,0|10,3:0|0:0,0:0:0:0:
113,44,68831,1,8,0:0:0:0:
113,44,69058,1,6,3:2:0:0:
27,190,69513,2,0,P|33:221|38:253,1,65,2|8,3:1|0:0,0:0:0:0:
76,335,69967,1,2,3:1:0:0:
76,335,70195,2,0,P|107:328|139:323,1,65,2|2,3:2|3:2,0:0:0:0:
198,261,70649,2,0,P|229:267|261:272,1,65,10|2,3:2|3:1,0:0:0:0:
327,325,71104,6,0,P|388:343|448:321,1,130,6|8,3:2|0:0,0:0:0:0:
507,261,71785,2,0,P|494:197|484:133,1,130,2|2,0:0|0:0,0:0:0:0:
463,50,72467,2,0,P|431:56|399:61,1,65,8|2,0:0|0:0,0:0:0:0:
327,15,72922,1,0,3:0:0:0:
198,124,73376,1,8,0:0:0:0:
349,199,73831,2,0,P|341:230|336:262,1,65,0|2,3:0|0:0,0:0:0:0:
319,345,74285,2,0,P|287:338|255:333,1,65,10|2,0:0|0:0,0:0:0:0:
181,375,74740,6,0,P|117:363|53:353,1,130,2|8,3:1|0:0,0:0:0:0:
0,192,75649,2,0,P|6:160|12:128,1,65,2|2,3:1|0:0,0:0:0:0:
49,51,76104,1,8,0:0:0:0:
49,51,76331,2,0,P|109:28|170:47,1,130,6|2,3:2|3:1,0:0:0:0:
248,80,77013,2,0,P|241:111|236:143,1,65,10|2,0:0|0:0,0:0:0:0:
157,163,77467,1,0,3:0:0:0:
157,163,77695,2,0,P|163:194|169:226,1,65,10|10,3:1|3:1,0:0:0:0:
199,311,78149,1,10,3:2:0:0:
199,311,78376,6,0,P|254:280|317:289,1,130,6|8,3:2|0:2,0:0:0:0:
477,346,79285,2,0,P|486:281|500:218,1,130,0|10,3:0|0:1,0:0:0:0:
473,143,79967,1,2,0:0:0:0:
473,143,80195,2,0,P|441:148|408:153,1,65,2|0,3:2|0:0,0:0:0:0:
352,216,80649,1,8,0:2:0:0:
183,200,81104,2,0,P|177:168|171:136,1,65,0|2,3:0|0:0,0:0:0:0:
86,130,81558,2,0,P|91:98|97:65,1,65,10|2,0:1|0:0,0:0:0:0:
170,24,82013,6,0,P|230:2|291:19,1,130,2|8,3:2|0:0,0:0:0:0:
431,113,82922,1,0,3:0:0:0:
294,212,83376,2,0,P|301:243|306:275,1,65,10|0,0:1|0:0,0:0:0:0:
255,344,83831,1,8,0:1:0:0:
255,344,84058,1,8,0:1:0:0:
192,282,84285,2,0,P|161:288|129:293,1,65,10|8,0:1|0:1,0:0:0:0:
58,339,84740,1,8,3:0:0:0:
58,339,84967,1,2,3:2:0:0:
0,272,85195,2,0,P|7:241|12:209,1,65,2|10,3:2|3:0,0:0:0:0:
81,160,85649,5,6,3:1:0:0:
256,192,85763,12,2,89285,0:0:0:0:
