osu file format v14

[General]
AudioFilename: audio.mp3
AudioLeadIn: 0
PreviewTime: 52239
Countdown: 0
SampleSet: Soft
StackLeniency: 0.7
Mode: 2
LetterboxInBreaks: 0
WidescreenStoryboard: 0

[Editor]
DistanceSpacing: 1
BeatDivisor: 4
GridSize: 32
TimelineZoom: 3.099999

[Metadata]
Title:Symphony Of The Lost Souls
TitleUnicode:失われた魂のシンフォニー
Artist:Akiri
ArtistUnicode:あきり
Creator:rinkiha
Version:Salvation
Source:osu!mania 7K World Cup 2024
Tags:featured artist fa electronic instrumental mwc 2024 mwc2024 mwc7k2024 orchestral psystyle psytrance dubstep hardcore 200step hardstyle melodic rawstyle breakcore bass house high tech chiptune symphonic speed metal
BeatmapID:4491570
BeatmapSetID:2134741

[Difficulty]
HPDrainRate:4
CircleSize:4.2
OverallDifficulty:9.9
ApproachRate:9.9
SliderMultiplier:2
SliderTickRate:2

[Events]
//Background and Video events
0,0,"Akiri_-_Symphony_Of_The_Lost_Souls_2560x1440.jpg",0,0
//Break Periods
2,48089,53419
2,135458,148507
2,246115,260878
2,278459,290794
//Storyboard Layer 0 (Background)
//Storyboard Layer 1 (Fail)
//Storyboard Layer 2 (Pass)
//Storyboard Layer 3 (Foreground)
//Storyboard Layer 4 (Overlay)
//Storyboard Sound Samples

[TimingPoints]
12025,375,4,2,1,60,1,0
24023,333.333333333333,4,2,3,60,1,0
34689,300,4,2,3,60,1,0
53884,300,4,2,1,60,1,0
75034,-37.037037037037,4,2,1,60,0,0
75409,-100,4,2,1,60,0,0
84634,-37.037037037037,4,2,1,60,0,0
85009,-100,4,2,1,60,0,0
87709,-37.037037037037,4,2,1,60,0,0
87859,-100,4,2,1,60,0,0
101884,-37.037037037037,4,2,1,60,0,0
102109,-100,4,2,1,60,0,0
111484,-83.3333333333333,4,2,1,70,0,0
111784,-100,4,2,1,70,0,0
112084,-37.037037037037,4,2,1,70,0,0
113209,-100,4,2,1,70,0,0
113884,-83.3333333333333,4,2,1,70,0,0
114184,-100,4,2,1,70,0,0
114484,-37.037037037037,4,2,1,70,0,0
115684,-100,4,2,1,70,0,0
116284,-83.3333333333333,4,2,1,70,0,0
116584,-100,4,2,1,70,0,0
116884,-37.037037037037,4,2,1,70,0,0
118009,-100,4,2,1,70,0,0
118684,-83.3333333333333,4,2,1,70,0,0
118984,-100,4,2,1,70,0,0
119284,-37.037037037037,4,2,1,70,0,0
119809,-100,4,2,1,70,0,0
119884,-100,4,2,1,50,0,0
121084,-37.037037037037,4,2,1,70,0,0
121309,-100,4,2,1,70,0,0
121684,-37.037037037037,4,2,1,70,0,0
121834,-100,4,2,1,70,0,0
122284,-37.037037037037,4,2,1,70,0,0
122434,-100,4,2,1,70,0,0
123184,-37.037037037037,4,2,1,70,0,0
123709,-100,4,2,1,70,0,0
124084,-37.037037037037,4,2,1,70,0,0
124234,-100,4,2,1,70,0,0
124684,-37.037037037037,4,2,1,70,0,0
124909,-100,4,2,1,70,0,0
125584,-37.037037037037,4,2,1,70,0,0
126109,-100,4,2,1,70,0,0
126484,-37.037037037037,4,2,1,70,0,0
126634,-100,4,2,1,70,0,0
127084,-37.037037037037,4,2,1,70,0,0
127309,-100,4,2,1,70,0,0
127984,-37.037037037037,4,2,1,70,0,0
128509,-100,4,2,1,70,0,0
128884,-37.037037037037,4,2,1,70,0,0
129109,-100,4,2,1,70,0,0
129484,-100,4,2,1,50,0,0
130687,285.714294433594,4,2,1,60,1,0
148972,272.727264404297,4,2,1,60,1,0
166426,266.666656494141,4,2,1,60,1,0
181359,-100,4,2,1,50,0,0
182692,-100,4,2,1,65,0,0
183492,260.869567871094,4,2,1,60,1,0
183492,-40,4,2,1,80,0,0
183687,-100,4,2,1,80,0,0
185578,-40,4,2,1,80,0,0
185774,-100,4,2,1,80,0,0
189752,-40,4,2,1,80,0,0
189948,-100,4,2,1,80,0,0
191839,-40,4,2,1,80,0,0
191970,-100,4,2,1,80,0,0
192361,-40,4,2,1,80,0,0
192622,-100,4,2,1,80,0,0
193405,-40,4,2,1,80,0,0
193535,-100,4,2,1,80,0,0
193926,-40,4,2,1,80,0,0
194122,-100,4,2,1,80,0,0
194970,-100,4,2,1,80,0,0
195492,-40,4,2,1,80,0,0
195752,-100,4,2,1,80,0,0
196013,-40,4,2,1,80,0,0
196144,-100,4,2,1,80,0,0
196535,-40,4,2,1,80,0,0
196796,-100,4,2,1,80,0,0
197578,-40,4,2,1,80,0,0
197709,-100,4,2,1,80,0,0
198100,-40,4,2,1,80,0,0
198296,-100,4,2,1,80,0,0
198622,-40,4,2,1,80,0,0
198752,-100,4,2,1,80,0,0
200187,-40,4,2,1,80,0,0
200905,-100,4,2,1,80,0,0
201231,-40,4,2,1,80,0,0
201426,-100,4,2,1,80,0,0
202013,-40,4,2,1,80,0,0
202470,-100,4,2,1,80,0,0
204361,-40,4,2,1,80,0,0
204557,-100,4,2,1,80,0,0
205405,-40,4,2,1,80,0,0
205535,-100,4,2,1,80,0,0
206448,-40,4,2,1,80,0,0
206644,-100,4,2,1,80,0,0
208535,-40,4,2,1,80,0,0
208731,-100,4,2,1,80,0,0
209057,-40,4,2,1,80,0,0
209318,-100,4,2,1,80,0,0
210100,-40,4,2,1,80,0,0
210818,-100,4,2,1,80,0,0
211144,-40,4,2,1,80,0,0
211339,-100,4,2,1,80,0,0
211535,-40,4,2,1,80,0,0
212057,-100,4,2,1,80,0,0
212709,-40,4,2,1,80,0,0
212905,-100,4,2,1,80,0,0
213231,-40,4,2,1,80,0,0
213426,-100,4,2,1,80,0,0
214796,-40,4,2,1,80,0,0
214992,-100,4,2,1,80,0,0
215839,-100,4,2,1,60,0,0
216883,240,4,2,1,60,1,0
224563,230.769226074219,4,2,1,60,1,0
224563,-40,4,2,1,60,0,0
224678,-100,4,2,1,60,0,0
225486,-100,4,2,1,70,0,0
231947,222.222229003906,4,2,1,70,1,0
239058,214.285720825195,4,2,1,70,1,0
244629,-100,4,2,1,50,0,0
245915,-100,4,2,1,60,0,0
260486,-100,4,2,1,40,0,0
266486,222.222229003906,4,2,1,40,1,0
267374,230.769226074219,4,2,1,40,1,0
268297,240,4,2,1,40,1,0
269257,260.869567871094,4,2,1,40,1,0
270300,285.714294433594,4,2,1,40,1,0
272585,352.941162109375,4,2,1,40,1,0
273996,315.789459228516,4,2,1,40,1,0
275259,250,4,2,1,50,1,0
275509,-100,4,2,1,47,0,0
275759,-100,4,2,1,45,0,0
276009,-100,4,2,1,42,0,0
276259,-100,4,2,1,40,0,0
276509,-100,4,2,1,37,0,0
276759,-100,4,2,1,35,0,0
277009,-100,4,2,1,32,0,0
277259,-100,4,2,1,30,0,0
277509,-100,4,2,1,27,0,0
277759,-100,4,2,1,25,0,0
278009,-100,4,2,1,22,0,0
278259,-100,4,2,1,20,0,0
291259,-100,4,2,1,50,0,0
300009,-100,4,2,1,7,0,0
300259,-100,4,2,1,10,0,0
300509,-100,4,2,1,13,0,0
300759,-100,4,2,1,15,0,0
301009,-100,4,2,1,18,0,0
301259,-100,4,2,1,20,0,0
301509,-100,4,2,1,23,0,0
301759,-100,4,2,1,25,0,0
302009,-100,4,2,1,28,0,0
302259,-100,4,2,1,30,0,0
302509,-100,4,2,1,33,0,0
302759,-100,4,2,1,35,0,0
303009,-100,4,2,1,38,0,0
303259,-100,4,2,1,40,0,0
303509,-100,4,2,1,43,0,0
303759,-100,4,2,1,45,0,0
304009,-100,4,2,1,48,0,0
304259,-100,4,2,1,50,0,0
304509,-100,4,2,1,53,0,0
304759,-100,4,2,1,55,0,0
305009,-100,4,2,1,58,0,0
305259,-100,4,2,1,60,0,0
307259,-100,4,2,1,70,0,0
321259,-100,4,2,1,50,0,0
321509,-100,4,2,1,55,0,0
321884,-100,4,2,1,60,0,0
323259,-100,4,2,1,50,0,0
323321,-100,4,2,1,55,0,0
323384,-100,4,2,1,60,0,0
323446,-100,4,2,1,65,0,0
323509,-100,4,2,1,70,0,0
327259,-100,4,2,1,60,0,0
331259,-100,4,2,1,70,0,0
335259,-100,4,2,1,60,0,0
337258,240,4,2,2,60,1,0
337738,-100,4,2,2,65,0,0
338218,-100,4,2,2,70,0,0
338578,-100,4,2,2,75,0,0
339538,-40,4,2,2,80,0,0
339898,-100,4,2,2,80,0,0
347218,-40,4,2,2,80,0,0
347578,-100,4,2,2,80,0,0
354898,-40,4,2,2,80,0,0
355258,-100,4,2,2,80,0,0
362578,-40,4,2,2,80,0,0
362938,-100,4,2,2,80,0,0
366057,260.869567871094,4,2,2,80,1,0
367100,285.714294433594,4,2,2,80,1,0
368242,333.333343505859,4,2,2,80,1,0
369575,400,4,2,2,75,1,0
370375,375,4,2,2,70,1,0
371135,300,4,2,1,80,1,0
371435,-100,4,2,1,77,0,0
371735,-100,4,2,1,75,0,0
372035,-100,4,2,1,72,0,0
372335,-100,4,2,1,70,0,0
372635,-100,4,2,1,67,0,0
372935,-100,4,2,1,65,0,0
373235,-100,4,2,1,62,0,0
373535,-100,4,2,1,60,0,0
373835,-100,4,2,1,57,0,0
374135,-100,4,2,1,55,0,0
374435,-100,4,2,1,52,0,0
374735,-100,4,2,1,50,0,0
375035,-100,4,2,1,47,0,0
375335,-100,4,2,1,45,0,0
375635,-100,4,2,1,42,0,0
375935,-100,4,2,1,40,0,0
376235,-100,4,2,1,37,0,0
376535,-100,4,2,1,35,0,0
376835,-100,4,2,1,32,0,0
377135,-100,4,2,1,30,0,0
377435,-100,4,2,1,27,0,0
377735,-100,4,2,1,25,0,0
378035,-100,4,2,1,22,0,0
378335,-100,4,2,1,20,0,0
378635,-100,4,2,1,17,0,0
378935,-100,4,2,1,15,0,0
379235,-100,4,2,1,12,0,0
379535,-100,4,2,1,10,0,0

[Colours]
Combo1 : 255,0,0
Combo2 : 255,128,64

[HitObjects]
256,192,21775,12,0,22900,0:0:0:0:
148,234,23275,5,0,0:0:0:0:
123,237,23368,1,0,0:0:0:0:
101,227,23462,1,0,0:0:0:0:
88,206,23556,1,0,0:0:0:0:
89,182,23650,1,0,0:0:0:0:
103,162,23743,1,0,0:0:0:0:
126,153,23837,1,0,0:0:0:0:
150,159,23931,1,0,0:0:0:0:
338,337,24023,6,0,P|399:297|497:78,2,300,8|0|8,0:0|0:0|0:0,0:0:0:0:
174,337,25356,6,0,P|113:297|15:78,1,300,8|0,0:0|0:0,0:0:0:0:
141,86,26022,2,0,B|241:80|241:80|228:196,1,200,8|8,0:0|0:0,0:0:0:0:
120,317,26689,6,0,P|67:295|132:202,1,200,8|2,0:0|0:0,0:0:0:0:
243,193,27189,2,0,L|347:179,2,100,0|2|0,0:0|0:0|0:0,0:0:0:0:
123,295,27689,2,0,L|117:193,1,100,8|0,0:0|0:0,0:0:0:0:
383,298,28022,6,0,P|448:238|382:180,1,200,8|0,0:0|0:0,0:0:0:0:
270,169,28522,1,0,0:0:0:0:
31,235,28689,2,0,L|135:220,1,100,8|0,0:0|0:0,0:0:0:0:
129,220,29022,2,0,L|25:205,1,100,8|0,0:0|0:0,0:0:0:0:
273,333,29356,6,0,P|334:293|432:74,2,300,8|0|8,0:0|0:0|0:0,0:0:0:0:
70,263,30689,6,0,P|78:180|273:148,1,300,8|2,0:0|0:0,0:0:0:0:
371,86,31356,2,0,B|271:80|271:80|284:196,1,200,8|8,0:0|0:0,0:0:0:0:
120,317,32022,6,0,P|67:295|132:202,1,200,8|0,0:0|0:0,0:0:0:0:
243,193,32522,2,0,L|347:179,2,100,2|2|0,0:0|0:0|0:0,0:0:0:0:
123,295,33022,2,0,L|117:193,1,100,8|0,0:0|0:0,0:0:0:0:
383,298,33355,6,0,P|449:238|383:180,1,200,8|0,0:0|0:0,0:0:0:0:
270,169,33855,1,0,0:0:0:0:
31,235,34022,2,0,L|135:220,1,100,8|0,0:0|0:0,0:0:0:0:
249,163,34355,2,0,L|145:148,1,100,8|0,0:0|0:0,0:0:0:0:
404,318,34689,6,0,P|458:282|397:191,1,200,8|0,0:0|0:0,0:0:0:0:
281,180,35139,2,0,P|285:119|403:89,1,200
280,59,35589,2,0,L|168:56,1,100,8|0,0:0|0:0,0:0:0:0:
305,295,35889,6,0,L|327:88,1,200,8|0,0:0|0:0,0:0:0:0:
205,88,36339,2,0,B|104:79|104:79|213:73,1,200
324,62,36789,2,0,L|434:53,1,100,8|0,0:0|0:0,0:0:0:0:
157,309,37089,6,0,P|94:295|168:237,1,200,8|0,0:0|0:0,0:0:0:0:
282,224,37539,2,0,P|329:196|408:56,1,200
280,62,37989,2,0,L|174:58,1,100,8|0,0:0|0:0,0:0:0:0:
305,325,38289,6,0,B|316:224|316:224|206:204,1,200,8|2,0:0|0:0,0:0:0:0:
100,191,38739,1,0,0:0:0:0:
344,183,38889,2,0,L|446:175,1,100,8|0,0:0|0:0,0:0:0:0:
443,175,39189,2,0,L|344:183,1,100,8|2,0:0|0:0,0:0:0:0:
108,318,39489,6,0,P|54:282|115:191,1,200,8|2,0:0|0:0,0:0:0:0:
231,180,39939,2,0,P|227:119|109:89,1,200
232,59,40389,2,0,L|344:56,1,100,8|0,0:0|0:0,0:0:0:0:
207,295,40689,6,0,L|185:88,1,200,8|2,0:0|0:0,0:0:0:0:
307,88,41139,2,0,B|408:79|408:79|299:73,1,200
188,62,41589,2,0,L|78:53,1,100,8|0,0:0|0:0,0:0:0:0:
355,309,41889,6,0,P|418:295|344:237,1,200,8|2,0:0|0:0,0:0:0:0:
230,224,42339,2,0,P|183:196|104:56,1,200
232,62,42789,2,0,L|338:58,1,100,8|0,0:0|0:0,0:0:0:0:
207,325,43089,6,0,B|196:224|196:224|306:204,1,200,8|2,0:0|0:0,0:0:0:0:
412,191,43539,1,0,0:0:0:0:
168,183,43689,2,0,L|66:175,1,100,8|0,0:0|0:0,0:0:0:0:
68,175,43989,2,0,L|168:183,1,100,8|0,0:0|0:0,0:0:0:0:
405,108,44289,5,8,0:0:0:0:
256,192,44439,12,0,47889,0:0:0:0:
409,238,53884,6,0,L|417:103,1,100,6|0,0:0|0:0,0:0:0:0:
365,129,54109,1,0,0:0:0:0:
315,125,54184,1,0,0:0:0:0:
265,122,54259,1,0,0:0:0:0:
334,106,54334,2,0,L|343:47,1,50
190,282,54484,6,0,L|136:282,1,50,2|0,0:0|0:0,0:0:0:0:
140,282,54634,2,0,L|190:282,1,50
260,249,54784,2,0,L|273:166,1,50
195,183,54934,2,0,L|182:100,1,50
344,117,55084,6,0,L|455:111,2,100,2|0|0,0:0|0:0|0:0,0:0:0:0:
224,105,55534,2,0,L|174:102,1,50
335,282,55684,6,0,L|343:220,3,50,2|0|0|0,0:0|0:0|0:0|0:0,0:0:0:0:
267,218,55984,2,0,L|204:215,1,50
291,169,56134,2,0,L|296:115,1,50
143,263,56284,6,0,P|151:203|243:161,1,150,2|0,0:0|0:0,0:0:0:0:
299,152,56584,2,0,L|243:150,1,50
198,147,56734,2,0,L|142:145,1,50
306,98,56884,6,0,L|228:93,1,50,2|0,0:0|0:0,0:0:0:0:
205,93,57034,2,0,L|188:20,1,50
244,25,57184,2,0,L|300:21,1,50
293,21,57334,2,0,L|244:25,1,50
86,264,57484,6,0,L|81:140,1,100,2|0,0:0|0:0,0:0:0:0:
184,138,57784,1,0,0:0:0:0:
58,136,57934,1,0,0:0:0:0:
320,264,58084,2,0,L|325:140,1,100,2|0,0:0|0:0,0:0:0:0:
222,138,58384,1,0,0:0:0:0:
348,136,58534,1,0,0:0:0:0:
121,275,58684,6,0,L|240:268,1,100,2|0,0:0|0:0,0:0:0:0:
271,264,58909,1,0,0:0:0:0:
221,260,58984,1,0,0:0:0:0:
171,257,59059,1,0,0:0:0:0:
121,256,59134,2,0,L|172:251,1,50
330,215,59284,6,0,L|335:159,1,50,2|0,0:0|0:0,0:0:0:0:
258,150,59434,2,0,L|201:138,1,50
285,95,59584,2,0,L|292:38,1,50
216,34,59734,2,0,L|272:28,1,50
427,311,59884,6,0,L|312:299,2,100,2|0|0,0:0|0:0|0:0,0:0:0:0:
304,281,60334,2,0,L|253:275,1,50
413,227,60484,1,2,0:0:0:0:
416,178,60559,1,0,0:0:0:0:
386,139,60634,1,0,0:0:0:0:
338,130,60709,1,0,0:0:0:0:
264,120,60784,2,0,L|251:71,1,50
327,51,60934,2,0,L|382:36,1,50
222,258,61084,6,0,L|59:251,1,150,2|0,0:0|0:0,0:0:0:0:
147,228,61384,2,0,L|204:220,1,50
147,228,61534,2,0,L|90:220,1,50
264,177,61684,6,0,L|333:168,1,50,2|0,0:0|0:0,0:0:0:0:
313,170,61834,2,0,L|264:177,1,50
187,172,61984,1,0,0:0:0:0:
179,123,62059,1,0,0:0:0:0:
207,83,62134,1,0,0:0:0:0:
255,73,62209,1,0,0:0:0:0:
89,310,62284,6,0,L|202:301,1,100,2|0,0:0|0:0,0:0:0:0:
312,275,62584,2,0,L|206:269,1,100,8|2,0:3|0:3,0:0:0:0:
162,263,62809,2,0,L|161:206,1,50,0|2,0:0|0:3,0:0:0:0:
282,181,63034,1,2,0:3:0:0:
232,177,63109,1,2,0:3:0:0:
182,173,63184,1,2,0:3:0:0:
132,169,63259,1,2,0:3:0:0:
207,145,63334,2,0,L|212:92,1,50,8|0,0:3|0:0,0:0:0:0:
34,87,63484,6,0,L|199:77,1,150,2|0,0:0|0:0,0:0:0:0:
134,64,63784,2,0,L|83:56,1,50
84,56,63934,2,0,L|134:64,1,50
291,206,64084,2,0,L|206:198,1,50,8|0,0:0|0:0,0:0:0:0:
191,206,64234,2,0,L|276:198,1,50
313,174,64384,2,0,L|320:108,1,50
241,106,64534,2,0,L|234:40,1,50
401,254,64684,6,0,L|284:246,2,100,2|0|0,0:0|0:0|0:0,0:0:0:0:
279,220,65134,2,0,L|271:165,1,50
433,156,65284,2,0,L|355:151,1,50,8|0,0:0|0:0,0:0:0:0:
318,124,65434,2,0,L|305:44,1,50
385,63,65584,2,0,L|393:13,1,50
236,212,65734,2,0,L|173:209,1,50
338,237,65884,6,0,P|324:163|246:141,1,150,2|0,0:0|0:0,0:0:0:0:
337,120,66184,2,0,L|347:69,1,50
274,206,66334,2,0,L|264:155,1,50
93,178,66484,6,0,L|84:114,1,50,8|0,0:0|0:0,0:0:0:0:
159,106,66634,2,0,L|227:90,1,50
132,79,66784,2,0,L|125:24,1,50
203,137,66934,2,0,L|210:82,1,50
53,338,67084,6,0,L|168:332,1,100,2|0,0:0|0:0,0:0:0:0:
279,321,67384,1,0,0:0:0:0:
149,313,67534,1,0,0:0:0:0:
459,338,67684,2,0,L|344:332,1,100,8|0,0:0|0:0,0:0:0:0:
233,321,67984,1,0,0:0:0:0:
363,313,68134,1,0,0:0:0:0:
129,282,68284,6,0,L|300:273,1,150,2|0,0:0|0:0,0:0:0:0:
330,266,68584,2,0,L|399:258,1,50
330,266,68734,2,0,L|280:260,1,50
112,219,68884,6,0,L|109:156,1,50,8|0,0:0|0:0,0:0:0:0:
186,174,69034,2,0,L|197:120,1,50
122,113,69184,2,0,L|63:108,1,50
124,69,69334,2,0,L|185:64,1,50
324,283,69484,6,0,L|217:276,2,100,2|0|0,0:0|0:0|0:0,0:0:0:0:
201,247,69934,2,0,L|259:242,1,50
404,230,70084,2,0,L|332:227,1,50,8|0,0:0|0:0,0:0:0:0:
354,227,70234,2,0,L|404:230,1,50
479,215,70384,2,0,L|483:155,1,50
328,150,70534,2,0,L|256:145,1,50
108,262,70684,6,0,P|187:196|246:195,1,150,2|0,0:0|0:0,0:0:0:0:
306,183,70984,2,0,L|316:114,1,50
240,121,71134,2,0,L|308:113,1,50
445,101,71284,6,0,L|385:100,1,50,8|0,0:0|0:0,0:0:0:0:
329,92,71434,2,0,L|316:23,1,50
394,34,71584,2,0,L|454:35,1,50
370,216,71734,2,0,L|357:147,1,50
196,171,71884,6,0,L|69:166,1,100,2|0,0:0|0:0,0:0:0:0:
320,336,72184,2,0,P|317:274|239:248,1,150,8|0,0:3|0:0,0:0:0:0:
168,237,72484,6,0,L|143:135,1,100,0|2,0:0|0:3,0:0:0:0:
195,120,72709,1,2,0:3:0:0:
244,117,72784,1,2,0:3:0:0:
294,114,72859,1,2,0:3:0:0:
221,102,72934,2,0,L|206:50,1,50,8|0,0:3|0:0,0:0:0:0:
366,290,73084,6,0,L|410:285,6,25,6|0|0|0|0|0|0,0:0|0:0|0:0|0:0|0:0|0:0|0:0,0:0:0:0:
211,246,73384,2,0,L|180:242,1,25
407,157,73534,1,2,0:0:0:0:
233,143,73609,1,0,0:0:0:0:
73,322,73684,6,0,L|67:255,1,50,8|0,0:0|0:0,0:0:0:0:
244,230,73834,2,0,L|250:163,1,50
417,169,73984,2,0,L|361:165,1,50,2|0,0:0|0:0,0:0:0:0:
202,156,74134,2,0,L|146:152,1,50,2|0,0:0|0:0,0:0:0:0:
313,330,74284,6,0,L|318:270,1,50,2|0,0:0|0:0,0:0:0:0:
159,268,74434,2,0,L|218:265,1,50,2|0,0:0|0:0,0:0:0:0:
366,124,74584,2,0,L|316:121,1,50,2|0,0:0|0:0,0:0:0:0:
159,268,74734,2,0,L|218:265,1,50,2|0,0:0|0:0,0:0:0:0:
385,260,74884,1,8,0:0:0:0:
484,318,75034,6,0,B|484:47|484:47|215:30|215:30|170:170,1,675.000002574921
349,263,75484,6,0,L|384:256,1,25,2|0,0:0|0:0,0:0:0:0:
349,263,75559,1,0,0:0:0:0:
325,255,75596,1,0,0:0:0:0:
314,234,75634,1,0,0:0:0:0:
320,210,75671,1,0,0:0:0:0:
341,198,75709,1,0,0:0:0:0:
492,172,75784,2,0,L|463:170,1,25,2|0,0:0|0:0,0:0:0:0:
321,159,75859,1,0,0:0:0:0:
271,146,75934,2,0,L|324:142,1,50,2|0,0:0|0:0,0:0:0:0:
141,293,76084,6,0,L|134:233,1,50,8|0,0:0|0:0,0:0:0:0:
293,84,76234,2,0,L|233:77,1,50
397,316,76384,2,0,L|399:252,1,50,2|0,0:0|0:0,0:0:0:0:
247,250,76534,2,0,L|182:246,1,50,2|0,0:0|0:0,0:0:0:0:
365,170,76684,6,0,L|300:166,1,50,2|0,0:0|0:0,0:0:0:0:
165,168,76834,2,0,L|154:108,1,50,2|0,0:0|0:0,0:0:0:0:
16,118,76984,2,0,L|5:58,1,50,2|0,0:0|0:0,0:0:0:0:
159,57,77134,2,0,L|208:49,1,50,2|0,0:0|0:0,0:0:0:0:
370,281,77284,5,8,0:0:0:0:
214,269,77359,1,0,0:0:0:0:
72,259,77434,2,0,L|68:197,1,50,2|0,0:0|0:0,0:0:0:0:
208,108,77584,1,2,0:0:0:0:
364,96,77659,1,0,0:0:0:0:
208,108,77734,2,0,L|150:102,1,50,2|0,0:0|0:0,0:0:0:0:
337,56,77884,5,2,0:0:0:0:
153,263,78184,2,0,P|103:243|166:202,1,150
312,193,78484,6,0,L|281:190,1,25,8|0,0:0|0:0,0:0:0:0:
176,164,78634,2,0,L|208:162,1,25
403,258,78784,2,0,L|407:227,1,25,2|0,0:0|0:0,0:0:0:0:
292,170,78934,2,0,L|288:139,1,25,2|0,0:0|0:0,0:0:0:0:
175,81,79084,6,0,L|171:50,1,25,2|0,0:0|0:0,0:0:0:0:
362,262,79234,2,0,L|401:259,1,25,2|0,0:0|0:0,0:0:0:0:
275,207,79384,2,0,L|236:204,1,25,2|0,0:0|0:0,0:0:0:0:
362,262,79534,2,0,L|401:259,1,25,2|0,0:0|0:0,0:0:0:0:
177,150,79684,5,8,0:0:0:0:
417,151,79834,2,0,L|365:143,1,50
201,289,79984,2,0,P|212:232|301:203,1,150,2|0,0:0|0:0,0:0:0:0:
154,172,80284,5,2,0:0:0:0:
130,170,80321,1,0,0:0:0:0:
105,168,80359,1,0,0:0:0:0:
129,166,80396,1,0,0:0:0:0:
153,164,80434,1,0,0:0:0:0:
153,139,80471,1,0,0:0:0:0:
153,114,80509,1,0,0:0:0:0:
18,106,80584,2,0,L|15:49,1,50,2|0,0:0|0:0,0:0:0:0:
187,45,80734,2,0,L|241:41,1,50,2|0,0:0|0:0,0:0:0:0:
398,290,80884,6,0,L|401:260,1,25,8|0,0:0|0:0,0:0:0:0:
287,216,81034,2,0,L|284:186,1,25
470,181,81184,2,0,L|472:145,1,25,2|0,0:0|0:0,0:0:0:0:
359,122,81334,2,0,L|357:86,1,25,2|0,0:0|0:0,0:0:0:0:
245,75,81484,6,0,L|243:39,1,25,2|0,0:0|0:0,0:0:0:0:
429,288,81634,2,0,L|397:282,1,25,2|0,0:0|0:0,0:0:0:0:
293,250,81784,2,0,L|287:207,1,25,2|0,0:0|0:0,0:0:0:0:
402,181,81934,2,0,L|434:175,1,25,2|0,0:0|0:0,0:0:0:0:
211,196,82084,5,8,0:0:0:0:
236,193,82121,1,0,0:0:0:0:
261,191,82159,1,0,0:0:0:0:
286,189,82196,1,0,0:0:0:0:
311,187,82234,1,2,0:0:0:0:
336,184,82271,1,0,0:0:0:0:
361,182,82309,1,0,0:0:0:0:
208,148,82384,2,0,L|206:84,1,50,2|0,0:0|0:0,0:0:0:0:
52,78,82534,2,0,L|105:73,1,50,2|0,0:0|0:0,0:0:0:0:
270,299,82684,5,2,0:0:0:0:
294,304,82721,1,0,0:0:0:0:
316,293,82759,1,0,0:0:0:0:
325,270,82796,1,0,0:0:0:0:
316,247,82834,1,0,0:0:0:0:
295,236,82871,1,0,0:0:0:0:
271,241,82909,1,0,0:0:0:0:
339,215,82984,1,2,0:0:0:0:
190,193,83059,1,0,0:0:0:0:
166,191,83096,1,0,0:0:0:0:
141,190,83134,1,0,0:0:0:0:
163,187,83171,1,0,0:0:0:0:
188,184,83209,1,0,0:0:0:0:
45,325,83284,6,0,L|39:258,1,50,8|0,0:0|0:0,0:0:0:0:
216,233,83434,2,0,L|222:166,1,50
389,172,83584,2,0,L|333:168,1,50,2|0,0:0|0:0,0:0:0:0:
174,159,83734,2,0,L|118:155,1,50,2|0,0:0|0:0,0:0:0:0:
313,330,83884,6,0,L|318:270,1,50,2|0,0:0|0:0,0:0:0:0:
159,268,84034,2,0,L|218:265,1,50,2|0,0:0|0:0,0:0:0:0:
366,124,84184,2,0,L|316:121,1,50,2|0,0:0|0:0,0:0:0:0:
159,268,84334,2,0,L|218:265,1,50,2|0,0:0|0:0,0:0:0:0:
385,260,84484,1,8,0:0:0:0:
484,318,84634,6,0,B|484:47|484:47|215:30|215:30|170:170,1,675.000002574921
349,263,85084,6,0,L|384:256,1,25,2|0,0:0|0:0,0:0:0:0:
349,263,85159,1,0,0:0:0:0:
325,255,85196,1,0,0:0:0:0:
314,234,85234,1,0,0:0:0:0:
320,210,85271,1,0,0:0:0:0:
341,198,85309,1,0,0:0:0:0:
492,172,85384,2,0,L|463:170,1,25,2|0,0:0|0:0,0:0:0:0:
322,160,85459,1,0,0:0:0:0:
272,149,85534,2,0,L|325:145,1,50,2|0,0:0|0:0,0:0:0:0:
141,293,85684,6,0,L|134:233,1,50,8|0,0:0|0:0,0:0:0:0:
293,84,85834,2,0,L|233:77,1,50
397,316,85984,2,0,L|399:252,1,50,2|0,0:0|0:0,0:0:0:0:
247,250,86134,2,0,L|182:246,1,50,2|0,0:0|0:0,0:0:0:0:
365,170,86284,2,0,L|300:166,1,50,2|0,0:0|0:0,0:0:0:0:
165,168,86434,2,0,L|154:108,1,50,2|0,0:0|0:0,0:0:0:0:
16,118,86584,2,0,L|5:58,1,50,2|0,0:0|0:0,0:0:0:0:
159,57,86734,2,0,L|208:49,1,50,2|0,0:0|0:0,0:0:0:0:
67,287,86884,5,8,0:0:0:0:
223,275,86959,1,0,0:0:0:0:
365,265,87034,2,0,L|369:203,1,50,2|0,0:0|0:0,0:0:0:0:
229,114,87184,1,2,0:0:0:0:
73,102,87259,1,0,0:0:0:0:
229,114,87334,2,0,L|287:108,1,50,2|0,0:0|0:0,0:0:0:0:
136,277,87484,6,0,L|237:265,1,100,2|0,0:0|0:0,0:0:0:0:
426,178,87709,2,0,L|139:161,1,270.000001029968
320,138,87934,2,0,L|378:135,1,50
200,193,88084,6,0,L|231:190,1,25,8|0,0:0|0:0,0:0:0:0:
336,164,88234,2,0,L|304:162,1,25
109,258,88384,2,0,L|105:227,1,25,2|0,0:0|0:0,0:0:0:0:
220,170,88534,2,0,L|224:139,1,25,2|0,0:0|0:0,0:0:0:0:
337,81,88684,6,0,L|341:50,1,25,2|0,0:0|0:0,0:0:0:0:
150,262,88834,2,0,L|111:259,1,25,2|0,0:0|0:0,0:0:0:0:
237,207,88984,2,0,L|276:204,1,25,2|0,0:0|0:0,0:0:0:0:
150,262,89134,2,0,L|111:259,1,25,2|0,0:0|0:0,0:0:0:0:
335,150,89284,5,8,0:0:0:0:
95,151,89434,2,0,L|147:143,1,50
311,289,89584,2,0,P|300:232|211:203,1,150,2|0,0:0|0:0,0:0:0:0:
358,172,89884,5,2,0:0:0:0:
382,170,89921,1,0,0:0:0:0:
407,168,89959,1,0,0:0:0:0:
383,166,89996,1,0,0:0:0:0:
359,164,90034,1,0,0:0:0:0:
359,139,90071,1,0,0:0:0:0:
359,114,90109,1,0,0:0:0:0:
494,106,90184,2,0,L|497:49,1,50,2|0,0:0|0:0,0:0:0:0:
325,45,90334,2,0,L|271:41,1,50,2|0,0:0|0:0,0:0:0:0:
114,290,90484,6,0,L|111:260,1,25,8|0,0:0|0:0,0:0:0:0:
225,216,90634,2,0,L|228:186,1,25
42,181,90784,2,0,L|40:145,1,25,2|0,0:0|0:0,0:0:0:0:
153,122,90934,2,0,L|155:86,1,25,2|0,0:0|0:0,0:0:0:0:
267,75,91084,6,0,L|269:39,1,25,2|0,0:0|0:0,0:0:0:0:
83,288,91234,2,0,L|115:282,1,25,2|0,0:0|0:0,0:0:0:0:
219,250,91384,2,0,L|225:207,1,25,2|0,0:0|0:0,0:0:0:0:
110,181,91534,2,0,L|78:175,1,25,2|0,0:0|0:0,0:0:0:0:
299,169,91684,6,0,L|345:165,2,25,8|0|0,0:0|0:0|0:0,0:0:0:0:
191,135,91796,1,0,0:0:0:0:
79,171,91834,2,0,L|33:167,2,25,2|0|0,0:0|0:0|0:0,0:0:0:0:
191,135,91946,1,0,0:0:0:0:
299,169,91984,2,0,L|345:165,2,25,2|0|0,0:0|0:0|0:0,0:0:0:0:
191,135,92096,1,0,0:0:0:0:
79,171,92134,2,0,L|33:167,2,25,2|0|0,0:0|0:0|0:0,0:0:0:0:
230,138,92284,6,0,L|391:125,1,150,6|0,0:0|0:0,0:0:0:0:
225,42,92584,1,2,0:0:0:0:
83,211,92659,2,0,L|34:205,2,50
247,113,92884,5,2,0:0:0:0:
105,282,92959,2,0,L|56:276,2,50
269,184,93184,1,2,0:0:0:0:
127,353,93259,2,0,L|78:347,2,50
287,42,93484,5,2,0:0:0:0:
429,211,93559,2,0,L|478:205,2,50
265,113,93784,1,2,0:0:0:0:
407,282,93859,2,0,L|456:276,2,50
243,184,94084,5,2,0:0:0:0:
385,353,94159,2,0,L|434:347,2,50
206,162,94384,2,0,L|145:158,1,50
299,140,94534,1,2,0:0:0:0:
452,132,94609,1,2,0:0:0:0:
269,184,94684,6,0,L|204:181,1,50,2|0,0:0|0:0,0:0:0:0:
295,153,94834,2,0,L|304:88,1,50
161,104,94984,2,0,L|161:50,1,50
13,210,95134,2,0,L|8:158,1,50
150,49,95284,5,2,0:0:0:0:
292,218,95359,2,0,L|341:212,2,50
128,120,95584,1,2,0:0:0:0:
270,289,95659,2,0,L|319:283,2,50
106,191,95884,5,2,0:0:0:0:
248,360,95959,2,0,L|297:354,2,50
76,298,96184,1,2,0:0:0:0:
231,282,96259,1,0,0:0:0:0:
372,261,96334,2,0,L|377:190,1,50
217,186,96484,5,2,0:0:0:0:
72,173,96559,2,0,L|60:115,1,50
226,86,96709,1,2,0:0:0:0:
72,173,96784,2,0,L|60:115,1,50,2|0,0:0|0:0,0:0:0:0:
226,86,96934,2,0,L|288:78,1,50,2|0,0:0|0:0,0:0:0:0:
275,79,97084,6,0,L|226:86,1,50
303,222,97234,2,0,L|307:153,1,50
471,165,97384,2,0,L|477:104,1,50,2|0,0:0|0:0,0:0:0:0:
333,105,97534,1,2,0:0:0:0:
190,93,97609,1,0,0:0:0:0:
333,105,97684,5,2,0:1:0:0:
173,224,97759,1,0,0:0:0:0:
222,218,97834,1,0,0:0:0:0:
272,212,97909,1,0,0:0:0:0:
415,48,97984,1,2,0:1:0:0:
255,167,98059,1,0,0:0:0:0:
304,161,98134,1,0,0:0:0:0:
354,155,98209,1,0,0:0:0:0:
179,105,98284,5,2,0:1:0:0:
339,224,98359,1,0,0:0:0:0:
289,218,98434,1,0,0:0:0:0:
239,212,98509,1,0,0:0:0:0:
97,48,98584,1,2,0:1:0:0:
257,167,98659,1,0,0:0:0:0:
208,161,98734,1,2,0:1:0:0:
158,155,98809,1,0,0:0:0:0:
333,105,98884,5,2,0:1:0:0:
173,224,98959,1,0,0:0:0:0:
222,218,99034,1,0,0:0:0:0:
272,212,99109,1,0,0:0:0:0:
129,99,99184,2,0,L|77:95,1,50,2|0,0:1|0:1,0:1:0:0:
229,82,99334,1,2,0:1:0:0:
378,66,99409,1,2,0:1:0:0:
129,99,99484,6,0,L|63:97,1,50,2|0,0:1|0:0,0:0:0:0:
129,99,99634,2,0,L|202:95,1,50
325,283,99784,2,0,L|264:278,1,50,2|0,0:1|0:0,0:0:0:0:
126,263,99934,2,0,L|65:258,1,50,2|0,0:1|0:0,0:0:0:0:
233,200,100084,5,2,0:1:0:0:
84,188,100159,1,0,0:0:0:0:
233,200,100234,2,0,L|298:194,1,50
434,107,100384,1,2,0:1:0:0:
285,95,100459,1,0,0:0:0:0:
133,143,100534,2,0,L|128:83,1,50
285,95,100684,5,2,0:1:0:0:
434,107,100759,1,0,0:0:0:0:
384,104,100834,1,0,0:0:0:0:
334,101,100909,1,0,0:0:0:0:
176,212,100984,1,2,0:1:0:0:
27,200,101059,1,0,0:0:0:0:
176,212,101134,2,0,L|241:206,1,50
377,119,101284,5,2,0:1:0:0:
228,107,101359,1,0,0:0:0:0:
76,155,101434,2,0,L|71:95,1,50,0|2,0:0|0:1,0:0:0:0:
228,107,101584,1,2,0:1:0:0:
376,89,101659,1,0,0:0:0:0:
228,107,101734,2,0,L|167:105,1,50,2|0,0:1|0:0,0:0:0:0:
357,312,101884,6,0,B|369:40|369:40|211:37,1,405.000001544952,2|0,0:0|0:0,0:0:0:0:
81,210,102184,1,6,0:0:0:0:
232,202,102259,1,0,0:0:0:0:
381,176,102334,2,0,L|317:170,1,50
188,153,102484,5,2,0:0:0:0:
37,145,102559,1,0,0:0:0:0:
188,153,102634,2,0,L|252:147,1,50
81,210,102784,1,2,0:0:0:0:
232,202,102859,1,0,0:0:0:0:
81,210,102934,2,0,L|17:204,1,50
173,137,103084,5,2,0:0:0:0:
324,129,103159,1,0,0:0:0:0:
173,137,103234,2,0,L|109:131,1,50
268,93,103384,1,2,0:0:0:0:
419,85,103459,1,0,0:0:0:0:
268,93,103534,2,0,L|204:87,1,50
72,190,103684,5,2,0:0:0:0:
223,182,103759,1,0,0:0:0:0:
373,155,103834,2,0,L|309:149,1,50
175,215,103984,2,0,L|160:159,1,50,2|0,0:0|0:0,0:0:0:0:
335,127,104134,1,2,0:0:0:0:
488,114,104209,1,2,0:0:0:0:
334,257,104284,6,2,L|161:233,1,150
332,230,104584,1,2,0:0:0:0:
482,222,104659,1,0,0:0:0:0:
332,230,104734,2,0,L|270:224,1,50
137,155,104884,5,2,0:0:0:0:
287,147,104959,1,0,0:0:0:0:
431,138,105034,2,0,L|369:132,1,50
232,92,105184,1,2,0:0:0:0:
82,84,105259,1,0,0:0:0:0:
232,92,105334,2,0,L|294:86,1,50
416,180,105484,5,2,0:0:0:0:
266,172,105559,1,0,0:0:0:0:
115,159,105634,2,0,L|53:153,1,50
199,283,105784,1,2,0:0:0:0:
349,275,105859,1,0,0:0:0:0:
491,227,105934,2,0,L|441:222,1,50
259,172,106084,5,0,0:0:0:0:
109,180,106159,1,2,0:0:0:0:
259,172,106234,2,0,L|309:167,1,50
158,116,106384,1,2,0:0:0:0:
307,107,106459,1,0,0:0:0:0:
481,103,106534,2,0,L|410:94,1,50
242,83,106684,5,2,0:0:0:0:
125,36,106834,2,0,L|165:36,1,25
391,200,106984,1,2,0:0:0:0:
251,194,107059,1,0,0:0:0:0:
391,200,107134,2,0,L|326:195,1,50,2|2,0:0|0:0,0:0:0:0:
168,156,107284,5,2,0:1:0:0:
310,139,107359,1,0,0:0:0:0:
454,128,107434,2,0,L|388:122,1,50
245,136,107584,1,2,0:1:0:0:
103,119,107659,1,0,0:0:0:0:
245,136,107734,2,0,L|311:130,1,50
453,114,107884,5,2,0:1:0:0:
290,98,107959,1,0,0:0:0:0:
453,114,108034,2,0,L|468:62,1,50
319,253,108184,1,2,0:1:0:0:
156,237,108259,1,0,0:0:0:0:
319,253,108334,2,0,L|334:201,1,50
191,82,108484,5,2,0:1:0:0:
28,66,108559,1,0,0:0:0:0:
191,82,108634,2,0,L|246:79,1,50
86,122,108784,2,0,L|34:118,1,50,2|0,0:1|0:1,0:1:0:0:
186,105,108934,1,2,0:1:0:0:
335,89,109009,1,2,0:1:0:0:
197,219,109084,6,0,B|97:209|97:209|163:204,1,150,2|0,0:1|0:0,0:0:0:0:
292,178,109384,1,2,0:1:0:0:
432,172,109459,1,0,0:0:0:0:
290,168,109534,2,0,L|225:163,1,50,2|0,0:1|0:0,0:0:0:0:
88,148,109684,5,2,0:1:0:0:
230,131,109759,1,0,0:0:0:0:
374,120,109834,2,0,L|308:114,1,50
166,104,109984,1,2,0:1:0:0:
308,87,110059,1,0,0:0:0:0:
166,104,110134,2,0,L|100:98,1,50
274,256,110284,6,0,L|377:248,1,100,2|2,0:0|0:0,0:0:0:0:
423,243,110509,1,0,0:0:0:0:
267,202,110584,2,0,L|148:194,1,100,8|0,0:3|0:0,0:0:0:0:
398,154,110884,6,0,L|360:149,1,25,8|0,0:3|0:0,0:0:0:0:
187,91,111034,2,0,L|225:86,1,25,8|0,0:3|0:0,0:0:0:0:
398,154,111184,2,0,L|360:149,1,25,8|0,0:3|0:0,0:0:0:0:
274,126,111334,2,0,L|270:87,2,25,2|2|2,0:0|0:0|0:0,0:0:0:0:
458,273,111484,6,0,L|273:257,1,179.999994506836,6|0,0:0|0:0,0:0:0:0:
122,249,111784,2,0,L|128:188,1,50,8|0,0:3|0:0,0:0:0:0:
279,204,111934,2,0,L|285:143,1,50,2|0,0:0|0:0,0:0:0:0:
448,157,112084,6,0,L|171:142,1,270.000001029968,2|0,0:0|0:0,0:0:0:0:
30,78,112309,2,0,L|307:63,1,270.000001029968,2|0,0:0|0:0,0:0:0:0:
135,286,112534,2,0,L|125:124,1,135.000000514984,2|0,0:0|0:0,0:0:0:0:
448,157,112684,6,0,L|171:142,1,270.000001029968,2|0,0:0|0:0,0:0:0:0:
30,78,112909,2,0,L|307:63,1,270.000001029968,2|0,0:0|0:0,0:0:0:0:
135,286,113134,2,0,L|125:124,1,135.000000514984,2|0,0:0|0:0,0:0:0:0:
293,147,113284,6,0,L|293:92,1,50,2|0,0:0|0:0,0:0:0:0:
133,96,113434,2,0,L|201:83,1,50,2|0,0:0|0:0,0:0:0:0:
345,261,113584,2,0,P|342:213|250:199,1,150,2|0,0:0|0:0,0:0:0:0:
438,158,113884,6,0,L|253:142,1,179.999994506836,6|0,0:0|0:0,0:0:0:0:
406,287,114184,2,0,L|420:231,1,50,8|0,0:3|0:0,0:0:0:0:
270,191,114334,2,0,L|256:135,1,50,2|0,0:0|0:0,0:0:0:0:
64,157,114484,6,0,L|341:142,1,270.000001029968,2|0,0:0|0:0,0:0:0:0:
482,78,114709,2,0,L|205:63,1,270.000001029968,2|0,0:0|0:0,0:0:0:0:
377,286,114934,2,0,L|387:124,1,135.000000514984,2|0,0:0|0:0,0:0:0:0:
64,157,115084,6,0,L|341:142,1,270.000001029968,2|0,0:0|0:0,0:0:0:0:
482,78,115309,2,0,L|205:63,1,270.000001029968,2|0,0:0|0:0,0:0:0:0:
377,286,115534,2,0,L|387:124,1,135.000000514984,2|0,0:0|0:0,0:0:0:0:
219,147,115684,6,0,L|219:92,1,50,2|0,0:0|0:0,0:0:0:0:
379,96,115834,2,0,L|311:83,1,50,2|0,0:0|0:0,0:0:0:0:
167,261,115984,2,0,P|170:213|262:199,1,150,2|0,0:0|0:0,0:0:0:0:
458,273,116284,6,0,L|273:257,1,179.999994506836,6|0,0:0|0:0,0:0:0:0:
122,249,116584,2,0,L|128:188,1,50,8|0,0:3|0:0,0:0:0:0:
279,204,116734,2,0,L|285:143,1,50,2|0,0:0|0:0,0:0:0:0:
448,157,116884,6,0,L|171:142,1,270.000001029968,2|0,0:0|0:0,0:0:0:0:
30,78,117109,2,0,L|307:63,1,270.000001029968,2|0,0:0|0:0,0:0:0:0:
135,286,117334,2,0,L|125:124,1,135.000000514984,2|0,0:0|0:0,0:0:0:0:
448,157,117484,6,0,L|171:142,1,270.000001029968,2|0,0:0|0:0,0:0:0:0:
30,78,117709,2,0,L|307:63,1,270.000001029968,2|0,0:0|0:0,0:0:0:0:
135,286,117934,2,0,L|125:124,1,135.000000514984,2|0,0:0|0:0,0:0:0:0:
293,147,118084,6,0,L|293:92,1,50,2|0,0:0|0:0,0:0:0:0:
133,96,118234,2,0,L|201:83,1,50,2|0,0:0|0:0,0:0:0:0:
345,261,118384,2,0,P|342:213|250:199,1,150,2|0,0:0|0:0,0:0:0:0:
446,245,118684,6,0,L|261:229,1,179.999994506836,6|0,0:0|0:0,0:0:0:0:
406,287,118984,2,0,L|420:231,1,50,2|0,0:3|0:0,0:0:0:0:
270,191,119134,2,0,L|256:135,1,50,2|0,0:0|0:0,0:0:0:0:
64,157,119284,6,0,L|341:142,1,270.000001029968,2|0,0:0|0:0,0:0:0:0:
482,78,119509,2,0,L|205:63,1,270.000001029968,2|0,0:0|0:0,0:0:0:0:
377,286,119734,2,0,L|387:124,1,135.000000514984,2|0,0:0|0:0,0:0:0:0:
234,126,119884,6,0,L|340:118,1,100,2|0,0:0|0:0,0:0:0:0:
334,118,120184,2,0,L|228:110,1,100
114,295,120484,2,0,P|120:244|207:189,1,150
269,182,120784,2,0,L|112:176,1,150
320,160,121084,6,0,B|51:152|51:152|84:13,1,405.000001544952,6|0,0:0|0:0,0:0:0:0:
234,280,121384,2,0,L|240:213,1,50,8|0,0:3|0:0,0:0:0:0:
388,219,121534,2,0,L|394:152,1,50,2|0,0:0|0:0,0:0:0:0:
200,139,121684,6,0,L|490:124,1,270.000001029968,2|0,0:0|0:0,0:0:0:0:
310,281,121909,2,0,L|304:145,1,100,2|0,0:0|0:0,0:0:0:0:
163,294,122134,2,0,L|159:213,1,50,2|0,0:0|0:0,0:0:0:0:
397,123,122284,6,0,L|107:108,1,270.000001029968,2|0,0:0|0:0,0:0:0:0:
284,276,122509,2,0,L|290:140,1,100,2|0,0:0|0:0,0:0:0:0:
431,289,122734,2,0,L|435:208,1,50,2|0,0:0|0:0,0:0:0:0:
271,126,122884,6,0,L|326:122,1,50,2|0,0:0|0:0,0:0:0:0:
465,76,123034,2,0,L|410:72,1,50,2|0,0:0|0:0,0:0:0:0:
175,162,123184,2,0,B|444:156|444:156|483:302,1,405.000001544952,2|0,0:0|0:0,0:0:0:0:
320,160,123484,6,0,B|51:152|51:152|84:13,1,405.000001544952,2|0,0:0|0:0,0:0:0:0:
234,280,123784,2,0,L|240:213,1,50,8|0,0:3|0:0,0:0:0:0:
388,219,123934,2,0,L|394:152,1,50,2|0,0:0|0:0,0:0:0:0:
200,139,124084,6,0,L|490:124,1,270.000001029968,2|0,0:0|0:0,0:0:0:0:
298,269,124309,2,0,L|292:133,1,100,2|0,0:0|0:0,0:0:0:0:
151,282,124534,2,0,L|147:201,1,50,2|0,0:0|0:0,0:0:0:0:
397,123,124684,6,0,L|107:108,1,270.000001029968,2|0,0:0|0:0,0:0:0:0:
268,271,124909,2,0,L|274:135,1,100,2|0,0:0|0:0,0:0:0:0:
415,284,125134,2,0,L|419:203,1,50,2|0,0:0|0:0,0:0:0:0:
271,126,125284,6,0,L|326:122,1,50,2|0,0:0|0:0,0:0:0:0:
465,76,125434,2,0,L|410:72,1,50,2|0,0:0|0:0,0:0:0:0:
175,162,125584,2,0,B|444:156|444:156|483:302,1,405.000001544952,2|0,0:0|0:0,0:0:0:0:
192,160,125884,6,0,B|461:152|461:152|428:13,1,405.000001544952,6|0,0:0|0:0,0:0:0:0:
278,280,126184,2,0,L|272:213,1,50,8|0,0:3|0:0,0:0:0:0:
124,219,126334,2,0,L|118:152,1,50,2|0,0:0|0:0,0:0:0:0:
312,139,126484,6,0,L|22:124,1,270.000001029968,2|0,0:0|0:0,0:0:0:0:
193,284,126709,2,0,L|199:148,1,100,2|0,0:0|0:0,0:0:0:0:
340,297,126934,2,0,L|344:216,1,50,2|0,0:0|0:0,0:0:0:0:
115,123,127084,6,0,L|405:108,1,270.000001029968,2|0,0:0|0:0,0:0:0:0:
239,264,127309,2,0,L|245:128,1,100,2|0,0:0|0:0,0:0:0:0:
386,277,127534,2,0,L|390:196,1,50,2|0,0:0|0:0,0:0:0:0:
241,126,127684,6,0,L|186:122,1,50,2|0,0:0|0:0,0:0:0:0:
428,99,127834,2,0,L|483:95,1,50,2|0,0:0|0:0,0:0:0:0:
337,162,127984,2,0,B|68:156|68:156|29:302,1,405.000001544952,2|0,0:0|0:0,0:0:0:0:
192,160,128284,6,0,B|461:152|461:152|428:13,1,405.000001544952,2|0,0:0|0:0,0:0:0:0:
278,280,128584,2,0,L|272:213,1,50,2|0,0:3|0:0,0:0:0:0:
124,219,128734,2,0,L|118:152,1,50,2|0,0:0|0:0,0:0:0:0:
312,139,128884,6,0,L|22:124,1,270.000001029968,2|0,0:0|0:0,0:0:0:0:
214,269,129109,2,0,L|220:133,1,100,2|0,0:0|0:0,0:0:0:0:
361,282,129334,2,0,L|365:201,1,50,2|0,0:0|0:0,0:0:0:0:
204,121,129484,6,0,L|98:113,1,100,2|0,0:0|0:0,0:0:0:0:
104,113,129784,2,0,L|210:105,1,100
324,290,130084,2,0,P|318:239|231:184,1,150
169,177,130384,2,0,L|326:171,1,150
485,174,130687,5,6,0:0:0:0:
256,192,130829,12,0,135258,0:0:0:0:
175,210,148972,6,0,L|126:208,2,50,6|0|0,0:0|0:0|0:0,0:0:0:0:
304,186,149244,2,0,L|308:133,2,50,2|0|0,0:3|0:0|0:0,0:0:0:0:
183,129,149517,2,0,L|67:123,1,100,8|0,0:3|0:0,0:0:0:0:
83,123,149790,2,0,L|183:129,1,100,2|0,0:3|0:0,0:0:0:0:
308,289,150062,6,0,P|306:232|213:215,1,150,2|0,0:3|0:0,0:0:0:0:
160,196,150335,2,0,L|153:127,1,50,2|0,0:3|0:0,0:0:0:0:
220,126,150471,1,0,0:0:0:0:
344,284,150608,2,0,P|334:191|292:165,1,150,8|0,0:3|0:0,0:0:0:0:
217,151,150881,2,0,L|198:50,1,100,2|0,0:3|0:0,0:0:0:0:
321,290,151153,6,0,L|325:237,2,50,2|0|0,0:0|0:0|0:0,0:0:0:0:
193,224,151426,2,0,L|140:220,2,50,2|0|0,0:3|0:0|0:0,0:0:0:0:
312,195,151699,2,0,L|420:189,1,100,8|0,0:3|0:0,0:0:0:0:
285,146,151971,2,0,L|177:140,1,100,2|0,0:3|0:0,0:0:0:0:
58,322,152244,6,0,P|48:266|128:234,1,150,2|0,0:3|0:0,0:0:0:0:
195,224,152517,2,0,L|310:216,1,100,2|0,0:3|0:0,0:0:0:0:
245,192,152721,1,0,0:0:0:0:
195,190,152790,2,0,L|80:182,1,100,8|0,0:3|0:0,0:0:0:0:
228,140,153062,2,0,P|210:99|112:66,1,150,2|0,0:3|0:0,0:0:0:0:
64,166,153335,5,6,0:0:0:0:
113,161,153403,1,0,0:0:0:0:
163,156,153471,1,0,0:0:0:0:
294,142,153608,2,0,L|300:86,1,50,2|0,0:3|0:0,0:0:0:0:
234,73,153744,1,0,0:0:0:0:
357,131,153881,2,0,L|473:125,1,100,8|0,0:3|0:0,0:0:0:0:
456,125,154154,2,0,L|356:130,1,100,2|0,0:3|0:0,0:0:0:0:
232,291,154426,6,0,P|234:234|327:217,1,150,2|0,0:3|0:0,0:0:0:0:
380,198,154699,2,0,L|387:129,1,50,2|0,0:3|0:0,0:0:0:0:
320,128,154835,1,0,0:0:0:0:
196,286,154972,2,0,P|206:193|248:167,1,150,8|0,0:3|0:0,0:0:0:0:
323,153,155245,2,0,L|342:52,1,100,2|0,0:3|0:0,0:0:0:0:
215,166,155517,5,2,0:0:0:0:
165,161,155585,1,0,0:0:0:0:
115,156,155653,1,0,0:0:0:0:
240,141,155790,2,0,L|246:85,1,50,2|0,0:3|0:0,0:0:0:0:
180,72,155926,1,0,0:0:0:0:
51,290,156062,2,0,L|41:188,1,100,8|0,0:3|0:0,0:0:0:0:
165,161,156335,2,0,L|54:155,1,100,2|0,0:3|0:0,0:0:0:0:
301,265,156608,6,0,L|310:145,1,100,2|0,0:3|0:0,0:0:0:0:
259,150,156812,2,0,L|207:146,1,50,0|2,0:0|0:3,0:0:0:0:
180,118,156949,1,0,0:0:0:0:
209,146,157017,2,0,L|259:150,1,50
396,129,157153,2,0,L|282:125,1,100,8|0,0:3|0:0,0:0:0:0:
173,62,157426,2,0,L|287:58,1,100,2|0,0:3|0:0,0:0:0:0:
52,296,157699,6,0,L|48:231,2,50,6|0|0,0:0|0:0|0:0,0:0:0:0:
177,235,157971,2,0,L|230:228,2,50,2|0|0,0:3|0:0|0:0,0:0:0:0:
52,296,158244,2,0,L|50:179,1,100,8|0,0:3|0:0,0:0:0:0:
171,190,158517,2,0,L|68:181,1,100,2|0,0:3|0:0,0:0:0:0:
307,277,158790,6,0,P|349:257|298:192,1,150,2|0,0:3|0:0,0:0:0:0:
230,184,159062,2,0,L|225:130,1,50,2|0,0:3|0:0,0:0:0:0:
294,116,159199,1,0,0:0:0:0:
426,102,159335,2,0,L|323:96,1,100,8|0,0:3|0:0,0:0:0:0:
326,96,159608,2,0,L|426:102,1,100,2|0,0:3|0:0,0:0:0:0:
183,288,159881,6,0,L|77:281,1,100,2|0,0:0|0:0,0:0:0:0:
210,175,160153,2,0,L|217:69,1,100,2|0,0:3|0:0,0:0:0:0:
87,68,160426,2,0,L|189:62,1,100,8|0,0:3|0:0,0:0:0:0:
306,44,160699,2,0,L|204:38,1,100,2|0,0:3|0:0,0:0:0:0:
428,285,160971,6,0,P|428:223|338:178,1,150,2|0,0:3|0:0,0:0:0:0:
284,172,161244,2,0,L|218:173,2,50,2|0|0,0:3|0:0|0:0,0:0:0:0:
410,164,161517,2,0,L|420:57,1,100,8|0,0:3|0:0,0:0:0:0:
296,56,161790,2,0,L|192:52,1,100,2|0,0:3|0:0,0:0:0:0:
420,252,162062,5,6,0:0:0:0:
370,248,162130,1,0,0:0:0:0:
320,244,162198,1,0,0:0:0:0:
198,226,162335,2,0,L|191:172,2,50,2|0|0,0:3|0:0|0:0,0:0:0:0:
322,150,162608,6,0,L|431:141,1,100,8|0,0:3|0:0,0:0:0:0:
300,98,162881,2,0,L|236:94,1,50,2|0,0:3|0:0,0:0:0:0:
250,94,163017,2,0,L|300:98,1,50
140,296,163153,6,0,L|134:190,1,100,2|0,0:3|0:0,0:0:0:0:
263,186,163426,2,0,L|269:80,1,100,2|0,0:3|0:0,0:0:0:0:
396,170,163699,2,0,L|402:64,1,100,8|0,0:3|0:0,0:0:0:0:
272,67,163971,2,0,L|386:53,1,100,2|0,0:3|0:0,0:0:0:0:
144,261,164244,6,0,L|265:243,2,100,6|0|2,0:0|0:0|0:3,0:0:0:0:
268,206,164653,1,0,0:0:0:0:
39,208,164790,2,0,L|150:199,1,100,8|0,0:3|0:0,0:0:0:0:
255,108,165062,2,0,L|144:99,1,100,2|0,0:3|0:0,0:0:0:0:
388,304,165335,6,0,L|393:198,1,100,2|0,0:3|0:0,0:0:0:0:
270,171,165608,2,0,L|261:116,1,50,2|0,0:3|0:0,0:0:0:0:
336,103,165744,2,0,L|344:53,1,50
172,52,165881,5,2,0:0:0:0:
403,37,166017,2,0,L|462:32,1,50,2|2,0:0|0:0,0:0:0:0:
289,245,166153,2,0,L|396:232,1,100,8|2,0:0|0:0,0:0:0:0:
158,252,166426,6,0,P|120:182|164:168,1,150,6|0,0:0|0:0,0:0:0:0:
230,153,166692,2,0,L|331:144,1,100
98,294,166959,2,0,L|88:177,1,100,2|0,0:0|0:0,0:0:0:0:
205,167,167225,2,0,L|102:161,1,100
359,286,167492,6,0,P|346:215|280:189,1,150,2|0,0:0|0:0,0:0:0:0:
213,156,167759,2,0,L|334:146,1,100
76,137,168025,2,0,L|187:126,1,100,2|0,0:0|0:0,0:0:0:0:
294,219,168292,2,0,L|297:184,1,25,8|0,0:1|0:0,0:0:0:0:
217,89,168425,2,0,L|192:87,1,25,8|0,0:1|0:0,0:0:0:0:
408,299,168559,6,0,L|428:141,1,150,2|0,0:0|0:0,0:0:0:0:
362,139,168825,2,0,L|257:135,1,100
28,289,169092,2,0,L|24:182,1,100,2|0,0:0|0:0,0:0:0:0:
140,168,169359,2,0,L|250:157,1,100
477,294,169625,6,0,L|305:279,1,150,2|0,0:0|0:0,0:0:0:0:
260,282,169892,2,0,L|237:179,1,100
460,142,170159,2,0,L|343:132,1,100,2|0,0:0|0:0,0:0:0:0:
235,218,170425,2,0,L|232:183,1,25,8|0,0:1|0:0,0:0:0:0:
332,129,170559,2,0,L|307:127,1,25,8|0,0:1|0:0,0:0:0:0:
126,246,170692,6,0,P|88:176|132:162,1,150,2|0,0:0|0:0,0:0:0:0:
198,147,170958,2,0,L|299:138,1,100
66,288,171225,2,0,L|56:171,1,100,2|0,0:0|0:0,0:0:0:0:
173,161,171491,2,0,L|70:155,1,100
327,280,171758,6,0,P|314:209|248:183,1,150,2|0,0:0|0:0,0:0:0:0:
181,150,172025,2,0,L|302:140,1,100
44,131,172291,2,0,L|155:120,1,100,2|0,0:0|0:0,0:0:0:0:
262,213,172558,2,0,L|265:178,1,25,8|0,0:1|0:0,0:0:0:0:
185,83,172691,2,0,L|161:81,1,25,8|0,0:1|0:0,0:0:0:0:
402,280,172825,6,0,L|414:172,1,100,2|0,0:0|0:0,0:0:0:0:
341,161,173025,2,0,L|336:100,1,50
408,103,173159,2,0,L|467:98,2,50
268,88,173359,6,0,L|213:82,1,50,2|0,0:0|0:0,0:0:0:0:
268,88,173492,2,0,L|149:73,2,100
53,284,173892,6,0,L|46:172,1,100,2|0,0:0|0:0,0:0:0:0:
124,171,174092,2,0,L|173:168,1,50
231,135,174225,2,0,L|236:76,2,50
394,288,174425,2,0,L|401:235,1,50,2|0,0:0|0:0,0:0:0:0:
253,218,174559,1,2,0:0:0:0:
114,211,174625,1,2,0:0:0:0:
253,218,174692,2,0,L|360:206,1,100,8|2,0:0|0:0,0:0:0:0:
130,125,174959,6,0,L|120:24,1,100,6|0,0:0|0:0,0:0:0:0:
350,299,175225,2,0,L|360:198,1,100,8|0,0:0|0:0,0:0:0:0:
135,193,175492,6,0,L|69:189,1,50,8|0,0:0|0:0,0:0:0:0:
150,170,175625,2,0,L|162:110,1,50
21,99,175759,2,0,L|18:41,1,50,8|0,0:0|0:0,0:0:0:0:
84,32,175892,2,0,L|142:21,1,50
292,286,176025,6,0,L|298:227,1,50,8|0,0:0|0:0,0:0:0:0:
223,214,176159,2,0,L|217:155,1,50
377,193,176292,2,0,L|443:189,1,50,8|0,0:0|0:0,0:0:0:0:
362,170,176425,2,0,L|300:168,1,50
152,301,176559,5,8,0:0:0:0:
136,238,176625,1,0,0:0:0:0:
176,188,176692,1,0,0:0:0:0:
241,188,176758,1,0,0:0:0:0:
80,183,176825,2,0,L|77:124,2,50,8|0|0,0:0|0:0|0:0,0:0:0:0:
106,110,176992,2,0,L|133:103,1,25,2|2,0:0|0:0,0:0:0:0:
286,89,177092,6,0,L|218:84,1,50,6|0,0:0|0:0,0:0:0:0:
82,296,177225,2,0,L|72:243,1,50,8|0,0:0|0:0,0:0:0:0:
240,68,177359,2,0,L|172:63,1,50,8|0,0:0|0:0,0:0:0:0:
36,275,177492,2,0,L|26:222,1,50,8|0,0:0|0:0,0:0:0:0:
184,203,177625,6,0,L|247:197,1,50,8|0,0:0|0:0,0:0:0:0:
70,158,177759,2,0,L|133:152,1,50,8|0,0:0|0:0,0:0:0:0:
283,134,177892,2,0,L|346:128,1,50,8|0,0:0|0:0,0:0:0:0:
178,114,178025,2,0,L|115:108,1,50,8|0,0:0|0:0,0:0:0:0:
288,325,178159,6,0,L|294:260,1,50,8|0,0:0|0:0,0:0:0:0:
146,262,178292,2,0,L|203:252,1,50,8|0,0:0|0:0,0:0:0:0:
366,262,178425,2,0,L|309:252,1,50,8|0,0:0|0:0,0:0:0:0:
142,226,178559,2,0,L|136:161,1,50,8|0,0:0|0:0,0:0:0:0:
290,159,178692,6,0,L|348:153,1,50,8|0,0:0|0:0,0:0:0:0:
176,130,178825,2,0,L|234:124,1,50,8|0,0:0|0:0,0:0:0:0:
374,114,178959,2,0,L|316:112,1,50,8|0,0:0|0:0,0:0:0:0:
179,232,179092,2,0,L|107:227,1,50,8|0,0:0|0:0,0:0:0:0:
287,184,179225,5,6,0:0:0:0:
438,180,179292,1,8,0:0:0:0:
287,184,179359,2,0,L|216:182,1,50,8|0,0:0|0:0,0:0:0:0:
392,163,179492,2,0,L|394:107,1,50,2|8,0:0|0:0,0:0:0:0:
249,114,179625,1,8,0:0:0:0:
98,110,179692,1,2,0:0:0:0:
249,114,179759,6,0,L|320:112,1,50,8|0,0:0|0:0,0:0:0:0:
144,93,179892,2,0,L|142:37,1,50,2|0,0:0|0:0,0:0:0:0:
284,40,180025,1,8,0:0:0:0:
426,25,180092,1,8,0:0:0:0:
284,40,180159,2,0,L|227:35,1,50,2|0,0:0|0:0,0:0:0:0:
406,209,180292,5,6,0:0:0:0:
255,205,180359,1,8,0:0:0:0:
114,189,180426,2,0,L|185:187,1,50,8|0,0:0|0:0,0:0:0:0:
307,172,180559,2,0,L|309:116,1,50,2|8,0:0|0:0,0:0:0:0:
164,123,180692,1,8,0:0:0:0:
307,111,180759,1,2,0:0:0:0:
446,87,180825,6,0,L|375:85,1,50,8|0,0:0|0:0,0:0:0:0:
248,102,180959,2,0,L|246:46,1,50,2|0,0:0|0:0,0:0:0:0:
390,39,181092,1,8,0:0:0:0:
248,24,181159,1,8,0:0:0:0:
105,58,181226,2,0,L|162:53,1,50,2|0,0:0|0:0,0:0:0:0:
333,42,181359,6,0,L|336:142,1,100,6|0,0:0|0:0,0:0:0:0:
222,155,181625,1,8,0:3:0:0:
173,152,181691,1,2,0:3:0:0:
137,185,181758,1,2,0:3:0:0:
136,234,181824,1,8,0:3:0:0:
170,268,181891,1,2,0:3:0:0:
219,268,181958,1,8,0:3:0:0:
69,262,182025,6,0,L|66:193,3,50,2|2|2|2,0:0|0:3|0:3|0:3,0:0:0:0:
215,181,182292,2,0,L|222:128,1,50,8|2,0:3|0:3,0:0:0:0:
151,119,182425,2,0,L|144:66,1,50,2|8,0:3|0:3,0:0:0:0:
215,181,182559,2,0,L|222:128,1,50,2|2,0:3|0:3,0:0:0:0:
69,266,182692,6,0,L|128:263,1,50,8|2,0:3|0:3,0:0:0:0:
275,221,182825,2,0,L|216:218,1,50,2|8,0:3|0:3,0:0:0:0:
69,266,182959,2,0,L|128:263,1,50,2|2,0:3|0:3,0:0:0:0:
327,198,183092,2,0,L|268:195,1,50,2|2,0:3|0:3,0:0:0:0:
69,266,183225,2,0,L|128:263,1,50,0|2,0:3|0:3,0:0:0:0:
382,172,183358,2,0,L|323:169,1,50,0|2,0:3|0:3,0:0:0:0:
117,162,183492,6,0,B|368:150|368:150|327:24,1,375,6|0,0:0|0:0,0:0:0:0:
167,31,183752,1,2,0:0:0:0:
324,247,183818,1,0,0:0:0:0:
314,182,183883,1,0,0:0:0:0:
265,139,183948,1,0,0:0:0:0:
200,138,184013,1,2,0:0:0:0:
364,126,184078,6,0,L|369:63,2,50
293,54,184274,1,2,0:0:0:0:
131,234,184339,1,0,0:0:0:0:
180,229,184404,1,0,0:0:0:0:
230,225,184469,1,0,0:0:0:0:
379,222,184535,5,2,0:0:0:0:
377,197,184567,1,0,0:0:0:0:
376,172,184600,1,0,0:0:0:0:
363,157,184632,1,0,0:0:0:0:
338,152,184665,1,0,0:0:0:0:
314,147,184698,1,0,0:0:0:0:
289,142,184730,1,0,0:0:0:0:
135,138,184796,1,2,0:0:0:0:
292,114,184861,2,0,L|358:110,1,50
341,110,184992,2,0,L|292:114,1,50,0|2,0:0|0:0,0:0:0:0:
457,299,185122,6,0,L|462:239,1,50
392,222,185252,2,0,L|342:218,1,50,0|2,0:0|0:0,0:0:0:0:
487,180,185383,1,0,0:0:0:0:
437,176,185448,1,0,0:0:0:0:
387,173,185513,1,0,0:0:0:0:
192,295,185578,6,0,B|63:176|154:78|154:78|299:75,1,375,2|0,0:0|0:0,0:0:0:0:
433,243,185839,2,0,L|493:240,1,50,2|0,0:0|0:0,0:0:0:0:
482,240,185970,2,0,L|433:243,1,50
362,231,186100,6,0,L|353:179,1,50,2|0,0:0|0:0,0:0:0:0:
427,161,186231,2,0,L|436:109,1,50
357,99,186361,1,2,0:0:0:0:
208,109,186426,2,0,L|151:105,2,50
351,98,186622,5,2,0:0:0:0:
192,271,186687,1,0,0:0:0:0:
201,206,186752,1,0,0:0:0:0:
250,163,186817,1,0,0:0:0:0:
315,162,186882,1,2,0:0:0:0:
161,138,186948,2,0,L|111:135,2,50
320,113,187144,6,0,L|207:110,1,100,2|0,0:0|0:0,0:0:0:0:
71,258,187339,2,0,L|61:139,1,100,2|0,0:0|0:0,0:0:0:0:
234,146,187535,2,0,L|177:141,1,50,2|0,0:0|0:0,0:0:0:0:
44,301,187665,6,0,L|25:264,6,25,6|0|0|0|0|0|0,0:0|0:0|0:0|0:0|0:0|0:0|0:0,0:0:0:0:
194,238,187926,1,2,0:0:0:0:
60,211,187992,2,0,L|51:142,1,50
122,137,188122,2,0,L|191:128,1,50,0|2,0:0|0:0,0:0:0:0:
333,274,188252,6,0,L|383:272,1,50
315,258,188383,2,0,L|307:207,1,50,0|2,0:0|0:0,0:0:0:0:
449,195,188513,2,0,L|451:144,1,50
386,133,188644,1,0,0:0:0:0:
203,223,188709,5,2,0:0:0:0:
204,198,188741,1,0,0:0:0:0:
205,173,188774,1,0,0:0:0:0:
218,158,188806,1,0,0:0:0:0:
243,153,188839,1,0,0:0:0:0:
267,148,188872,1,0,0:0:0:0:
292,143,188904,1,0,0:0:0:0:
447,139,188970,1,2,0:0:0:0:
290,115,189035,2,0,L|224:111,1,50
240,111,189166,2,0,L|289:114,1,50,0|2,0:0|0:0,0:0:0:0:
125,300,189296,6,0,L|120:240,1,50
190,223,189426,2,0,L|239:219,1,50,0|2,0:0|0:0,0:0:0:0:
95,181,189557,1,0,0:0:0:0:
144,177,189622,1,0,0:0:0:0:
194,174,189687,1,0,0:0:0:0:
390,296,189752,6,0,B|519:177|428:79|428:79|283:76,1,375,2|0,0:0|0:0,0:0:0:0:
149,244,190013,2,0,L|89:241,1,50,2|0,0:0|0:0,0:0:0:0:
99,241,190144,2,0,L|148:243,1,50
220,232,190274,6,0,L|229:180,1,50,2|0,0:0|0:0,0:0:0:0:
155,162,190405,2,0,L|146:110,1,50
225,100,190535,1,2,0:0:0:0:
374,110,190600,2,0,L|431:106,2,50
223,291,190796,6,0,L|69:283,1,150,2|0,0:0|0:0,0:0:0:0:
242,234,191057,2,0,L|124:225,2,100,2|0|2,0:0|0:0|0:0,0:0:0:0:
26,162,191448,2,0,L|84:153,1,50,0|2,0:0|0:0,0:0:0:0:
219,120,191578,2,0,L|228:62,1,50,2|0,0:0|0:0,0:0:0:0:
80,183,191709,2,0,L|71:125,1,50,2|0,0:0|0:0,0:0:0:0:
272,105,191839,6,0,L|6:103,1,250,6|0,0:0|0:0,0:0:0:0:
250,284,192100,2,0,L|252:266,1,12.5
308,245,192165,2,0,L|306:227,1,12.5
254,202,192231,2,0,L|194:198,1,50
55,189,192361,6,0,B|303:177|303:177|267:55|267:55|212:182,1,500,8|0,0:0|0:0,0:0:0:0:
94,144,192752,1,2,0:0:0:0:
309,130,192883,6,0,L|240:128,1,50,2|0,0:0|0:0,0:0:0:0:
107,85,193013,2,0,L|176:83,1,50,2|0,0:0|0:0,0:0:0:0:
287,75,193144,2,0,L|356:73,1,50
193,43,193274,2,0,L|124:41,1,50
341,237,193405,6,0,L|61:228,1,250,8|0,0:0|0:0,0:0:0:0:
117,214,193568,1,0,0:0:0:0:
215,184,193665,2,0,L|219:155,1,25
121,97,193796,2,0,L|124:121,1,25
345,272,193926,6,0,B|94:260|94:260|140:102,1,375,2|0,0:0|0:0,0:0:0:0:
288,131,194187,2,0,L|278:77,1,50,2|0,0:0|0:0,0:0:0:0:
124,92,194318,2,0,L|134:38,1,50,2|0,0:0|0:0,0:0:0:0:
302,214,194448,6,0,L|184:210,1,100,8|0,0:0|0:0,0:0:0:0:
436,170,194709,1,2,0:0:0:0:
185,161,194839,2,0,L|303:157,1,100,8|0,0:0|0:0,0:0:0:0:
173,174,195100,6,0,L|182:146,1,25,2|0,0:0|0:0,0:0:0:0:
270,133,195231,2,0,L|279:105,1,25,2|0,0:0|0:0,0:0:0:0:
368,100,195361,2,0,L|377:72,1,25,2|0,0:0|0:0,0:0:0:0:
171,73,195492,6,0,L|440:55,2,250,8|0|2,0:0|0:0|0:0,0:0:0:0:
232,30,195818,1,0,0:0:0:0:
412,217,195883,2,0,L|385:166,1,50,2|2,0:0|0:0,0:0:0:0:
240,105,196013,6,0,L|506:103,1,250,6|0,0:0|0:0,0:0:0:0:
262,284,196274,2,0,L|260:266,1,12.5
188,245,196339,2,0,L|190:227,1,12.5
258,202,196405,2,0,L|318:198,1,50
457,189,196535,6,0,B|209:177|209:177|245:55|245:55|300:182,1,500,8|0,0:0|0:0,0:0:0:0:
418,144,196926,1,2,0:0:0:0:
203,130,197057,6,0,L|272:128,1,50,2|0,0:0|0:0,0:0:0:0:
405,85,197187,2,0,L|336:83,1,50,2|0,0:0|0:0,0:0:0:0:
225,75,197318,2,0,L|156:73,1,50
319,43,197448,2,0,L|388:41,1,50
171,237,197579,6,0,L|451:228,1,250,8|0,0:0|0:0,0:0:0:0:
395,214,197742,1,0,0:0:0:0:
297,184,197839,2,0,L|293:155,1,25
391,97,197970,2,0,L|388:121,1,25
167,272,198100,6,0,B|418:260|418:260|372:102,1,375,2|0,0:0|0:0,0:0:0:0:
224,131,198361,2,0,L|234:77,1,50,2|0,0:0|0:0,0:0:0:0:
388,92,198492,2,0,L|378:38,1,50,2|0,0:0|0:0,0:0:0:0:
210,214,198622,6,0,L|497:205,1,250,8|0,0:0|0:0,0:0:0:0:
160,147,198883,1,2,0:0:0:0:
377,134,199013,2,0,L|304:131,1,50,8|0,0:0|0:0,0:0:0:0:
162,311,199144,6,0,P|180:248|269:215,1,150,2|0,0:0|0:0,0:0:0:0:
398,159,199405,1,2,0:0:0:0:
348,158,199470,1,2,0:0:0:0:
298,157,199535,1,2,0:0:0:0:
70,324,199665,6,0,P|32:308|82:234,1,150,8|0,0:0|0:0,0:0:0:0:
135,218,199926,2,0,L|242:215,1,100,2|2,0:0|0:0,0:0:0:0:
38,181,200187,6,0,L|340:172,1,250,6|0,0:0|0:0,0:0:0:0:
152,268,200448,2,0,B|403:257|403:257|450:91,1,375,8|0,0:1|0:0,0:0:0:0:
207,208,200709,6,0,B|458:197|458:197|505:31,1,375,2|0,0:0|0:0,0:0:0:0:
318,128,200970,2,0,L|263:126,1,50,8|0,0:1|0:0,0:0:0:0:
343,110,201100,2,0,L|356:45,1,50
164,241,201231,6,0,B|415:230|415:230|462:64,1,375,2|0,0:0|0:0,0:0:0:0:
373,92,201492,2,0,L|372:71,1,12.5,8|0,0:1|0:0,0:0:0:0:
304,64,201557,2,0,L|305:43,1,12.5
373,92,201622,2,0,L|374:71,1,12.5
442,64,201687,2,0,L|441:43,1,12.5
283,197,201752,6,0,L|217:193,1,50,2|0,0:0|0:0,0:0:0:0:
161,189,201883,2,0,L|236:184,1,50
384,160,202013,2,0,B|135:149|135:149|93:9,1,375,8|0,0:1|0:0,0:0:0:0:
335,326,202274,6,0,B|465:212|356:115|356:115|173:109,1,375,2|0,0:0|0:0,0:0:0:0:
396,94,202536,2,0,L|452:88,1,50,8|0,0:1|0:0,0:0:0:0:
371,77,202666,2,0,L|361:27,1,50
433,22,202797,6,0,L|310:20,1,100,2|0,0:0|0:0,0:0:0:0:
107,286,203058,1,8,0:1:0:0:
107,221,203123,1,0,0:0:0:0:
154,176,203188,1,0,0:0:0:0:
219,179,203253,1,0,0:0:0:0:
152,225,203319,5,2,0:0:0:0:
152,168,203384,1,0,0:0:0:0:
194,128,203449,1,0,0:0:0:0:
251,131,203514,1,0,0:0:0:0:
200,202,203579,1,8,0:1:0:0:
200,153,203644,1,0,0:0:0:0:
235,119,203709,1,0,0:0:0:0:
283,122,203774,1,0,0:0:0:0:
126,301,203840,6,0,L|114:179,1,100,2|0,0:0|0:0,0:0:0:0:
280,172,204036,2,0,L|292:50,1,100,2|0,0:0|0:0,0:0:0:0:
147,71,204232,2,0,L|197:66,1,50,2|0,0:0|0:0,0:0:0:0:
359,205,204361,6,0,B|108:199|108:199|76:77,1,375,6|0,0:0|0:0,0:0:0:0:
235,119,204622,2,0,L|291:113,1,50,8|0,0:1|0:0,0:0:0:0:
210,102,204752,2,0,L|200:52,1,50
364,27,204883,6,0,L|241:25,1,100,2|0,0:0|0:0,0:0:0:0:
46,277,205144,1,8,0:1:0:0:
46,212,205209,1,0,0:0:0:0:
93,167,205274,1,0,0:0:0:0:
158,170,205339,1,0,0:0:0:0:
336,164,205405,6,0,L|62:155,1,250,2|0,0:0|0:0,0:0:0:0:
300,305,205665,2,0,L|309:243,1,50,8|0,0:1|0:0,0:0:0:0:
232,230,205796,2,0,L|223:168,1,50
383,171,205926,2,0,L|395:60,1,100,2|0,0:0|0:0,0:0:0:0:
179,71,206187,1,8,0:1:0:0:
228,67,206252,1,0,0:0:0:0:
278,64,206317,1,0,0:0:0:0:
328,61,206382,1,0,0:0:0:0:
177,326,206448,6,0,B|47:212|156:115|156:115|339:109,1,375,2|0,0:0|0:0,0:0:0:0:
116,94,206710,2,0,L|60:88,1,50,8|0,0:1|0:0,0:0:0:0:
141,77,206840,2,0,L|201:75,1,50
367,290,206970,2,0,P|381:229|293:185,1,150,2|0,0:0|0:0,0:0:0:0:
169,158,207231,2,0,P|165:91|240:55,1,150,8|0,0:1|0:0,0:0:0:0:
412,299,207492,6,0,L|239:278,1,150,2|0,0:0|0:0,0:0:0:0:
107,254,207752,2,0,L|247:243,2,100,8|0|2,0:1|0:0|0:0,0:0:0:0:
330,196,208144,1,0,0:0:0:0:
117,154,208274,2,0,L|229:145,1,100,8|2,0:1|0:0,0:0:0:0:
467,286,208535,6,0,B|216:273|216:273|270:147,1,375,6|0,0:0|0:0,0:0:0:0:
333,151,208796,2,0,L|339:130,1,12.5
281,100,208861,2,0,L|275:79,1,12.5
222,79,208926,2,0,L|227:59,1,12.5
284,56,208992,2,0,L|290:35,1,12.5
388,256,209057,6,0,B|138:241|138:241|396:233,1,500,8|0,0:0|0:0,0:0:0:0:
173,174,209448,2,0,L|241:171,1,50,2|0,0:0|0:0,0:0:0:0:
368,141,209578,2,0,L|378:79,1,50,2|0,0:0|0:0,0:0:0:0:
215,67,209709,2,0,L|157:64,1,50,2|0,0:0|0:0,0:0:0:0:
166,64,209839,6,0,L|215:67,1,50
65,297,209970,2,0,L|59:239,1,50
237,292,210100,2,0,B|488:278|488:278|405:42|405:42|109:41,1,750,8|0,0:0|0:0,0:0:0:0:
398,320,210622,6,0,B|528:206|419:109|419:109|236:103,1,375,2|0,0:0|0:0,0:0:0:0:
346,214,210883,2,0,L|349:199,1,12.5,2|0,0:0|0:0,0:0:0:0:
405,173,210948,2,0,L|402:158,1,12.5
345,172,211013,2,0,L|342:157,1,12.5,2|0,0:0|0:0,0:0:0:0:
286,129,211078,2,0,L|281:111,1,12.5
160,72,211144,6,0,B|409:56|409:56|381:198,1,375,8|0,0:0|0:0,0:0:0:0:
243,283,211405,2,0,L|172:277,1,50,2|0,0:0|0:0,0:0:0:0:
54,213,211535,2,0,L|335:200,1,250,8|2,0:0|0:0,0:0:0:0:
37,145,211796,2,0,L|289:136,2,250,2|2|2,0:0|0:0|0:0,0:0:0:0:
386,301,212187,6,0,L|398:179,1,100,8|0,0:0|0:0,0:0:0:0:
232,172,212383,2,0,L|220:50,1,100
365,71,212579,2,0,L|315:66,1,50,2|2,0:0|0:0,0:0:0:0:
128,251,212709,6,0,B|379:245|379:245|302:139,1,375,6|0,0:0|0:0,0:0:0:0:
238,130,212970,2,0,L|235:108,1,12.5
172,98,213035,2,0,L|169:76,1,12.5
105,79,213100,2,0,L|102:57,1,12.5
39,47,213165,2,0,L|36:25,1,12.5
234,251,213231,6,0,B|482:237|482:237|504:91,1,375,8|0,0:0|0:0,0:0:0:0:
450,99,213492,2,0,L|381:93,1,50
242,184,213622,2,0,L|235:128,2,50,2|0|2,0:0|0:0|0:0,0:0:0:0:
386,128,213818,6,0,L|443:119,2,50,0|2|0,0:0|0:0|0:0,0:0:0:0:
240,111,214013,2,0,L|188:105,1,50
351,258,214144,2,0,L|356:197,1,50
213,211,214274,6,0,L|203:146,1,50,8|0,0:0|0:0,0:0:0:0:
64,116,214405,2,0,L|59:50,1,50,2|0,0:0|0:0,0:0:0:0:
199,179,214535,2,0,L|204:113,1,50,2|0,0:0|0:0,0:0:0:0:
341,103,214666,2,0,L|346:37,1,50,2|0,0:0|0:0,0:0:0:0:
177,326,214796,6,0,B|47:212|156:115|156:115|339:109,1,375,2|0,0:0|0:0,0:0:0:0:
432,281,215057,2,0,L|443:228,1,50,2|0,0:0|0:0,0:0:0:0:
275,182,215187,2,0,L|264:129,1,50,2|0,0:0|0:0,0:0:0:0:
419,141,215318,6,0,P|469:108|399:76,1,150,8|0,0:0|0:0,0:0:0:0:
268,253,215578,2,0,L|374:241,1,100,2|8,0:0|0:0,0:0:0:0:
137,300,215839,6,0,P|83:261|193:44,1,350,2|2,0:0|0:0,0:0:0:0:
318,111,216361,2,0,L|109:101,1,200,8|0,0:0|0:0,0:0:0:0:
439,170,216883,6,0,P|489:135|423:98,1,150,6|0,0:0|0:0,0:0:0:0:
362,90,217123,2,0,L|254:88,1,100,2|0,0:0|0:0,0:0:0:0:
41,273,217363,2,0,L|151:262,2,100,8|2|0,0:1|0:0|0:0,0:0:0:0:
241,303,217843,6,0,L|252:95,1,200,2|0,0:0|0:0,0:0:0:0:
132,110,218203,2,0,L|20:96,2,100,8|8|2,0:1|0:1|0:0,0:0:0:0:
252,96,218563,2,0,L|370:88,1,100
125,313,218803,6,0,P|59:281|140:231,1,200,2|0,0:0|0:0,0:0:0:0:
251,214,219163,2,0,L|259:105,1,100,2|8,0:0|0:1,0:0:0:0:
159,103,219403,1,0,0:0:0:0:
283,98,219523,2,0,L|405:92,1,100,2|0,0:0|0:0,0:0:0:0:
160,302,219763,6,0,L|281:288,1,100,2|8,0:0|0:1,0:0:0:0:
380,271,220003,1,0,0:0:0:0:
179,242,220243,2,0,P|121:221|193:144,1,200,8|2,0:1|0:0,0:0:0:0:
232,137,220543,1,0,0:0:0:0:
281,135,220603,1,0,0:0:0:0:
331,133,220663,1,0,0:0:0:0:
185,327,220723,6,0,B|87:315|87:315|68:177,1,200,2|2,0:0|0:0,0:0:0:0:
273,211,221203,2,0,L|384:203,2,100,8|2|0,0:1|0:0|0:0,0:0:0:0:
72,301,221683,6,0,L|54:96,1,200,2|0,0:0|0:0,0:0:0:0:
181,90,222043,2,0,L|62:78,2,100,8|8|2,0:1|0:1|0:0,0:0:0:0:
307,90,222403,2,0,L|364:87,1,50
356,87,222523,2,0,L|307:90,1,50
148,337,222643,6,0,P|84:312|169:253,1,200,2|0,0:0|0:0,0:0:0:0:
271,237,223003,2,0,L|278:111,1,100,2|8,0:0|0:1,0:0:0:0:
163,124,223243,1,0,0:0:0:0:
37,123,223363,2,0,L|22:12,1,100,2|0,0:0|0:0,0:0:0:0:
249,236,223603,5,2,0:0:0:0:
125,232,223723,2,0,L|236:224,2,100,8|0|0,0:1|0:0|0:0,0:0:0:0:
360,282,224083,2,0,P|363:223|280:178,1,150,8|0,0:1|0:0,0:0:0:0:
142,174,224323,2,0,L|131:113,3,50,2|0|0|0,0:0|0:0|0:0|0:0,0:0:0:0:
307,253,224563,6,0,L|29:236,1,250,6|0,0:0|0:0,0:0:0:0:
178,134,224793,2,0,L|281:132,1,100,2|0,0:0|0:0,0:0:0:0:
176,72,225024,2,0,L|62:67,2,100,8|2|0,0:1|0:0|0:0,0:0:0:0:
296,227,225486,6,0,P|386:190|420:97,1,200,2|0,0:0|0:0,0:0:0:0:
320,93,225832,2,0,L|443:77,2,100,8|8|2,0:1|0:1|0:0,0:0:0:0:
206,272,226178,2,0,L|202:159,1,100
253,164,226351,1,0,0:0:0:0:
400,160,226409,6,0,P|463:145|384:102,1,200,2|0,0:0|0:0,0:0:0:0:
284,309,226755,2,0,L|278:188,1,100,2|8,0:0|0:1,0:0:0:0:
390,196,226986,1,0,0:0:0:0:
266,183,227101,2,0,L|255:71,1,100,2|0,0:0|0:0,0:0:0:0:
465,80,227332,5,2,0:0:0:0:
349,76,227447,2,0,L|340:208,1,100,8|0,0:1|0:0,0:0:0:0:
452,198,227678,1,0,0:0:0:0:
231,307,227793,2,0,P|177:280|261:197,1,200,8|2,0:1|0:0,0:0:0:0:
285,185,228082,1,0,0:0:0:0:
335,183,228139,1,0,0:0:0:0:
385,181,228197,1,0,0:0:0:0:
231,128,228255,6,0,L|21:114,1,200,2|2,0:0|0:0,0:0:0:0:
151,323,228601,2,0,L|161:215,1,100,0|8,0:0|0:1,0:0:0:0:
276,228,228832,2,0,L|286:120,1,100
182,110,229062,1,0,0:0:0:0:
410,307,229178,6,0,L|422:107,1,200,2|2,0:0|0:0,0:0:0:0:
311,96,229524,2,0,L|300:230,1,100,2|8,0:0|0:1,0:0:0:0:
412,206,229755,1,2,0:0:0:0:
290,196,229870,2,0,L|172:188,1,100
240,168,230043,1,0,0:0:0:0:
382,315,230101,6,0,P|446:258|351:214,1,200,2|0,0:0|0:0,0:0:0:0:
251,183,230447,2,0,L|190:181,1,50,8|0,0:0|0:0,0:0:0:0:
352,143,230562,2,0,L|514:134,1,150,2|0,0:0|0:0,0:0:0:0:
452,113,230793,2,0,L|340:109,1,100,2|0,0:0|0:0,0:0:0:0:
138,143,231024,6,0,P|128:137|141:259,1,300,2|0,0:0|0:0,0:0:0:0:
333,101,231486,2,0,B|433:103|433:103|433:303,1,300,2|0,0:0|0:0,0:0:0:0:
194,293,231947,6,0,B|94:283|94:283|77:148,1,200,6|0,0:0|0:0,0:0:0:0:
192,161,232280,1,0,0:0:0:0:
409,157,232391,2,0,L|294:148,2,100,8|0|0,0:0|0:0|0:0,0:0:0:0:
206,319,232835,6,0,P|203:226|293:199,1,200,2|0,0:0|0:0,0:0:0:0:
403,201,233169,2,0,L|407:89,1,100,2|8,0:0|0:0,0:0:0:0:
306,82,233391,2,0,P|245:86|322:138,1,200,2|0,0:0|0:0,0:0:0:0:
81,288,233724,6,0,L|65:80,1,200,2|0,0:0|0:0,0:0:0:0:
168,90,234058,2,0,L|288:81,2,100,2|8|0,0:0|0:0|0:0,0:0:0:0:
289,241,234391,2,0,L|299:117,1,100,2|0,0:0|0:0,0:0:0:0:
66,111,234613,6,0,L|188:101,1,100,2|2,0:0|0:0,0:0:0:0:
266,94,234835,1,2,0:0:0:0:
86,306,235058,2,0,P|79:242|195:184,1,200,8|2,0:0|0:0,0:0:0:0:
233,181,235335,1,0,0:0:0:0:
283,178,235390,1,0,0:0:0:0:
333,176,235446,1,0,0:0:0:0:
185,342,235502,6,0,P|128:315|219:252,1,200,2|2,0:0|0:0,0:0:0:0:
371,183,235947,2,0,L|252:168,2,100,8|2|0,0:0|0:0|0:0,0:0:0:0:
193,313,236391,6,0,P|124:277|216:226,1,200,2|0,0:0|0:0,0:0:0:0:
311,210,236724,2,0,L|429:201,2,100,2|8|2,0:0|0:0|0:0,0:0:0:0:
103,185,237058,2,0,B|14:137|14:137|14:70,1,150
163,92,237280,6,0,L|369:81,1,200,2|0,0:0|0:0,0:0:0:0:
249,224,237613,2,0,L|134:213,2,100,2|8|0,0:0|0:0|0:0,0:0:0:0:
363,228,237947,2,0,L|379:123,1,100,2|0,0:0|0:0,0:0:0:0:
158,102,238169,6,0,L|38:95,2,100,2|2|0,0:0|0:0|0:0,0:0:0:0:
272,93,238502,1,0,0:0:0:0:
160,277,238613,2,0,L|152:177,1,100,2|0,0:0|0:0,0:0:0:0:
273,180,238835,2,0,L|329:177,1,50,2|2,0:0|0:3,0:0:0:0:
323,177,238947,2,0,L|273:180,1,50,2|2,0:3|0:3,0:0:0:0:
114,256,239058,6,0,P|70:224|149:124,1,200,6|0,0:0|0:0,0:0:0:0:
227,109,239379,2,0,L|334:96,2,100,0|8|0,0:0|0:0|0:0,0:0:0:0:
328,253,239700,2,0,L|338:150,1,100
106,336,239915,6,0,L|98:117,1,200,2|0,0:0|0:0,0:0:0:0:
208,131,240236,2,0,L|214:22,1,100,2|8,0:0|0:0,0:0:0:0:
113,27,240450,1,2,0:0:0:0:
241,261,240558,2,0,L|355:257,1,100
293,232,240718,1,0,0:0:0:0:
139,229,240772,6,0,P|80:200|152:125,1,200,2|0,0:0|0:0,0:0:0:0:
247,120,241093,2,0,L|362:105,2,100,2|8|0,0:0|0:0|0:0,0:0:0:0:
134,238,241415,2,0,L|252:226,1,100,2|0,0:0|0:0,0:0:0:0:
452,313,241629,6,0,L|456:211,1,100,2|2,0:0|0:0,0:0:0:0:
355,195,241843,1,2,0:0:0:0:
199,304,242058,2,0,L|182:95,1,200,8|2,0:0|0:0,0:0:0:0:
233,90,242325,1,0,0:0:0:0:
283,84,242378,1,0,0:0:0:0:
333,78,242432,1,0,0:0:0:0:
185,355,242486,6,0,P|129:330|206:239,1,200,2|2,0:0|0:0,0:0:0:0:
281,227,242808,2,0,L|397:218,2,100,0|8|0,0:0|0:0|0:0,0:0:0:0:
382,342,243129,2,0,L|390:226,1,100,2|0,0:0|0:0,0:0:0:0:
171,222,243343,6,0,P|170:149|291:106,1,200,2|0,0:0|0:0,0:0:0:0:
173,82,243665,2,0,L|63:78,1,100,0|2,0:0|0:0,0:0:0:0:
312,277,243879,2,0,L|190:265,1,100,8|2,0:0|0:0,0:0:0:0:
439,248,244093,2,0,L|445:188,2,50,0|0|2,0:0|0:0|0:0,0:0:0:0:
256,192,244629,12,0,245700,0:0:0:0:
240,147,245915,5,2,0:0:0:0:
162,221,261343,6,0,L|155:115,2,100,2|2|0,0:0|0:0|0:0,0:0:0:0:
299,320,261772,2,0,P|349:287|288:186,1,200,8|0,0:3|0:0,0:0:0:0:
188,177,262093,1,2,0:0:0:0:
298,293,262200,2,0,L|435:144,2,200,2|2|8,0:0|0:0|0:3,0:0:0:0:
162,221,263058,6,0,L|155:115,2,100,2|2|0,0:0|0:0|0:0,0:0:0:0:
362,306,263486,2,0,L|374:100,1,200,8|0,0:3|0:0,0:0:0:0:
251,267,263808,2,0,L|96:139,2,200,2|0|0,0:0|0:0|0:0,0:0:0:0:
354,261,264343,2,0,P|365:191|189:94,1,300,8|0,0:3|0:0,0:0:0:0:
427,170,264772,6,0,L|444:63,2,100,2|2|0,0:0|0:0|0:0,0:0:0:0:
267,317,265200,2,0,P|216:304|297:232,1,200,8|0,0:3|0:0,0:0:0:0:
434,268,265629,2,0,P|471:206|336:268,1,400,2|8,0:0|0:3,0:0:0:0:
166,289,266486,6,0,L|154:177,2,100,2|2|0,0:0|0:0|0:0,0:0:0:0:
350,226,266930,2,0,L|361:18,1,200,8|0,0:3|0:0,0:0:0:0:
258,15,267263,1,0,0:0:0:0:
127,279,267374,6,0,B|118:176|118:176|239:163,1,200,2|2,0:0|0:0,0:0:0:0:
389,326,267835,2,0,L|409:113,1,200,8|0,0:3|0:0,0:0:0:0:
227,210,268297,6,0,L|215:99,2,100,2|2|0,0:0|0:0|0:0,0:0:0:0:
383,304,268777,2,0,P|385:218|261:170,1,200,8|0,0:3|0:0,0:0:0:0:
186,162,269137,1,2,0:0:0:0:
287,312,269257,6,0,P|338:293|250:225,1,200,2|2,0:0|0:0,0:0:0:0:
62,243,269778,2,0,L|42:39,1,200,8|0,0:3|0:0,0:0:0:0:
264,280,270300,6,0,P|317:249|244:164,1,200,2|2,0:0|0:0,0:0:0:0:
130,163,270728,2,0,L|11:148,2,100,0|8|0,0:0|0:3|0:0,0:0:0:0:
253,305,271157,2,0,L|281:88,1,200,2|2,0:0|0:0,0:0:0:0:
74,150,271728,2,0,L|261:56,1,200,2|8,0:0|0:3,0:0:0:0:
79,277,272300,2,0,L|67:154,1,100,2|0,0:0|0:0,0:0:0:0:
164,151,272585,5,2,0:0:0:0:
256,192,272761,12,0,273820,0:0:0:0:
256,192,273996,12,0,274035,0:0:0:0:
256,192,274074,12,0,274113,0:0:0:0:
256,192,274153,12,0,274192,0:0:0:0:
256,192,274232,12,0,274271,0:0:0:0:
256,192,274311,12,0,274350,0:0:0:0:
256,192,274390,12,0,274429,0:0:0:0:
256,192,274469,12,0,274508,0:0:0:0:
256,192,274548,12,0,274587,0:0:0:0:
256,192,274627,12,0,274666,0:0:0:0:
256,192,274706,12,0,274745,0:0:0:0:
256,192,274785,12,0,274824,0:0:0:0:
256,192,274864,12,0,274903,0:0:0:0:
256,192,274943,12,0,274982,0:0:0:0:
256,192,275022,12,0,275061,0:0:0:0:
256,192,275101,12,0,275140,0:0:0:0:
256,192,275259,5,6,0:3:0:0:
256,192,275384,12,0,278259,0:0:0:0:
196,266,291259,6,0,L|120:67,3,200
316,266,292259,2,0,L|392:67,3,200
139,269,293259,6,0,L|63:70,3,200
288,258,294259,2,0,P|295:193|167:133,1,200
84,118,294634,2,0,L|288:99,1,200
406,79,295009,2,0,L|419:180,1,100
196,266,295259,6,0,L|120:67,3,200
316,266,296259,6,0,L|392:67,1,200
223,257,296759,2,0,P|164:241|228:162,1,200
397,271,297259,6,0,L|426:50,3,200
231,118,298259,2,0,L|152:309,3,200
465,291,299259,6,0,P|445:178|361:155,1,200,6|0,0:0|0:0,0:0:0:0:
203,269,299759,2,0,B|186:171|186:171|298:152,1,200,0|2,0:0|0:0,0:0:0:0:
336,142,300071,2,0,L|345:72,2,50,2|2|2,0:0|0:0|0:0,0:0:0:0:
166,245,300259,5,2,0:0:0:0:
169,195,300321,1,2,0:0:0:0:
201,158,300384,1,2,0:0:0:0:
249,147,300446,1,2,0:0:0:0:
323,137,300509,2,0,L|330:83,3,50,2|2|2|2,0:0|0:0|0:0|0:0,0:0:0:0:
176,70,300759,6,0,L|126:68,1,50,2|2,0:0|0:0,0:0:0:0:
126,68,300884,2,0,L|176:70,1,50,2|2,0:0|0:0,0:0:0:0:
250,60,301009,2,0,L|257:10,1,50,2|2,0:0|0:0,0:0:0:0:
184,125,301134,2,0,L|177:75,1,50,2|2,0:0|0:0,0:0:0:0:
338,287,301259,5,2,0:0:0:0:
384,270,301321,1,2,0:0:0:0:
411,229,301384,1,2,0:0:0:0:
407,180,301446,1,2,0:0:0:0:
375,143,301509,1,2,0:0:0:0:
327,132,301571,1,2,0:0:0:0:
251,121,301634,2,0,L|238:68,1,50,2|2,0:0|0:0,0:0:0:0:
390,61,301759,6,0,L|447:55,1,50,2|2,0:0|0:0,0:0:0:0:
372,44,301884,2,0,L|318:42,1,50,2|2,0:0|0:0,0:0:0:0:
163,269,302009,2,0,L|161:211,1,50,2|2,0:0|0:0,0:0:0:0:
233,184,302134,2,0,L|235:126,1,50,2|2,0:0|0:0,0:0:0:0:
69,278,302259,6,0,L|65:222,1,50,2|2,0:0|0:0,0:0:0:0:
131,206,302384,2,0,L|182:190,1,50,2|2,0:0|0:0,0:0:0:0:
250,159,302509,2,0,L|254:103,1,50,2|2,0:0|0:0,0:0:0:0:
178,100,302634,2,0,L|174:44,1,50,2|2,0:0|0:0,0:0:0:0:
330,234,302759,6,0,L|385:227,1,50,2|2,0:0|0:0,0:0:0:0:
379,227,302884,2,0,L|330:234,1,50,2|2,0:0|0:0,0:0:0:0:
483,271,303009,2,0,L|492:215,3,50,2|2|2|2,0:0|0:0|0:0|0:0,0:0:0:0:
320,207,303259,6,0,L|263:203,1,50,2|2,0:0|0:0,0:0:0:0:
345,190,303384,2,0,L|356:122,1,50,2|2,0:0|0:0,0:0:0:0:
278,124,303509,2,0,L|267:56,1,50,2|2,0:0|0:0,0:0:0:0:
197,91,303634,2,0,L|186:23,1,50,2|2,0:0|0:0,0:0:0:0:
348,299,303759,5,2,0:0:0:0:
342,249,303821,1,2,0:0:0:0:
311,210,303884,1,2,0:0:0:0:
265,193,303946,1,2,0:0:0:0:
117,184,304009,2,0,L|191:177,1,50,2|2,0:0|0:0,0:0:0:0:
216,174,304134,2,0,L|290:167,1,50,2|2,0:0|0:0,0:0:0:0:
109,140,304259,6,0,L|45:138,1,50,2|2,0:0|0:0,0:0:0:0:
135,118,304384,2,0,L|197:116,1,50,2|2,0:0|0:0,0:0:0:0:
108,90,304509,2,0,L|103:29,1,50,2|2,0:0|0:0,0:0:0:0:
177,28,304634,2,0,L|239:26,1,50,2|2,0:0|0:0,0:0:0:0:
404,316,304759,6,0,L|404:248,1,50,2|2,0:0|0:0,0:0:0:0:
331,250,304884,2,0,L|281:233,1,50,2|2,0:0|0:0,0:0:0:0:
136,214,305009,2,0,L|190:209,1,50,2|2,0:0|0:0,0:0:0:0:
376,214,305134,2,0,L|326:209,1,50,2|2,0:0|0:0,0:0:0:0:
119,190,305259,5,6,0:0:0:0:
378,252,306509,6,0,L|388:196,3,50
241,184,306759,2,0,L|231:81,1,100,2|0,0:0|0:0,0:0:0:0:
94,281,306946,2,0,L|84:178,1,100,2|0,0:0|0:0,0:0:0:0:
237,156,307134,2,0,L|301:149,1,50,2|0,0:0|0:0,0:0:0:0:
459,261,307259,6,0,L|293:248,1,150,6|0,0:0|0:0,0:0:0:0:
131,248,307509,2,0,L|129:193,1,50,2|0,0:0|0:0,0:0:0:0:
194,182,307634,1,0,0:0:0:0:
424,146,307759,2,0,L|309:135,1,100,2|0,0:0|0:0,0:0:0:0:
278,132,307946,1,0,0:0:0:0:
436,90,308009,2,0,L|321:79,1,100,2|0,0:0|0:0,0:0:0:0:
89,299,308259,6,0,P|97:236|194:210,1,150,2|0,0:0|0:0,0:0:0:0:
327,191,308509,2,0,L|216:185,1,100,2|0,0:0|0:0,0:0:0:0:
441,98,308759,2,0,L|330:92,1,100,2|0,0:0|0:0,0:0:0:0:
118,264,309009,2,0,P|126:201|223:175,1,150,2|0,0:0|0:0,0:0:0:0:
343,145,309259,6,0,L|191:144,1,150,2|0,0:0|0:0,0:0:0:0:
350,96,309509,2,0,L|402:93,2,50,2|0|0,0:0|0:0|0:0,0:0:0:0:
127,281,309759,2,0,L|114:176,1,100,2|0,0:0|0:0,0:0:0:0:
165,165,309946,1,0,0:0:0:0:
312,146,310009,2,0,L|196:142,1,100,2|0,0:0|0:0,0:0:0:0:
439,328,310259,6,0,P|471:254|407:218,1,150,2|0,0:0|0:0,0:0:0:0:
265,232,310509,2,0,L|366:224,1,100,2|0,0:0|0:0,0:0:0:0:
107,154,310759,2,0,L|208:146,1,100,2|0,0:0|0:0,0:0:0:0:
428,303,311009,2,0,L|275:294,1,150,2|0,0:0|0:0,0:0:0:0:
114,285,311259,6,0,P|113:222|201:187,1,150,2|0,0:0|0:0,0:0:0:0:
334,170,311509,2,0,L|390:168,1,50,2|0,0:0|0:0,0:0:0:0:
383,168,311634,1,0,0:0:0:0:
162,292,311759,2,0,L|58:287,1,100,2|0,0:0|0:0,0:0:0:0:
111,259,311946,1,0,0:0:0:0:
278,253,312009,2,0,L|158:245,1,100,2|0,0:0|0:0,0:0:0:0:
401,238,312259,6,0,L|421:82,1,150,2|0,0:0|0:0,0:0:0:0:
259,101,312509,2,0,L|367:93,1,100,2|0,0:0|0:0,0:0:0:0:
112,233,312759,2,0,L|220:225,1,100,2|0,0:0|0:0,0:0:0:0:
453,233,313009,2,0,L|473:77,1,150,2|0,0:0|0:0,0:0:0:0:
319,161,313259,6,0,L|155:150,1,150,2|0,0:0|0:0,0:0:0:0:
323,128,313509,2,0,L|329:70,2,50,2|0|0,0:0|0:0|0:0,0:0:0:0:
101,196,313759,1,2,0:0:0:0:
212,192,313884,2,0,L|269:189,1,50
413,164,314009,2,0,L|424:59,1,100,2|0,0:0|0:0,0:0:0:0:
145,299,314259,6,0,P|159:243|250:209,1,150,2|0,0:0|0:0,0:0:0:0:
381,200,314509,2,0,L|269:195,1,100,2|0,0:0|0:0,0:0:0:0:
493,115,314759,2,0,L|381:110,1,100,2|0,0:0|0:0,0:0:0:0:
163,262,315009,2,0,P|177:206|268:172,1,150,2|0,0:0|0:0,0:0:0:0:
435,134,315259,5,2,0:0:0:0:
197,121,315384,1,2,0:0:0:0:
428,259,315509,2,0,L|430:204,1,50,2|0,0:0|0:0,0:0:0:0:
365,193,315634,1,0,0:0:0:0:
135,157,315759,2,0,L|250:146,1,100,2|0,0:0|0:0,0:0:0:0:
281,143,315946,1,0,0:0:0:0:
123,101,316009,2,0,L|238:90,1,100,2|0,0:0|0:0,0:0:0:0:
470,310,316259,6,0,P|462:247|365:221,1,150,2|0,0:0|0:0,0:0:0:0:
245,191,316509,2,0,L|356:185,1,100,2|0,0:0|0:0,0:0:0:0:
118,109,316759,2,0,L|229:103,1,100,2|0,0:0|0:0,0:0:0:0:
441,275,317009,2,0,P|433:212|336:186,1,150,2|0,0:0|0:0,0:0:0:0:
216,156,317259,6,0,L|368:155,1,150,2|0,0:0|0:0,0:0:0:0:
209,107,317509,2,0,L|157:104,2,50,2|0|0,0:0|0:0|0:0,0:0:0:0:
432,292,317759,2,0,L|445:187,1,100,2|0,0:0|0:0,0:0:0:0:
394,176,317946,1,0,0:0:0:0:
247,157,318009,2,0,L|363:153,1,100,2|0,0:0|0:0,0:0:0:0:
120,339,318259,6,0,P|88:265|152:229,1,150,2|0,0:0|0:0,0:0:0:0:
294,243,318509,2,0,L|193:235,1,100,2|0,0:0|0:0,0:0:0:0:
452,165,318759,2,0,L|351:157,1,100,2|0,0:0|0:0,0:0:0:0:
131,314,319009,2,0,L|284:305,1,150,2|0,0:0|0:0,0:0:0:0:
445,296,319259,6,0,P|446:233|358:198,1,150,2|0,0:0|0:0,0:0:0:0:
225,181,319509,2,0,L|169:179,1,50,2|0,0:0|0:0,0:0:0:0:
175,180,319634,1,0,0:0:0:0:
397,303,319759,2,0,L|501:298,1,100,2|0,0:0|0:0,0:0:0:0:
448,270,319946,1,0,0:0:0:0:
281,264,320009,2,0,L|401:256,1,100,2|0,0:0|0:0,0:0:0:0:
158,249,320259,6,0,L|138:93,1,150,2|0,0:0|0:0,0:0:0:0:
300,112,320509,2,0,L|192:104,1,100,2|0,0:0|0:0,0:0:0:0:
447,244,320759,2,0,L|339:236,1,100,2|0,0:0|0:0,0:0:0:0:
106,244,321009,2,0,L|86:88,1,150,2|0,0:0|0:0,0:0:0:0:
248,72,321259,6,0,L|304:69,1,50,6|0,0:0|0:0,0:0:0:0:
135,44,321384,1,0,0:0:0:0:
370,302,321509,2,0,L|374:246,2,50
218,205,321696,2,0,L|168:197,1,50
399,201,321884,6,0,L|403:141,1,50
248,72,322009,2,0,L|188:68,1,50
349,149,322134,2,0,L|353:89,1,50
192,288,322259,6,0,P|137:266|199:248,1,150
262,234,322509,2,0,L|268:176,3,50
119,183,322759,2,0,L|113:81,1,100,2|0,0:0|0:0,0:0:0:0:
266,280,322946,2,0,L|276:177,1,100,2|0,0:0|0:0,0:0:0:0:
85,231,323134,2,0,L|134:225,1,50,2|0,0:0|0:0,0:0:0:0:
290,198,323259,5,2,0:0:0:0:
430,189,323321,1,2,0:0:0:0:
290,198,323384,1,2,0:0:0:0:
150,189,323446,1,2,0:0:0:0:
290,198,323509,1,8,0:0:0:0:
339,194,323571,1,0,0:0:0:0:
389,190,323634,1,2,0:0:0:0:
167,122,323759,6,0,L|275:114,1,100,2|0,0:0|0:0,0:0:0:0:
314,106,323946,1,0,0:0:0:0:
464,88,324009,1,8,0:0:0:0:
343,82,324134,2,0,L|288:78,1,50
448,312,324259,6,0,P|452:257|368:217,1,150,2|0,0:0|0:0,0:0:0:0:
234,212,324509,2,0,L|214:109,1,100,8|0,0:0|0:0,0:0:0:0:
431,87,324759,2,0,L|327:82,1,100,2|0,0:0|0:0,0:0:0:0:
96,304,325009,2,0,P|100:232|166:206,1,150,8|0,0:0|0:0,0:0:0:0:
24,168,325259,6,0,L|178:155,1,150,2|0,0:0|0:0,0:0:0:0:
31,290,325509,1,8,0:0:0:0:
80,283,325571,1,0,0:0:0:0:
130,277,325634,1,0,0:0:0:0:
363,262,325759,5,2,0:0:0:0:
249,247,325884,2,0,L|240:182,1,50
391,175,326009,2,0,L|274:169,1,100,8|0,0:0|0:0,0:0:0:0:
59,243,326259,6,0,P|16:219|79:167,1,150,2|0,0:0|0:0,0:0:0:0:
218,148,326509,2,0,L|228:40,1,100,8|0,0:0|0:0,0:0:0:0:
17,56,326759,2,0,L|123:46,1,100,2|0,0:0|0:0,0:0:0:0:
348,245,327009,2,0,P|394:199|340:162,1,150,8|0,0:0|0:0,0:0:0:0:
171,118,327259,5,6,0:0:0:0:
219,116,327321,2,0,L|324:106,1,100
177,255,327509,2,0,L|233:248,1,50
372,180,327634,2,0,L|378:130,1,50
231,79,327759,6,0,L|280:72,1,50,8|0,0:0|0:0,0:0:0:0:
426,105,327884,2,0,L|376:98,1,50
231,79,328009,2,0,L|122:71,1,100,2|0,0:0|0:0,0:0:0:0:
355,297,328259,6,0,L|360:229,1,50
195,212,328384,1,2,0:0:0:0:
413,199,328509,2,0,L|355:194,1,50
214,172,328634,2,0,L|156:167,1,50,0|2,0:0|0:0,0:0:0:0:
332,143,328759,6,0,L|225:133,1,100,8|0,0:0|0:0,0:0:0:0:
19,114,329009,1,2,0:0:0:0:
244,99,329134,1,2,0:0:0:0:
388,86,329196,1,2,0:0:0:0:
244,99,329259,5,6,0:0:0:0:
194,96,329321,2,0,L|92:89,1,100
257,275,329509,2,0,L|265:217,1,50
122,197,329634,2,0,L|114:139,1,50,2|0,0:0|0:0,0:0:0:0:
265,134,329759,6,0,L|201:130,1,50,8|0,0:0|0:0,0:0:0:0:
63,124,329884,2,0,L|55:66,1,50
213,43,330009,2,0,L|320:37,1,100,2|0,0:0|0:0,0:0:0:0:
76,305,330259,6,0,P|85:226|158:203,1,150,8|0,0:0|0:0,0:0:0:0:
210,188,330509,2,0,L|219:132,1,50
62,119,330634,2,0,L|168:108,2,100,8|0|0,0:0|0:0|0:0,0:0:0:0:
336,100,331009,1,8,0:0:0:0:
115,82,331134,1,2,0:0:0:0:
249,72,331196,1,2,0:0:0:0:
387,58,331259,6,0,L|234:50,1,150,6|0,0:0|0:0,0:0:0:0:
94,197,331509,1,8,0:0:0:0:
313,179,331634,1,2,0:0:0:0:
70,169,331759,6,0,L|125:162,1,50,2|0,0:0|0:0,0:0:0:0:
270,128,331884,2,0,L|276:78,1,50
124,287,332009,2,0,L|112:183,1,100,8|0,0:0|0:0,0:0:0:0:
448,312,332259,6,0,P|452:257|368:217,1,150,2|0,0:0|0:0,0:0:0:0:
234,212,332509,2,0,L|214:109,1,100,8|0,0:0|0:0,0:0:0:0:
431,87,332759,2,0,L|327:82,1,100,2|0,0:0|0:0,0:0:0:0:
96,304,333009,2,0,P|100:232|166:206,1,150,8|0,0:0|0:0,0:0:0:0:
24,168,333259,6,0,L|178:155,1,150,2|0,0:0|0:0,0:0:0:0:
31,290,333509,1,8,0:0:0:0:
80,283,333571,1,0,0:0:0:0:
130,277,333634,1,0,0:0:0:0:
363,262,333759,5,2,0:0:0:0:
249,247,333884,2,0,L|240:182,1,50
391,175,334009,2,0,L|274:169,1,100,8|0,0:0|0:0,0:0:0:0:
59,243,334259,6,0,P|16:219|79:167,1,150,2|0,0:0|0:0,0:0:0:0:
218,148,334509,2,0,L|228:40,1,100,8|0,0:0|0:0,0:0:0:0:
17,56,334759,2,0,L|123:46,1,100,2|0,0:0|0:0,0:0:0:0:
348,245,335009,2,0,P|394:199|340:162,1,150,8|0,0:0|0:0,0:0:0:0:
179,163,335259,6,0,L|173:99,1,50,6|0,0:0|0:0,0:0:0:0:
231,90,335384,1,0,0:0:0:0:
477,276,335509,2,0,L|477:223,1,50
334,211,335634,2,0,L|278:206,1,50
428,156,335759,6,0,L|372:151,1,50,8|0,0:0|0:0,0:0:0:0:
234,130,335884,2,0,L|290:125,1,50
435,118,336009,2,0,L|446:15,1,100,2|0,0:0|0:0,0:0:0:0:
221,228,336259,6,0,L|280:221,1,50
415,205,336384,1,2,0:0:0:0:
188,200,336509,2,0,L|183:139,1,50
328,222,336634,2,0,L|333:161,1,50,0|2,0:0|0:0,0:0:0:0:
480,157,336759,6,0,L|424:153,1,50,8|0,0:0|0:0,0:0:0:0:
279,139,336884,2,0,L|223:135,1,50
377,317,337009,2,0,L|381:254,1,50,2|2,0:0|0:0,0:0:0:0:
234,257,337134,2,0,L|290:252,1,50,2|2,0:0|0:0,0:0:0:0:
441,207,337258,6,0,L|329:200,1,100,8|2,0:0|0:0,0:0:0:0:
108,162,337498,2,0,L|220:155,1,100,2|2,0:0|0:0,0:0:0:0:
416,189,337738,2,0,L|423:77,1,100,8|2,0:0|0:0,0:0:0:0:
208,106,337978,2,0,L|313:98,1,100,2|2,0:0|0:0,0:0:0:0:
358,93,338158,1,0,0:0:0:0:
193,283,338218,6,0,L|88:279,2,100,8|2|2,0:0|0:0|0:0,0:0:0:0:
405,226,338578,2,0,L|285:219,1,100,8|2,0:0|0:0,0:0:0:0:
84,196,338818,1,2,0:0:0:0:
322,158,338938,1,8,0:0:0:0:
84,196,339058,1,2,0:0:0:0:
322,158,339178,6,0,L|437:149,1,100,6|0,0:0|0:0,0:0:0:0:
372,127,339358,1,0,0:0:0:0:
221,128,339418,1,8,0:0:0:0:
454,314,339538,6,0,B|470:65|470:65|220:49|220:49|173:165|173:165|222:43,1,750,0|8,0:0|0:0,0:0:0:0:
452,158,340018,2,0,L|344:151,1,100,0|2,0:0|0:0,0:0:0:0:
133,290,340258,2,0,L|124:176,1,100,0|8,0:0|0:0,0:0:0:0:
352,169,340498,2,0,L|354:110,1,50,2|2,0:0|0:0,0:0:0:0:
282,108,340618,5,2,0:0:0:0:
67,99,340738,1,0,0:0:0:0:
293,75,340858,1,8,0:0:0:0:
71,242,340978,2,0,L|64:189,1,50,2|2,0:0|0:0,0:0:0:0:
246,160,341098,6,0,L|311:155,2,50,2|0|0,0:0|0:0|0:0,0:0:0:0:
463,311,341338,1,8,0:0:0:0:
413,308,341398,1,2,0:0:0:0:
363,306,341458,1,2,0:0:0:0:
145,257,341578,2,0,L|255:244,2,100,0|0|8,0:0|0:0|0:0,0:0:0:0:
371,181,341938,2,0,L|262:175,2,100,0|2|0,0:0|0:0|0:0,0:0:0:0:
146,284,342298,6,0,L|143:164,1,100,8|2,0:0|0:0,0:0:0:0:
363,151,342538,2,0,L|258:145,1,100,2|0,0:0|0:0,0:0:0:0:
49,127,342778,1,8,0:0:0:0:
266,112,342898,2,0,L|319:109,1,50,8|8,0:0|0:0,0:0:0:0:
166,298,343018,6,0,L|265:286,2,100,2|0|8,0:0|0:0|0:0,0:0:0:0:
117,298,343318,1,2,0:0:0:0:
264,233,343378,2,0,L|363:221,2,100,2|2|2,0:0|0:0|0:0,0:0:0:0:
477,318,343738,2,0,L|485:217,1,100,8|2,0:0|0:0,0:0:0:0:
378,207,343978,1,2,0:0:0:0:
153,193,344098,5,0,0:0:0:0:
374,158,344218,1,8,0:0:0:0:
141,132,344338,2,0,L|201:126,1,50,2|2,0:0|0:0,0:0:0:0:
355,325,344458,6,0,L|368:202,1,100,2|2,0:0|0:0,0:0:0:0:
135,208,344698,1,8,0:0:0:0:
357,187,344818,1,8,0:0:0:0:
211,181,344878,1,8,0:0:0:0:
64,175,344938,6,0,L|62:120,2,50,2|0|2,0:0|0:0|0:0,0:0:0:0:
293,267,345178,1,8,0:0:0:0:
342,263,345238,1,0,0:0:0:0:
392,259,345298,1,0,0:0:0:0:
165,225,345418,2,0,L|273:218,1,100
48,192,345658,2,0,L|45:135,1,50,8|0,0:0|0:0,0:0:0:0:
103,121,345778,1,0,0:0:0:0:
323,127,345898,6,0,L|264:122,1,50,8|2,0:0|0:0,0:0:0:0:
107,94,346018,2,0,L|217:86,1,100,2|2,0:0|0:0,0:0:0:0:
434,254,346258,2,0,L|375:249,1,50,8|2,0:0|0:0,0:0:0:0:
225,243,346378,2,0,L|208:136,1,100,2|2,0:0|0:0,0:0:0:0:
436,98,346618,1,8,0:0:0:0:
205,101,346738,1,8,0:0:0:0:
61,96,346798,1,8,0:0:0:0:
229,165,346858,6,0,L|344:156,1,100,6|0,0:0|0:0,0:0:0:0:
279,134,347038,1,0,0:0:0:0:
128,135,347098,1,8,0:0:0:0:
454,314,347218,6,0,B|470:65|470:65|220:49|220:49|173:165|173:165|222:43,1,750,0|8,0:0|0:0,0:0:0:0:
452,158,347698,2,0,L|344:151,1,100,0|2,0:0|0:0,0:0:0:0:
133,290,347938,2,0,L|124:176,1,100,0|8,0:0|0:0,0:0:0:0:
352,169,348178,2,0,L|354:110,1,50,2|2,0:0|0:0,0:0:0:0:
282,108,348298,5,2,0:0:0:0:
67,99,348418,1,0,0:0:0:0:
293,75,348538,1,8,0:0:0:0:
71,242,348658,2,0,L|64:189,1,50,2|2,0:0|0:0,0:0:0:0:
246,160,348778,6,0,L|311:155,2,50,2|0|0,0:0|0:0|0:0,0:0:0:0:
463,311,349018,1,8,0:0:0:0:
413,308,349078,1,2,0:0:0:0:
363,306,349138,1,2,0:0:0:0:
153,253,349258,6,0,L|267:240,2,100,0|0|8,0:0|0:0|0:0,0:0:0:0:
371,181,349618,2,0,L|262:175,2,100,0|2|0,0:0|0:0|0:0,0:0:0:0:
124,170,349978,1,8,0:0:0:0:
342,126,350098,2,0,L|224:118,1,100,2|2,0:0|0:0,0:0:0:0:
460,310,350338,2,0,L|469:201,1,100,0|8,0:0|0:0,0:0:0:0:
227,114,350578,1,8,0:0:0:0:
82,105,350638,1,8,0:0:0:0:
227,114,350698,6,0,L|289:111,2,50,2|0|0,0:0|0:0|0:0,0:0:0:0:
445,288,350938,2,0,L|449:174,1,100,8|2,0:0|0:0,0:0:0:0:
238,162,351178,2,0,L|357:152,1,100,2|2,0:0|0:0,0:0:0:0:
91,118,351418,2,0,L|210:108,1,100,8|2,0:0|0:0,0:0:0:0:
426,308,351658,6,0,P|400:230|329:213,1,150,2|0,0:0|0:0,0:0:0:0:
190,176,351898,1,8,0:0:0:0:
428,155,352018,2,0,L|315:146,1,100,2|2,0:0|0:0,0:0:0:0:
112,126,352258,1,2,0:0:0:0:
350,105,352378,1,8,0:0:0:0:
106,57,352498,1,8,0:0:0:0:
248,44,352558,1,8,0:0:0:0:
404,269,352618,5,2,0:0:0:0:
355,264,352678,1,0,0:0:0:0:
305,260,352738,1,2,0:0:0:0:
77,248,352858,2,0,L|71:191,1,50,8|0,0:0|0:0,0:0:0:0:
233,190,352978,2,0,L|130:183,1,100
274,148,353158,5,0,0:0:0:0:
418,143,353218,2,0,L|427:84,1,50
274,61,353338,2,0,L|389:54,1,100,8|0,0:0|0:0,0:0:0:0:
152,145,353578,5,8,0:0:0:0:
202,141,353638,1,2,0:0:0:0:
252,138,353698,1,2,0:0:0:0:
467,121,353818,1,2,0:0:0:0:
247,99,353938,6,0,L|174:95,2,50,8|2|2,0:0|0:0|0:0,0:0:0:0:
467,121,354178,1,2,0:0:0:0:
201,292,354298,2,0,L|140:285,1,50,8|2,0:0|0:0,0:0:0:0:
102,292,354418,2,0,L|163:285,1,50,8|8,0:0|0:0,0:0:0:0:
322,158,354538,6,0,L|437:149,1,100,6|0,0:0|0:0,0:0:0:0:
372,127,354718,1,0,0:0:0:0:
221,128,354778,1,8,0:0:0:0:
454,314,354898,6,0,B|470:65|470:65|220:49|220:49|173:165|173:165|222:43,1,750,0|8,0:0|0:0,0:0:0:0:
452,158,355378,2,0,L|344:151,1,100,0|2,0:0|0:0,0:0:0:0:
133,290,355618,2,0,L|124:176,1,100,0|8,0:0|0:0,0:0:0:0:
352,169,355858,2,0,L|354:110,1,50,2|2,0:0|0:0,0:0:0:0:
282,108,355978,5,2,0:0:0:0:
67,99,356098,1,0,0:0:0:0:
293,75,356218,1,8,0:0:0:0:
71,242,356338,2,0,L|64:189,1,50,2|2,0:0|0:0,0:0:0:0:
246,160,356458,6,0,L|311:155,2,50,2|0|0,0:0|0:0|0:0,0:0:0:0:
463,311,356698,1,8,0:0:0:0:
413,308,356758,1,2,0:0:0:0:
363,306,356818,1,2,0:0:0:0:
145,257,356938,2,0,L|255:244,2,100,0|0|8,0:0|0:0|0:0,0:0:0:0:
371,181,357298,2,0,L|262:175,2,100,0|2|0,0:0|0:0|0:0,0:0:0:0:
146,284,357658,6,0,L|143:164,1,100,8|2,0:0|0:0,0:0:0:0:
363,151,357898,2,0,L|258:145,1,100,2|0,0:0|0:0,0:0:0:0:
49,127,358138,1,8,0:0:0:0:
266,112,358258,2,0,L|319:109,1,50,8|8,0:0|0:0,0:0:0:0:
166,298,358378,6,0,L|265:286,2,100,2|0|8,0:0|0:0|0:0,0:0:0:0:
117,298,358678,1,2,0:0:0:0:
264,233,358738,2,0,L|363:221,2,100,2|2|2,0:0|0:0|0:0,0:0:0:0:
477,318,359098,2,0,L|485:217,1,100,8|2,0:0|0:0,0:0:0:0:
378,207,359338,1,2,0:0:0:0:
153,193,359458,5,0,0:0:0:0:
374,158,359578,1,8,0:0:0:0:
141,132,359698,2,0,L|201:126,1,50,2|2,0:0|0:0,0:0:0:0:
355,325,359818,6,0,L|368:202,1,100,2|2,0:0|0:0,0:0:0:0:
135,208,360058,1,8,0:0:0:0:
357,187,360178,1,8,0:0:0:0:
211,181,360238,1,8,0:0:0:0:
64,175,360298,6,0,L|62:120,2,50,2|0|2,0:0|0:0|0:0,0:0:0:0:
293,267,360538,1,8,0:0:0:0:
342,263,360598,1,0,0:0:0:0:
392,259,360658,1,0,0:0:0:0:
165,225,360778,2,0,L|273:218,1,100
48,192,361018,2,0,L|45:135,1,50,8|0,0:0|0:0,0:0:0:0:
103,121,361138,1,0,0:0:0:0:
323,127,361258,6,0,L|264:122,1,50,8|2,0:0|0:0,0:0:0:0:
107,94,361378,2,0,L|217:86,1,100,2|2,0:0|0:0,0:0:0:0:
434,254,361618,2,0,L|375:249,1,50,8|2,0:0|0:0,0:0:0:0:
225,243,361738,2,0,L|208:136,1,100,2|2,0:0|0:0,0:0:0:0:
436,98,361978,1,8,0:0:0:0:
198,98,362098,1,8,0:0:0:0:
54,93,362158,1,8,0:0:0:0:
222,162,362218,6,0,L|337:153,1,100,6|0,0:0|0:0,0:0:0:0:
272,131,362398,1,0,0:0:0:0:
121,132,362458,1,8,0:0:0:0:
454,314,362578,6,0,B|470:65|470:65|220:49|220:49|173:165|173:165|222:43,1,750,0|8,0:0|0:0,0:0:0:0:
452,158,363058,2,0,L|344:151,1,100,0|2,0:0|0:0,0:0:0:0:
133,290,363298,2,0,L|124:176,1,100,0|8,0:0|0:0,0:0:0:0:
352,169,363538,2,0,L|354:110,1,50,2|2,0:0|0:0,0:0:0:0:
282,108,363658,5,2,0:0:0:0:
67,99,363778,1,0,0:0:0:0:
293,75,363898,1,8,0:0:0:0:
71,242,364018,2,0,L|64:189,1,50,2|2,0:0|0:0,0:0:0:0:
246,160,364138,6,0,L|311:155,2,50,2|0|0,0:0|0:0|0:0,0:0:0:0:
463,311,364378,1,8,0:0:0:0:
413,308,364438,1,2,0:0:0:0:
363,306,364498,1,2,0:0:0:0:
153,253,364618,6,0,L|267:240,2,100,0|0|8,0:0|0:0|0:0,0:0:0:0:
371,181,364978,2,0,L|262:175,2,100,0|2|0,0:0|0:0|0:0,0:0:0:0:
124,170,365338,1,8,0:0:0:0:
342,126,365458,2,0,L|224:118,1,100,2|2,0:0|0:0,0:0:0:0:
460,310,365698,2,0,L|469:201,1,100,0|8,0:0|0:0,0:0:0:0:
227,114,365938,1,8,0:0:0:0:
82,105,365998,1,8,0:0:0:0:
227,114,366057,6,0,L|343:100,1,100,2|0,0:0|0:0,0:0:0:0:
100,283,366317,2,0,L|86:164,1,100,8|0,0:0|0:0,0:0:0:0:
306,261,366578,2,0,L|320:142,1,100,2|2,0:0|0:0,0:0:0:0:
267,142,366774,1,0,0:0:0:0:
123,137,366839,2,0,L|236:127,1,100,8|2,0:0|0:0,0:0:0:0:
439,290,367100,6,0,L|448:168,1,100,2|0,0:0|0:0,0:0:0:0:
219,176,367385,2,0,L|86:170,1,100,8|0,0:0|0:0,0:0:0:0:
170,151,367600,1,0,0:0:0:0:
320,139,367671,2,0,L|429:133,1,100
181,298,367957,1,8,0:0:0:0:
68,295,368100,2,0,L|64:233,1,50,8|8,0:0|0:0,0:0:0:0:
213,215,368242,6,0,L|265:211,2,50,2|2|2,0:0|0:0|0:0,0:0:0:0:
443,211,368575,2,0,L|445:154,2,50,8|0|0,0:0|0:0|0:0,0:0:0:0:
204,151,368908,2,0,L|325:141,1,100
75,298,369242,2,0,L|69:182,1,100,8|0,0:0|0:0,0:0:0:0:
327,171,369575,6,0,L|256:166,1,50,8|0,0:0|0:0,0:0:0:0:
111,157,369775,2,0,L|174:154,1,50,2|0,0:0|0:0,0:0:0:0:
321,295,369975,2,0,L|321:239,1,50,8|0,0:0|0:0,0:0:0:0:
155,226,370175,2,0,L|220:221,1,50,2|0,0:0|0:0,0:0:0:0:
382,207,370375,6,0,L|311:201,1,50,8|2,0:0|0:0,0:0:0:0:
177,186,370562,2,0,L|170:125,1,50,2|2,0:0|0:0,0:0:0:0:
341,112,370750,2,0,L|286:108,1,50,8|2,0:0|0:0,0:0:0:0:
126,94,370937,2,0,L|181:90,1,50,2|2,0:0|0:0,0:0:0:0:
372,144,371135,5,6,0:0:0:0:
256,192,371285,12,0,379535,0:0:0:0:
