osu file format v14

[General]
AudioFilename: audio.mp3
AudioLeadIn: 0
PreviewTime: 49718
Countdown: 0
SampleSet: None
StackLeniency: 0.7
Mode: 0
LetterboxInBreaks: 0
WidescreenStoryboard: 1

[Editor]
Bookmarks: 10266,23417,36567,49718,62869,76019,89170,102321,115060
DistanceSpacing: 1
BeatDivisor: 4
GridSize: 8
TimelineZoom: 1

[Metadata]
Title:Lion Suki
TitleUnicode:ライオン好き
Artist:Akira Yamaoka
ArtistUnicode:山岡 晃
Creator:ReFaller
Version:Hyper
Source:beatmania IIDX 9th style
Tags:lion lover
BeatmapID:1877740
BeatmapSetID:898887

[Difficulty]
HPDrainRate:5
CircleSize:5
OverallDifficulty:6
ApproachRate:6
SliderMultiplier:1.7
SliderTickRate:2

[Events]
//Background and Video events
0,0,"wallhaven-460269.jpg",0,0
//Break Periods
//Storyboard Layer 0 (Background)
//Storyboard Layer 1 (Fail)
//Storyboard Layer 2 (Pass)
//Storyboard Layer 3 (Foreground)
//Storyboard Sound Samples

[TimingPoints]
3691,410.958904109589,4,1,0,100,1,0
36567,-100,4,1,0,100,0,1
49718,-100,4,1,0,100,0,0
89170,-100,4,1,0,100,0,1
100677,-100,4,1,0,100,0,0
102321,-100,4,1,0,100,0,1
115060,-100,4,1,0,100,0,0

[HitObjects]
24,104,3691,6,0,B|56:120|64:136|80:168|80:216,1,127.5,2|0,0:0|0:0,0:0:0:0:
79,210,4101,2,2,B|71:239|71:247|127:287,1,85
184,328,4512,1,2,0:0:0:0:
224,256,4718,1,0,0:0:0:0:
264,328,4923,1,2,0:0:0:0:
304,256,5129,1,0,0:0:0:0:
344,328,5334,6,0,L|472:328,1,127.5,2|0,0:0|0:0,0:0:0:0:
471,328,5745,2,2,B|496:296|496:288|448:256,1,85
384,224,6156,1,2,0:0:0:0:
456,184,6362,1,0,0:0:0:0:
384,144,6567,1,2,0:0:0:0:
456,104,6773,1,0,0:0:0:0:
384,64,6978,6,0,B|336:24|328:48|344:104|240:48,1,127.5,2|0,0:0|0:0,0:0:0:0:
271,62,7389,2,2,B|248:48|224:48|184:40,1,85
104,48,7800,1,2,0:0:0:0:
104,136,8006,1,0,0:0:0:0:
104,224,8211,1,2,0:0:0:0:
104,136,8417,1,0,0:0:0:0:
104,224,8622,6,0,L|104:360,1,127.5,2|0,0:0|0:0,0:0:0:0:
104,351,9033,2,2,B|131:333|146:334|192:352,1,85
264,368,9444,1,0,0:0:0:0:
264,280,9650,1,0,0:0:0:0:
264,192,9855,1,0,0:0:0:0:
264,280,10061,1,0,0:0:0:0:
264,192,10266,6,0,B|224:152|280:120,1,85,8|0,0:0|0:0,0:0:0:0:
360,128,10677,2,0,B|376:80|376:56|344:32,1,85,8|0,0:0|0:0,0:0:0:0:
288,8,11088,1,8,0:0:0:0:
224,64,11293,1,0,0:0:0:0:
152,16,11499,1,8,0:0:0:0:
88,72,11704,2,0,B|64:96|64:112|72:160,3,85,0|8|8|0,0:0|0:0|0:0|0:0,0:0:0:0:
88,232,12526,1,8,0:0:0:0:
256,192,12937,1,8,0:0:0:0:
424,232,13348,1,8,0:0:0:0:
424,232,13554,6,0,B|464:240|472:280|440:352,1,127.5,2|0,0:0|0:0,0:0:0:0:
445,339,13964,2,2,L|360:336,1,85
272,336,14375,1,2,0:0:0:0:
272,248,14581,1,0,0:0:0:0:
184,248,14786,1,2,0:0:0:0:
184,160,14992,1,0,0:0:0:0:
96,160,15197,6,0,B|56:152|48:112|80:40,1,127.5,2|0,0:0|0:0,0:0:0:0:
74,52,15607,2,2,L|159:55,1,85
248,56,16018,1,2,0:0:0:0:
248,144,16224,1,0,0:0:0:0:
336,144,16429,1,2,0:0:0:0:
336,232,16635,1,0,0:0:0:0:
424,232,16841,6,0,L|411:307,1,85,8|0,0:0|0:0,0:0:0:0:
424,232,17252,2,0,L|502:222,1,85,8|0,0:0|0:0,0:0:0:0:
424,232,17663,2,0,L|417:137,1,85,8|0,0:0|0:0,0:0:0:0:
424,232,18074,1,8,0:0:0:0:
424,232,18280,2,0,L|336:232,1,85,8|0,0:0|0:0,0:0:0:0:
272,184,18690,2,0,B|248:160|208:160|152:176|104:192,1,170,8|0,0:0|0:0,0:0:0:0:
224,312,19512,1,8,0:0:0:0:
56,328,19923,1,8,0:0:0:0:
56,328,20129,6,0,B|34:293|24:265|24:192,1,127.5,2|0,0:0|0:0,0:0:0:0:
24,206,20540,2,2,B|56:192|64:176|32:136,1,85
112,104,20951,2,2,B|82:67|90:51|122:37,3,85
200,72,21773,6,0,B|234:93|262:103|304:32,1,127.5,2|0,0:0|0:0,0:0:0:0:
301,36,22184,2,2,L|392:40,3,85
464,64,23006,1,0,0:0:0:0:
464,64,23211,1,0,0:0:0:0:
464,64,23417,6,0,B|480:96|480:120|464:144,1,85,8|0,0:0|0:0,0:0:0:0:
416,208,23827,1,8,0:0:0:0:
328,208,24033,1,0,0:0:0:0:
240,208,24238,2,0,B|224:240|224:264|240:288,1,85,8|0,0:0|0:0,0:0:0:0:
176,344,24649,2,0,B|144:328|120:328|96:344,1,85,8|0,0:0|0:0,0:0:0:0:
32,288,25060,2,0,B|48:256|48:232|32:208,1,85,8|0,0:0|0:0,0:0:0:0:
96,152,25471,2,0,B|128:168|152:168|176:152,1,85,8|0,0:0|0:0,0:0:0:0:
176,64,25882,1,8,0:0:0:0:
264,64,26088,1,8,0:0:0:0:
352,64,26293,1,8,0:0:0:0:
440,64,26499,1,8,0:0:0:0:
440,152,26704,6,0,L|440:240,1,85,8|0,0:0|0:0,0:0:0:0:
440,320,27115,1,8,0:0:0:0:
352,320,27321,1,0,0:0:0:0:
264,320,27526,2,0,B|208:288|264:240,1,85,8|0,0:0|0:0,0:0:0:0:
256,168,27937,1,8,0:0:0:0:
328,216,28143,1,8,0:0:0:0:
336,128,28348,2,0,B|392:96|336:48,1,85,8|0,0:0|0:0,0:0:0:0:
272,24,28759,2,0,B|232:24|184:24,1,85,8|0,0:0|0:0,0:0:0:0:
104,24,29170,1,8,0:0:0:0:
104,112,29375,1,8,0:0:0:0:
192,112,29581,1,0,0:0:0:0:
187,24,29786,1,8,0:0:0:0:
192,112,29992,6,0,L|192:200,1,85,8|0,0:0|0:0,0:0:0:0:
277,197,30403,2,0,L|192:197,1,85,8|0,0:0|0:0,0:0:0:0:
192,280,30814,1,8,0:0:0:0:
104,280,31019,1,8,0:0:0:0:
192,280,31225,1,8,0:0:0:0:
192,280,31430,2,0,L|192:195,1,85,8|0,0:0|0:0,0:0:0:0:
107,197,31841,2,0,L|277:197,1,170,8|0,0:0|0:0,0:0:0:0:
192,48,32663,1,8,0:0:0:0:
360,48,33074,1,8,0:0:0:0:
360,48,33280,6,0,B|408:56|416:72|408:152,1,127.5,2|0,0:0|0:0,0:0:0:0:
408,145,33691,2,2,B|408:192|424:208|464:216,1,85
496,144,34101,1,2,0:0:0:0:
448,212,34307,1,0,0:0:0:0:
448,296,34512,1,2,0:0:0:0:
448,212,34718,1,0,0:0:0:0:
448,296,34923,6,2,L|272:296,1,170
232,80,36567,6,0,B|200:80|168:88|160:120,1,85,4|0,0:0|0:0,0:0:0:0:
160,200,36978,1,0,0:0:0:0:
72,200,37184,1,0,0:0:0:0:
160,200,37389,2,0,B|160:232|208:312|56:328,1,170,4|0,0:0|0:0,0:0:0:0:
256,352,38211,6,0,B|288:352|320:344|328:312,1,85,4|0,0:0|0:0,0:0:0:0:
328,232,38622,1,4,0:0:0:0:
416,232,38828,1,0,0:0:0:0:
328,232,39033,2,0,B|300:225|292:193|292:161,1,85,4|0,0:0|0:0,0:0:0:0:
296,80,39444,1,4,0:0:0:0:
384,80,39649,1,4,0:0:0:0:
296,80,39855,6,0,B|96:-56|-32:176|240:184,1,425,4|0,0:0|0:0,0:0:0:0:
304,184,41088,1,4,0:0:0:0:
384,152,41293,1,0,0:0:0:0:
464,184,41499,2,0,B|576:224|496:352|392:392|312:304,1,340,4|0,0:0|0:0,0:0:0:0:
256,264,42526,1,4,0:0:0:0:
256,176,42732,1,4,0:0:0:0:
256,88,42937,1,4,0:0:0:0:
256,0,43143,6,0,L|168:0,1,85,4|0,0:0|0:0,0:0:0:0:
168,88,43554,1,0,0:0:0:0:
80,88,43759,1,0,0:0:0:0:
168,88,43964,2,0,L|168:264,1,170,4|0,0:0|0:0,0:0:0:0:
328,328,44786,6,0,L|416:328,1,85,4|0,0:0|0:0,0:0:0:0:
416,240,45197,1,4,0:0:0:0:
504,240,45402,1,0,0:0:0:0:
416,240,45607,2,0,L|416:152,1,85,4|0,0:0|0:0,0:0:0:0:
416,72,46019,1,4,0:0:0:0:
504,72,46225,1,4,0:0:0:0:
416,72,46430,6,0,B|345:-6|200:288|144:0|16:96,1,425,4|0,0:0|0:0,0:0:0:0:
8,184,47663,1,4,0:0:0:0:
24,264,47869,1,0,0:0:0:0:
96,312,48074,2,0,B|166:390|312:96|368:384|496:288,1,425,4|0,0:0|0:0,0:0:0:0:
504,200,49307,1,0,0:0:0:0:
488,120,49513,1,0,0:0:0:0:
456,40,49718,1,4,0:0:0:0:
304,112,50129,5,0,0:0:0:0:
304,112,50334,1,0,0:0:0:0:
304,112,50540,1,0,0:0:0:0:
136,112,50951,1,0,0:0:0:0:
304,112,51362,1,0,0:0:0:0:
304,200,51567,1,0,0:0:0:0:
304,288,51773,1,0,0:0:0:0:
304,200,51978,1,0,0:0:0:0:
304,112,52184,1,4,0:0:0:0:
304,288,52595,1,4,0:0:0:0:
464,336,53006,6,0,L|464:248,1,85
392,296,53417,1,2,0:0:0:0:
304,296,53622,1,2,0:0:0:0:
392,296,53827,2,0,L|392:208,1,85
320,256,54238,1,2,0:0:0:0:
232,256,54443,1,2,0:0:0:0:
320,256,54649,2,0,L|320:168,1,85
248,216,55060,1,2,0:0:0:0:
160,216,55265,1,2,0:0:0:0:
248,216,55471,2,0,L|248:128,1,85
176,176,55882,1,2,0:0:0:0:
88,176,56087,1,2,0:0:0:0:
0,176,56293,1,4,0:0:0:0:
144,88,56704,5,0,0:0:0:0:
144,88,56909,1,0,0:0:0:0:
144,88,57115,1,0,0:0:0:0:
312,88,57526,1,0,0:0:0:0:
144,88,57937,1,0,0:0:0:0:
144,176,58142,1,0,0:0:0:0:
144,264,58348,1,0,0:0:0:0:
144,176,58553,1,0,0:0:0:0:
144,88,58759,1,4,0:0:0:0:
144,264,59170,1,4,0:0:0:0:
56,264,59375,1,4,0:0:0:0:
56,264,59478,1,4,0:0:0:0:
56,264,59581,6,0,L|56:176,1,85
128,224,59992,1,2,0:0:0:0:
216,224,60197,1,2,0:0:0:0:
128,224,60402,2,0,L|128:136,1,85
200,184,60813,1,2,0:0:0:0:
288,184,61018,1,2,0:0:0:0:
200,184,61224,2,0,L|200:96,1,85
272,144,61635,1,2,0:0:0:0:
360,144,61840,1,2,0:0:0:0:
272,144,62046,2,0,L|272:56,1,85
344,104,62457,1,2,0:0:0:0:
432,104,62662,1,2,0:0:0:0:
464,184,62869,6,0,B|504:224|448:256,1,85,4|0,0:0|0:0,0:0:0:0:
368,248,63280,2,0,B|320:232|296:232|272:264,1,85,4|0,0:0|0:0,0:0:0:0:
240,320,63691,1,4,0:0:0:0:
200,248,63896,1,0,0:0:0:0:
160,320,64102,1,4,0:0:0:0:
120,248,64307,2,4,B|96:224|96:208|104:160,3,85
120,88,65129,1,4,0:0:0:0:
256,192,65540,1,4,0:0:0:0:
392,88,65951,1,4,0:0:0:0:
392,88,66156,6,0,L|304:88,1,85
224,88,66567,1,2,0:0:0:0:
224,88,66773,1,2,0:0:0:0:
224,176,66978,2,0,L|312:176,1,85
392,176,67389,1,2,0:0:0:0:
392,176,67595,1,2,0:0:0:0:
392,264,67800,2,0,L|304:264,1,85
224,264,68211,1,2,0:0:0:0:
224,264,68417,1,2,0:0:0:0:
224,352,68622,2,0,L|312:352,1,85
392,352,69033,1,2,0:0:0:0:
392,352,69239,1,2,0:0:0:0:
392,264,69444,6,0,B|408:240|400:216|368:192,1,85,4|0,0:0|0:0,0:0:0:0:
304,240,69855,2,0,B|272:216|264:192|280:168,1,85,4|0,0:0|0:0,0:0:0:0:
344,120,70266,2,0,B|376:96|384:72|368:48,1,85,4|0,0:0|0:0,0:0:0:0:
288,72,70677,1,0,0:0:0:0:
208,40,70882,2,0,B|80:-8|32:48,1,170,4|0,0:0|0:0,0:0:0:0:
112,192,71704,1,4,0:0:0:0:
56,352,72115,1,4,0:0:0:0:
112,192,72526,1,4,0:0:0:0:
112,192,72732,6,0,L|208:192,1,85
200,280,73143,1,2,0:0:0:0:
200,280,73348,1,2,0:0:0:0:
288,280,73554,2,0,L|288:184,1,85
376,192,73965,1,2,0:0:0:0:
376,192,74170,1,2,0:0:0:0:
376,104,74375,2,0,L|280:104,1,85
288,16,74786,1,2,0:0:0:0:
288,16,74991,1,2,0:0:0:0:
200,16,75197,2,0,L|200:112,1,85
112,104,75608,1,2,0:0:0:0:
112,104,75813,1,2,0:0:0:0:
112,192,76019,6,0,B|128:240|152:272|232:280|240:200,1,170,8|0,0:0|0:0,0:0:0:0:
232,136,76636,1,0,0:0:0:0:
200,56,76841,2,0,B|202:0|282:8|306:40|322:88,1,170,8|0,0:0|0:0,0:0:0:0:
360,248,77663,1,8,0:0:0:0:
464,112,78074,1,8,0:0:0:0:
432,280,78485,1,8,0:0:0:0:
432,280,78690,1,8,0:0:0:0:
432,280,78896,1,8,0:0:0:0:
432,280,79101,1,8,0:0:0:0:
432,280,79307,6,0,B|416:328|392:360|312:368|304:288,1,170,8|0,0:0|0:0,0:0:0:0:
312,224,79924,1,0,0:0:0:0:
344,144,80129,2,0,B|341:88|261:96|237:128|221:176,1,170,8|0,0:0|0:0,0:0:0:0:
208,248,80745,1,0,0:0:0:0:
184,328,80951,1,8,0:0:0:0:
80,200,81362,1,8,0:0:0:0:
112,368,81773,1,8,0:0:0:0:
112,368,81978,1,8,0:0:0:0:
112,368,82184,1,8,0:0:0:0:
112,368,82389,1,8,0:0:0:0:
112,368,82595,6,0,L|112:280,1,85,8|0,0:0|0:0,0:0:0:0:
27,283,83006,2,0,L|112:283,1,85,8|0,0:0|0:0,0:0:0:0:
112,200,83417,1,8,0:0:0:0:
200,200,83622,1,8,0:0:0:0:
112,200,83828,1,0,0:0:0:0:
112,200,84033,2,8,L|112:285,1,85
197,283,84444,2,0,L|27:283,1,170,8|0,0:0|0:0,0:0:0:0:
112,136,85266,1,8,0:0:0:0:
197,283,85677,1,8,0:0:0:0:
197,283,85883,6,0,B|245:291|253:307|253:355,1,85,2|0,0:0|0:0,0:0:0:0:
320,288,86294,2,2,B|367:288|383:272|391:232,1,85
400,168,86704,1,2,0:0:0:0:
400,80,86910,1,0,0:0:0:0:
320,120,87115,1,2,0:0:0:0:
320,36,87321,1,0,0:0:0:0:
248,80,87526,5,0,0:0:0:0:
136,208,87937,1,0,0:0:0:0:
280,304,88348,5,0,0:0:0:0:
280,304,88451,1,0,0:0:0:0:
280,304,88554,1,0,0:0:0:0:
280,304,88656,1,0,0:0:0:0:
280,304,88759,1,0,0:0:0:0:
280,304,88862,1,0,0:0:0:0:
280,304,88964,1,0,0:0:0:0:
280,304,89067,1,0,0:0:0:0:
280,304,89170,6,0,B|312:304|344:296|352:264,1,85,4|0,0:0|0:0,0:0:0:0:
352,184,89581,1,0,0:0:0:0:
440,184,89787,1,0,0:0:0:0:
352,184,89992,2,0,B|352:152|304:72|456:56,1,170,4|0,0:0|0:0,0:0:0:0:
256,32,90814,6,0,B|224:32|192:40|184:72,1,85,4|0,0:0|0:0,0:0:0:0:
184,152,91225,1,4,0:0:0:0:
96,152,91431,1,0,0:0:0:0:
184,152,91636,2,0,B|212:159|220:191|220:223,1,85,4|0,0:0|0:0,0:0:0:0:
216,304,92047,1,4,0:0:0:0:
128,304,92252,1,4,0:0:0:0:
216,304,92458,6,0,B|416:440|544:208|272:200,1,425,4|0,0:0|0:0,0:0:0:0:
208,200,93691,1,4,0:0:0:0:
128,232,93896,1,0,0:0:0:0:
48,200,94102,2,0,B|-64:160|16:32|120:-8|200:80,1,340,4|0,0:0|0:0,0:0:0:0:
256,120,95129,1,4,0:0:0:0:
256,208,95335,1,4,0:0:0:0:
256,296,95540,1,4,0:0:0:0:
256,384,95746,6,0,L|344:384,1,85,4|0,0:0|0:0,0:0:0:0:
344,296,96157,1,0,0:0:0:0:
432,296,96362,1,0,0:0:0:0:
344,296,96567,2,0,L|344:120,1,170,4|0,0:0|0:0,0:0:0:0:
184,56,97389,6,0,L|96:56,1,85,4|0,0:0|0:0,0:0:0:0:
96,144,97800,1,4,0:0:0:0:
8,144,98005,1,0,0:0:0:0:
96,144,98210,2,0,L|96:232,1,85,4|0,0:0|0:0,0:0:0:0:
96,312,98622,1,4,0:0:0:0:
8,312,98828,1,4,0:0:0:0:
96,312,99033,6,0,B|167:390|312:96|368:384|496:288,1,425,4|0,0:0|0:0,0:0:0:0:
504,200,100266,1,4,0:0:0:0:
480,120,100472,1,0,0:0:0:0:
400,96,100677,1,4,0:0:0:0:
312,240,101088,5,0,0:0:0:0:
272,160,101293,1,0,0:0:0:0:
200,200,101499,1,4,0:0:0:0:
272,160,101704,1,0,0:0:0:0:
352,120,101910,1,4,0:0:0:0:
272,160,102115,1,0,0:0:0:0:
232,80,102321,6,0,B|200:80|168:88|160:120,1,85,4|0,0:0|0:0,0:0:0:0:
160,200,102732,1,0,0:0:0:0:
72,200,102938,1,0,0:0:0:0:
160,200,103143,2,0,B|160:232|208:312|56:328,1,170,4|0,0:0|0:0,0:0:0:0:
256,352,103965,6,0,B|288:352|320:344|328:312,1,85,4|0,0:0|0:0,0:0:0:0:
328,232,104376,1,4,0:0:0:0:
416,232,104582,1,0,0:0:0:0:
328,232,104787,2,0,B|300:225|292:193|292:161,1,85,4|0,0:0|0:0,0:0:0:0:
296,80,105198,1,4,0:0:0:0:
384,80,105403,1,4,0:0:0:0:
296,80,105609,6,0,B|48:128|416:312|72:344,1,425,4|0,0:0|0:0,0:0:0:0:
24,280,106842,1,4,0:0:0:0:
8,200,107047,1,0,0:0:0:0:
16,112,107253,2,0,B|96:32|192:232|344:160,1,340,4|0,0:0|0:0,0:0:0:0:
408,136,108280,1,4,0:0:0:0:
424,56,108486,1,4,0:0:0:0:
344,16,108691,1,4,0:0:0:0:
256,0,108897,6,0,L|168:0,1,85,4|0,0:0|0:0,0:0:0:0:
168,88,109308,1,0,0:0:0:0:
80,88,109513,1,0,0:0:0:0:
168,88,109718,2,0,L|168:264,1,170,4|0,0:0|0:0,0:0:0:0:
328,328,110540,6,0,L|416:328,1,85,4|0,0:0|0:0,0:0:0:0:
416,240,110951,1,4,0:0:0:0:
504,240,111156,1,0,0:0:0:0:
416,240,111361,2,0,L|416:152,1,85,4|0,0:0|0:0,0:0:0:0:
416,72,111773,1,4,0:0:0:0:
504,72,111979,1,4,0:0:0:0:
416,72,112184,6,0,B|144:24|168:16|448:216|424:112|288:200,1,425,4|0,0:0|0:0,0:0:0:0:
216,216,113417,1,4,0:0:0:0:
136,192,113623,1,0,0:0:0:0:
56,216,113827,2,0,B|8:488|0:464|200:184|96:208|184:344,1,425,4|0,0:0|0:0,0:0:0:0:
264,336,115061,1,0,0:0:0:0:
