osu file format v14

[General]
AudioFilename: audio.mp3
AudioLeadIn: 0
PreviewTime: 60990
Countdown: 0
SampleSet: Soft
StackLeniency: 0.7
Mode: 0
LetterboxInBreaks: 0
WidescreenStoryboard: 1

[Editor]
Bookmarks: 39697,56977,62737,72337,80017,91537,108817,128977
DistanceSpacing: 0.8
BeatDivisor: 4
GridSize: 4
TimelineZoom: 0.8000059

[Metadata]
Title:Summer Ghost
TitleUnicode:Summer Ghost
Artist:Akira Kosemura
ArtistUnicode:小濑村晶
Creator:seros
Version:karasu's Normal
Source:サマーゴースト
Tags:loundraw FLAT STUDIO piano instrumental anime movie itoko toma 当真伊都子 sorairokarasu karasu
BeatmapID:3547545
BeatmapSetID:1734759

[Difficulty]
HPDrainRate:3
CircleSize:2
OverallDifficulty:5
ApproachRate:6
SliderMultiplier:1.2
SliderTickRate:0.5

[Events]
//Background and Video events
0,0,"bg.jpg",0,0
//Break Periods
2,13231,16173
//Storyboard Layer 0 (Background)
//Storyboard Layer 1 (Fail)
//Storyboard Layer 2 (Pass)
//Storyboard Layer 3 (Foreground)
//Storyboard Layer 4 (Overlay)
//Storyboard Sound Samples

[TimingPoints]
522,517.241379310345,4,2,25,30,1,0
1039,-100,4,2,21,30,0,0
1556,-100,4,2,31,30,0,0
2073,-100,4,2,25,30,0,0
2568,540.540540540541,4,2,27,30,1,0
3108,-100,4,2,26,30,0,0
3649,-100,4,2,25,30,0,0
4189,-100,4,2,24,30,0,0
4706,517.241379310345,4,2,25,30,1,0
8843,521.739130434783,4,2,22,30,1,0
9364,545.454545454546,4,2,23,30,1,0
9909,512.820512820513,4,2,24,30,1,0
11960,535.714285714286,4,2,23,30,1,0
12495,-100,4,2,22,30,0,0
13031,524.017467248908,4,2,23,30,1,0
17223,512.820512820513,4,2,16,30,1,0
17223,-111.111111111111,4,2,16,30,0,0
18761,-111.111111111111,4,2,16,5,0,0
19274,515.021459227468,4,2,16,30,1,0
21334,478.087649402391,4,2,15,30,1,0
22768,485.829959514171,4,2,15,30,1,0
23010,-100,4,2,2,30,0,0
23132,-100,4,2,1,30,0,0
23375,-100,4,2,2,30,0,0
23496,-100,4,2,1,30,0,0
25561,512.820512820514,4,2,16,30,1,0
25561,-111.111111111111,4,2,16,30,0,0
28637,530.973451327434,4,2,16,30,1,0
28703,-100,4,2,21,30,0,0
29698,526.315789473685,4,2,22,30,1,0
29698,-125,4,2,22,30,0,0
31803,576.923076923078,4,2,15,30,1,0
35264,-100,4,2,2,30,0,0
36418,530.973451327435,3,2,17,30,1,0
37479,-100,3,2,2,30,0,0
38010,571.428571428572,3,2,18,30,1,0
38438,-100,3,2,2,30,0,0
38581,521.739130434783,3,2,17,30,1,0
38972,-100,3,2,21,35,0,0
39233,461.538461538462,3,2,22,40,1,0
39348,-100,3,2,2,30,0,0
39463,-100,3,2,23,45,0,0
39697,480.000000000001,3,2,21,50,1,0
40057,-100,3,2,2,50,0,0
40177,-100,3,2,17,50,0,0
40417,-100,3,2,21,50,0,0
40657,-100,3,2,22,50,0,0
40897,-100,3,2,23,50,0,0
41137,-100,3,2,21,50,0,0
41377,-100,3,2,17,50,0,0
41617,-100,3,2,21,50,0,0
41857,-100,3,2,22,50,0,0
42097,-100,3,2,23,50,0,0
42337,-100,3,2,15,50,0,0
42577,-100,3,2,21,50,0,0
43537,-100,3,2,22,50,0,0
44017,-100,3,2,17,50,0,0
44737,-100,3,2,21,50,0,0
44977,-100,3,2,22,50,0,0
45217,-100,3,2,23,50,0,0
45457,-100,3,2,21,50,0,0
45817,-100,3,2,2,50,0,0
45937,-100,3,2,17,50,0,0
46177,-100,3,2,21,50,0,0
46417,-100,3,2,22,50,0,0
46657,-100,3,2,23,50,0,0
46897,-100,3,2,21,50,0,0
47137,-100,3,2,23,50,0,0
47377,-100,3,2,24,50,0,0
47617,-100,3,2,25,50,0,0
47857,-100,3,2,27,50,0,0
48097,-100,3,2,25,50,0,0
49057,-100,3,2,27,50,0,0
49297,-100,3,2,25,50,0,0
49537,-100,3,2,23,50,0,0
49777,-100,3,2,22,50,0,0
50257,-100,3,2,17,50,0,0
50497,-100,3,2,21,50,0,0
50737,-100,3,2,22,50,0,0
50977,-100,3,2,23,50,0,0
51217,-100,3,2,21,50,0,0
51577,-100,3,2,2,50,0,0
51697,-100,3,2,17,50,0,0
51937,-100,3,2,21,50,0,0
52177,-100,3,2,22,50,0,0
52417,-100,3,2,23,50,0,0
52657,-100,3,2,21,50,0,0
52897,-100,3,2,17,50,0,0
53137,-100,3,2,21,50,0,0
53377,-100,3,2,22,50,0,0
53617,-100,3,2,23,50,0,0
53857,-100,3,2,15,50,0,0
54097,-100,3,2,21,50,0,0
55057,-100,3,2,22,50,0,0
55537,-100,3,2,17,50,0,0
56017,-100,3,2,21,50,0,0
56497,-100,3,2,22,50,0,0
56977,-100,3,2,23,45,0,0
57457,-100,3,2,24,45,0,0
57937,-100,3,2,23,45,0,0
58177,-100,3,2,22,45,0,0
58417,-100,3,2,21,45,0,0
59857,-100,3,2,24,40,0,0
60337,-100,3,2,5,40,0,0
60817,-100,3,2,11,40,0,0
61297,-100,3,2,25,50,0,0
61777,-100,3,2,27,50,0,0
62017,-100,3,2,31,55,0,0
62257,-100,3,2,32,60,0,0
62497,-100,3,2,33,65,0,0
62737,468.750000000001,3,2,31,70,1,0
63088,-100,3,2,2,70,0,0
63205,-100,3,2,27,70,0,0
63440,-100,3,2,31,70,0,0
63674,-100,3,2,32,70,0,0
63908,-100,3,2,33,70,0,0
64143,483.870967741937,3,2,31,70,1,0
64384,-100,3,2,27,70,0,0
64626,-100,3,2,31,70,0,0
64868,-100,3,2,32,70,0,0
65110,-100,3,2,33,70,0,0
65351,-100,3,2,25,70,0,0
65594,-100,3,2,31,70,0,0
66561,-100,3,2,22,70,0,0
67046,487.804878048782,3,2,17,70,1,0
67537,480.000000000001,3,2,27,70,1,0
67777,-100,3,2,31,70,0,0
68017,-100,3,2,32,70,0,0
68257,-100,3,2,33,70,0,0
68497,480.000000000001,3,2,31,70,1,0
68857,-100,3,2,2,70,0,0
68977,-100,3,2,27,70,0,0
69217,-100,3,2,31,70,0,0
69457,-100,3,2,32,70,0,0
69697,-100,3,2,33,70,0,0
69937,-100,3,2,31,70,0,0
70177,-100,3,2,33,70,0,0
70417,-100,3,2,34,70,0,0
70657,-100,3,2,35,70,0,0
70897,-100,3,2,37,70,0,0
71137,-100,3,2,35,70,0,0
72097,-100,3,2,27,70,0,0
72337,-100,3,2,25,70,0,0
72577,-100,3,2,23,70,0,0
72817,-100,3,2,22,70,0,0
73297,-100,3,2,17,70,0,0
73537,-100,3,2,21,70,0,0
73777,-100,3,2,22,70,0,0
74017,-100,3,2,23,70,0,0
74257,-100,3,2,21,70,0,0
74737,-100,3,2,17,70,0,0
74977,-100,3,2,21,70,0,0
75217,-100,3,2,22,70,0,0
75457,-100,3,2,23,70,0,0
75697,-100,3,2,21,70,0,0
75937,-100,3,2,17,70,0,0
76177,-100,3,2,21,70,0,0
76417,-100,3,2,22,70,0,0
76657,-100,3,2,23,70,0,0
76897,-100,3,2,15,70,0,0
77137,-100,3,2,21,70,0,0
78097,-100,3,2,22,70,0,0
78577,-100,3,2,17,70,0,0
79057,-100,3,2,21,70,0,0
79537,-100,3,2,22,70,0,0
80017,-100,3,2,23,65,0,0
80497,-100,3,2,24,65,0,0
80977,-100,3,2,23,65,0,0
81217,-100,3,2,22,65,0,0
81457,-100,3,2,21,65,0,0
82897,-100,3,2,24,60,0,0
83377,-100,3,2,5,60,0,0
83857,-100,3,2,11,60,0,0
84337,-100,3,2,25,55,0,0
85777,-125,3,2,26,50,0,0
87217,-125,3,2,31,45,0,0
88657,-125,3,2,27,40,0,0
90097,-100,3,2,27,60,0,0
90817,-100,3,2,31,65,0,0
91057,-100,3,2,32,70,0,0
91297,-100,3,2,33,75,0,0
91537,-100,3,2,31,80,0,0
91897,-100,3,2,2,80,0,0
92017,-100,3,2,27,80,0,0
92257,-100,3,2,31,80,0,0
92497,-100,3,2,32,80,0,0
92737,-100,3,2,33,80,0,0
92977,-100,3,2,31,80,0,0
93217,-100,3,2,27,80,0,0
93457,-100,3,2,31,80,0,0
93697,-100,3,2,32,80,0,0
93937,-100,3,2,33,80,0,0
94177,-100,3,2,25,80,0,0
94417,-100,3,2,31,80,0,0
94897,-100,3,2,22,60,0,0
95857,-100,3,2,17,60,0,0
96337,-100,3,2,27,80,0,0
96577,-100,3,2,31,80,0,0
96817,-100,3,2,32,80,0,0
97057,-100,3,2,33,80,0,0
97297,-100,3,2,31,80,0,0
97657,-100,3,2,2,80,0,0
97777,-100,3,2,27,80,0,0
98017,-100,3,2,31,80,0,0
98257,-100,3,2,32,80,0,0
98497,-100,3,2,33,80,0,0
98737,-100,3,2,31,80,0,0
98977,-100,3,2,33,80,0,0
99217,-100,3,2,34,80,0,0
99457,-100,3,2,35,80,0,0
99697,-100,3,2,37,80,0,0
99937,-100,3,2,35,80,0,0
100897,-100,3,2,37,80,0,0
101137,-100,3,2,35,80,0,0
101377,-100,3,2,33,80,0,0
101617,-100,3,2,32,80,0,0
102097,-100,3,2,27,80,0,0
102337,-100,3,2,31,80,0,0
102577,-100,3,2,32,80,0,0
102817,-100,3,2,33,80,0,0
103057,-100,3,2,31,80,0,0
103537,-100,3,2,27,80,0,0
103777,-100,3,2,31,80,0,0
104017,-100,3,2,32,80,0,0
104257,-100,3,2,33,80,0,0
104497,-100,3,2,31,80,0,0
104737,-100,3,2,27,80,0,0
104977,-100,3,2,31,80,0,0
105217,-100,3,2,32,80,0,0
105457,-100,3,2,33,80,0,0
105697,-100,3,2,25,80,0,0
105937,-100,3,2,31,80,0,0
106416,-100,3,2,22,60,0,0
106657,-100,3,2,23,60,0,0
106897,-100,3,2,22,60,0,0
107377,-100,3,2,27,75,0,0
107857,-100,3,2,31,70,0,0
108337,-100,3,2,32,65,0,0
108817,-100,3,2,33,60,0,0
109297,-100,3,2,34,60,0,0
109777,-100,3,2,33,60,0,0
110017,-100,3,2,32,60,0,0
110257,-100,3,2,31,60,0,0
111697,-100,3,2,34,55,0,0
112177,-100,3,2,34,50,0,0
113137,-100,3,2,35,50,0,0
114349,545.454545454547,3,2,35,50,1,0
114530,521.739130434784,3,2,36,40,1,0
115505,465.116279069768,3,2,36,40,1,0
115737,-100,3,2,35,40,0,0
116028,468.75,3,2,34,35,1,0
117434,480,3,2,35,35,1,0
117914,-100,3,2,25,30,0,0
118394,-100,3,2,31,30,0,0
118874,-100,3,2,41,30,0,0
120194,500,3,2,41,30,1,0
120319,512.820512820513,3,2,42,30,1,0
120831,-100,3,2,43,30,0,0
121279,500,3,2,42,30,1,0
121529,-100,3,2,41,30,0,0
121779,-100,3,2,57,30,0,0
123081,500,3,2,57,30,1,0
123206,487.804878048781,3,2,41,30,1,0
123693,-100,3,2,35,30,0,0
124181,-100,3,2,41,30,0,0
124669,-100,3,2,43,30,0,0
125929,508.474576271187,3,2,43,30,1,0
126056,512.820512820513,3,2,44,30,1,0
126568,-100,3,2,45,30,0,0
127005,530.973451327433,3,2,44,30,1,0
127270,-100,3,2,43,30,0,0
127535,-100,3,2,42,30,0,0
128863,479.999999999999,3,2,35,30,1,0
128953,-100,3,2,45,30,0,0

[Colours]
Combo1 : 255,128,128
Combo2 : 128,128,192

[HitObjects]
16,368,522,6,0,L|25:231,1,120,2|2,2:0|2:0,2:0:0:0:
116,228,1556,2,0,L|124:100,1,120,2|2,2:0|2:0,2:0:0:0:
160,28,2568,1,2,2:0:0:0:
256,12,3108,1,2,2:0:0:0:
328,76,3649,2,0,P|376:94|466:74,1,120,2|2,2:0|2:0,2:0:0:0:
496,8,4706,1,2,2:0:0:0:
496,8,8843,5,2,2:0:0:0:
452,88,9364,1,2,2:0:0:0:
476,188,9909,1,2,2:0:0:0:
476,188,11960,5,2,2:0:0:0:
448,280,12495,1,2,2:0:0:0:
492,368,13031,1,2,2:0:0:0:
492,368,17223,6,0,L|164:352,1,323.999990112305,2|0,2:0|2:0,2:0:0:0:
256,316,19274,2,0,L|261:236,1,80,0|0,2:0|2:0,2:0:0:0:
320,208,19960,2,0,L|325:128,1,80,0|0,2:0|2:0,2:0:0:0:
296,72,20647,1,0,2:0:0:0:
416,8,21334,5,2,2:0:0:0:
488,280,22768,2,0,L|508:168,2,90,0|0|0,2:0|2:0|2:0,2:0:0:0:
304,228,24468,1,0,2:0:0:0:
168,352,25561,6,0,L|144:16,1,323.999990112305,2|0,2:0|2:0,2:0:0:0:
180,108,27612,2,0,L|292:116,1,107.999996704102,2|0,2:0|2:0,2:0:0:0:
332,196,28637,2,0,L|452:204,1,120,2|0,2:0|2:0,2:0:0:0:
451,299,29698,2,0,L|151:355,1,288,2|0,2:0|2:0,2:0:0:0:
84,328,31803,2,0,B|36:300|-36:160|348:88|284:-136|-116:-136|-172:232|0:292|144:280|168:108|256:112|204:260|304:260|404:196,1,840,2|0,2:0|2:0,2:0:0:0:
420,116,36418,6,0,B|452:106|484:-7|306:-4|328:148,1,240,2|0,2:0|2:0,2:0:0:0:
272,192,38010,2,0,P|288:240|288:320,1,120,2|2,2:0|2:0,2:0:0:0:
209,353,38972,1,2,2:0:0:0:
209,353,39233,2,0,L|137:333,1,60,2|2,2:0|2:0,2:0:0:0:
105,345,39697,6,0,L|81:201,1,120,6|2,2:0|2:0,2:0:0:0:
113,189,40417,1,2,2:0:0:0:
113,189,40657,2,0,L|117:109,1,60,2|2,2:0|2:0,2:0:0:0:
132,84,41137,2,0,L|280:92,1,120,2|2,2:0|2:0,2:0:0:0:
280,52,41857,1,2,2:0:0:0:
280,52,42097,2,0,L|352:44,1,60,2|2,2:0|2:0,2:0:0:0:
384,64,42577,2,0,B|428:160|312:188|364:316,1,240,2|2,2:0|2:0,2:0:0:0:
296,372,44017,6,0,P|240:356|164:364,1,120,2|2,2:0|2:0,2:0:0:0:
160,320,44737,1,2,2:0:0:0:
160,320,44977,2,0,P|120:320|80:308,1,60,2|2,2:0|2:0,2:0:0:0:
52,320,45457,2,0,P|60:240|52:184,1,120,2|2,2:0|2:0,2:0:0:0:
24,172,46177,1,2,2:0:0:0:
24,172,46417,2,0,P|24:132|36:96,1,60,2|2,2:0|2:0,2:0:0:0:
68,84,46897,2,0,P|80:52|80:16,2,60,2|2|2,2:0|2:0|2:0,2:0:0:0:
112,100,47617,1,2,2:0:0:0:
112,100,47857,2,0,P|144:96|192:108,1,60,2|2,2:0|2:0,2:0:0:0:
212,76,48337,6,0,P|272:88|344:80,1,120,2|0,2:0|2:0,2:0:0:0:
360,44,49057,1,2,2:0:0:0:
360,44,49297,2,0,P|396:44|440:64,1,60,2|2,2:0|2:0,2:0:0:0:
464,40,49777,1,2,2:0:0:0:
464,144,50257,1,2,2:0:0:0:
464,144,50497,1,2,2:0:0:0:
464,144,50737,2,0,P|456:184|460:220,1,60,2|2,2:0|2:0,2:0:0:0:
436,248,51217,6,0,L|308:228,1,120,6|2,2:0|2:0,2:0:0:0:
304,192,51937,1,2,2:0:0:0:
304,192,52177,2,0,L|224:208,1,60,2|2,2:0|2:0,2:0:0:0:
196,204,52657,2,0,P|184:172|184:136,2,60,2|2|2,2:0|2:0|2:0,2:0:0:0:
160,232,53377,1,2,2:0:0:0:
160,232,53617,2,0,P|164:260|160:292,1,60,2|2,2:0|2:0,2:0:0:0:
148,336,54097,2,0,L|388:320,1,240,2|2,2:0|2:0,2:0:0:0:
480,348,55537,6,0,L|464:208,2,120,2|2|2,2:0|2:0|2:0,2:0:0:0:
400,292,56977,1,2,2:0:0:0:
432,200,57457,1,2,2:0:0:0:
468,116,57937,1,2,2:0:0:0:
468,116,58177,1,2,2:0:0:0:
468,116,58417,2,0,B|452:64|332:-12|260:56,1,240,2|0,2:0|2:0,2:0:0:0:
188,108,59857,1,2,2:0:0:0:
264,168,60337,2,0,L|252:292,1,120,2|2,2:0|2:0,2:0:0:0:
234,381,61297,5,2,2:0:0:0:
156,323,61777,2,0,P|131:315|86:314,1,60,2|2,2:0|2:0,2:0:0:0:
60,336,62257,1,2,2:0:0:0:
60,336,62497,1,2,2:0:0:0:
60,336,62737,6,0,P|72:248|60:196,1,120,6|2,2:0|2:0,2:0:0:0:
108,192,63440,1,2,2:0:0:0:
108,192,63674,2,0,P|116:160|132:132,1,60,2|2,2:0|2:0,2:0:0:0:
140,92,64143,2,0,P|116:76|68:72,2,60,2|2|2,2:0|2:0|2:0,2:0:0:0:
188,78,64868,1,2,2:0:0:0:
188,78,65110,2,0,P|220:78|256:66,1,60,2|2,2:0|2:0,2:0:0:0:
284,100,65594,2,0,P|248:196|244:344,1,240,2|2,2:0|2:0,2:0:0:0:
328,376,67046,1,2,2:0:0:0:
436,380,67537,5,2,2:0:0:0:
436,380,67777,1,2,2:0:0:0:
436,380,68017,2,0,P|437:338|425:308,1,60,2|2,2:0|2:0,2:0:0:0:
448,276,68497,6,0,P|436:188|448:136,1,120,2|2,2:0|2:0,2:0:0:0:
420,124,69217,1,2,2:0:0:0:
420,124,69457,2,0,P|420:88|412:52,1,60,2|2,2:0|2:0,2:0:0:0:
376,36,69937,6,0,L|300:40,1,60,2|2,2:0|2:0,2:0:0:0:
284,76,70417,2,0,L|208:80,1,60,2|2,2:0|2:0,2:0:0:0:
180,64,70897,2,0,L|104:68,1,60,2|2,2:0|2:0,2:0:0:0:
72,76,71377,1,2,2:0:0:0:
48,168,71857,2,0,P|44:208|48:232,1,60,0|2,2:0|2:0,2:0:0:0:
88,252,72337,2,0,P|96:288|88:336,1,60,2|2,2:0|2:0,2:0:0:0:
68,348,72817,6,0,L|212:336,1,120,2|2,2:0|2:0,2:0:0:0:
220,304,73537,1,2,2:0:0:0:
220,304,73777,2,0,L|304:308,1,60,2|2,2:0|2:0,2:0:0:0:
324,324,74257,1,6,2:0:0:0:
328,232,74737,1,2,2:0:0:0:
328,232,74977,1,2,2:0:0:0:
328,232,75217,2,0,L|332:160,1,60,2|2,2:0|2:0,2:0:0:0:
332,124,75697,6,0,P|304:108|268:104,1,60,2|2,2:0|2:0,2:0:0:0:
244,68,76177,2,0,P|212:76|184:99,1,60,2|2,2:0|2:0,2:0:0:0:
144,88,76657,2,0,P|127:115|124:151,1,60,2|2,2:0|2:0,2:0:0:0:
92,179,77137,2,0,P|99:238|95:298,1,120,2|0,2:0|2:0,2:0:0:0:
191,305,78097,1,2,2:0:0:0:
280,269,78577,2,0,P|279:208|253:130,1,120,2|2,2:0|2:0,2:0:0:0:
167,142,79537,1,2,2:0:0:0:
71,137,80017,6,0,L|79:277,1,120,2|2,2:0|2:0,2:0:0:0:
155,313,80977,1,2,2:0:0:0:
155,313,81217,2,0,L|151:381,1,60,2|2,2:0|2:0,2:0:0:0:
439,377,82897,6,0,L|455:241,2,120,2|2|2,2:0|2:0|2:0,2:0:0:0:
343,369,84337,1,2,2:0:0:0:
287,85,85777,2,0,L|267:385,2,288,2|2|2,2:0|2:0|2:0,2:0:0:0:
164,16,90097,6,0,P|164:96|148:156,1,120,0|2,2:0|2:0,2:0:0:0:
196,172,90817,1,2,2:0:0:0:
196,172,91057,2,0,P|184:200|184:240,1,60,2|2,2:0|2:0,2:0:0:0:
152,268,91537,6,0,L|20:248,1,120,6|2,2:0|2:0,2:0:0:0:
32,208,92257,1,2,2:0:0:0:
32,208,92497,2,0,L|40:135,1,60,2|2,2:0|2:0,2:0:0:0:
86,155,92977,2,0,L|145:164,1,60,2|2,2:0|2:0,2:0:0:0:
152,117,93457,2,0,L|162:57,1,60,2|2,2:0|2:0,2:0:0:0:
139,15,93937,2,0,L|67:3,2,60,2|2|2,2:0|2:0|2:0,2:0:0:0:
234,7,94897,1,2,2:0:0:0:
316,56,95377,1,2,2:0:0:0:
410,40,95857,6,0,L|390:176,1,120,2|2,2:0|2:0,2:0:0:0:
352,180,96577,1,2,2:0:0:0:
352,180,96817,2,0,L|340:252,1,60,2|2,2:0|2:0,2:0:0:0:
348,288,97297,6,0,P|284:264|208:280,1,120,6|2,2:0|2:0,2:0:0:0:
212,316,98017,1,2,2:0:0:0:
212,316,98257,2,0,P|176:328|144:328,1,60,2|2,2:0|2:0,2:0:0:0:
124,292,98737,2,0,P|96:288|72:268,1,60,2|2,2:0|2:0,2:0:0:0:
48,228,99217,2,0,P|40:196|48:148,1,60,2|2,2:0|2:0,2:0:0:0:
52,120,99697,2,0,P|68:92|104:72,1,60,2|2,2:0|2:0,2:0:0:0:
136,64,100177,1,2,2:0:0:0:
220,112,100657,6,0,P|256:120|288:116,1,60,0|2,2:0|2:0,2:0:0:0:
312,84,101137,2,0,P|344:80|388:96,1,60,2|2,2:0|2:0,2:0:0:0:
400,124,101617,2,0,L|392:264,1,120,2|2,2:0|2:0,2:0:0:0:
352,264,102337,1,2,2:0:0:0:
352,264,102577,2,0,L|364:328,1,60,2|2,2:0|2:0,2:0:0:0:
388,364,103057,5,6,2:0:0:0:
460,300,103537,1,2,2:0:0:0:
460,300,103777,1,2,2:0:0:0:
460,300,104017,2,0,P|453:260|460:223,1,60,2|2,2:0|2:0,2:0:0:0:
456,192,104497,6,0,P|447:161|421:126,1,60,2|2,2:0|2:0,2:0:0:0:
389,115,104977,2,0,P|374:142|341:170,1,60,2|2,2:0|2:0,2:0:0:0:
306,171,105457,2,0,P|297:140|271:105,1,60,2|2,2:0|2:0,2:0:0:0:
249,151,105937,2,0,P|257:181|105:201,1,240,2|2,2:0|2:0,2:0:0:0:
78,134,107377,2,0,P|69:103|221:83,1,240,2|2,2:0|2:0,2:0:0:0:
308,69,108817,1,2,2:0:0:0:
403,76,109297,1,2,2:0:0:0:
498,88,109777,2,0,L|490:168,2,60,2|2|2,2:0|2:0|2:0,2:0:0:0:
265,260,111697,6,0,L|280:134,2,120,2|0|0,2:0|2:0|2:0,2:0:0:0:
170,276,113137,1,2,2:0:0:0:
408,372,114530,2,0,L|428:236,1,120,2|0,2:0|2:0,2:0:0:0:
368,180,115505,2,0,L|356:116,1,60,2|2,2:0|2:0,2:0:0:0:
384,68,116028,1,2,2:0:0:0:
108,24,117434,6,0,L|120:156,2,120,2|2|2,2:0|2:0|2:0,2:0:0:0:
204,8,118874,1,2,2:0:0:0:
476,24,120319,2,0,L|464:152,1,120,2|2,2:0|2:0,2:0:0:0:
400,208,121279,2,0,L|412:292,2,60,2|2|2,2:0|2:0|2:0,2:0:0:0:
200,8,123206,2,0,L|216:152,2,120,2|2|2,2:0|2:0|2:0,2:0:0:0:
104,24,124669,1,2,2:0:0:0:
16,268,126056,6,0,P|60:280|148:272,1,120,2|2,2:0|2:0,2:0:0:0:
204,216,127005,2,0,P|240:208|284:208,2,60,2|2|2,2:0|2:0|2:0,2:0:0:0:
468,216,128863,2,0,P|488:216|504:208,1,30,2|0,2:0|2:0,2:0:0:0:
