osu file format v14

[General]
AudioFilename: audio.mp3
AudioLeadIn: 0
PreviewTime: 68668
Countdown: 0
SampleSet: Soft
StackLeniency: 0.7
Mode: 3
LetterboxInBreaks: 0
SpecialStyle: 0
WidescreenStoryboard: 1

[Editor]
DistanceSpacing: 1.2
BeatDivisor: 4
GridSize: 32
TimelineZoom: 1

[Metadata]
Title:Lucid Traveler
TitleUnicode:Lucid Traveler
Artist:Akira Complex vs. 3R2
ArtistUnicode:Akira Complex vs. 3R2
Creator:Joonkoh
Version:FUTURE
Source:Arcaea
Tags:electronic instrumental drumstep futuristic bass cytus ii 2 collaboration ilith & ivy conflict tairitsu 対立
BeatmapID:4230566
BeatmapSetID:2017769

[Difficulty]
HPDrainRate:6.7
CircleSize:4
OverallDifficulty:6.7
ApproachRate:5
SliderMultiplier:1.4
SliderTickRate:1

[Events]
//Background and Video events
0,0,"Lucid Traveler.jpg",0,0
//Break Periods
//Storyboard Layer 0 (Background)
//Storyboard Layer 1 (Fail)
//Storyboard Layer 2 (Pass)
//Storyboard Layer 3 (Foreground)
//Storyboard Layer 4 (Overlay)
//Storyboard Sound Samples

[TimingPoints]
903,352.941176470588,4,2,0,5,1,0
105373,342.857142857143,4,2,0,5,1,0
105373,-102.941176470588,4,2,0,5,0,0
106744,337.078651685393,4,2,0,5,1,0
106744,-104.705882352941,4,2,0,5,0,0
108092,329.67032967033,4,2,0,5,1,0
108092,-107.058823529412,4,2,0,5,0,0
109410,324.324324324324,4,2,0,5,1,0
109410,-108.823529411765,4,2,0,5,0,0
110058,319.148936170213,4,2,0,5,1,0
110058,-110.588235294118,4,2,0,5,0,0
110696,312.5,4,2,0,5,1,0
110696,-112.941176470588,4,2,0,5,0,0
111321,307.692307692308,4,2,0,5,1,0
111321,-114.705882352941,4,2,0,5,0,0
111936,303.030303030303,4,2,0,5,1,0
111936,-116.470588235294,4,2,0,5,0,0
113148,300,4,2,0,5,1,0
113148,-117.647058823529,4,2,0,5,0,0

[HitObjects]
320,192,1520,128,0,2314:0:0:0:0:
64,192,2314,5,0,0:0:0:0:
448,192,2314,1,0,0:0:0:0:
192,192,2491,1,0,0:0:0:0:
320,192,2667,1,0,0:0:0:0:
448,192,2844,1,0,0:0:0:0:
64,192,3020,128,0,3726:0:0:0:0:
320,192,3726,1,0,0:0:0:0:
448,192,3726,1,0,0:0:0:0:
192,192,3902,1,0,0:0:0:0:
64,192,4079,1,0,0:0:0:0:
448,192,4255,1,0,0:0:0:0:
320,192,4344,1,0,0:0:0:0:
192,192,4432,128,0,5138:0:0:0:0:
320,192,5138,1,0,0:0:0:0:
448,192,5138,1,0,0:0:0:0:
320,192,5491,1,0,0:0:0:0:
192,192,5491,1,0,0:0:0:0:
448,192,5844,1,0,0:0:0:0:
320,192,6020,1,0,0:0:0:0:
192,192,6197,1,0,0:0:0:0:
320,192,6373,1,0,0:0:0:0:
64,192,6550,1,0,0:0:0:0:
192,192,6726,1,0,0:0:0:0:
320,192,6902,1,0,0:0:0:0:
64,192,7079,1,0,0:0:0:0:
448,192,7255,128,0,7961:0:0:0:0:
64,192,7961,1,0,0:0:0:0:
192,192,7961,1,0,0:0:0:0:
448,192,8138,1,0,0:0:0:0:
320,192,8314,1,0,0:0:0:0:
192,192,8491,1,0,0:0:0:0:
64,192,8667,128,0,9373:0:0:0:0:
320,192,9373,1,0,0:0:0:0:
448,192,9373,1,0,0:0:0:0:
192,192,9550,1,0,0:0:0:0:
64,192,9726,1,0,0:0:0:0:
448,192,9902,1,0,0:0:0:0:
320,192,9991,1,0,0:0:0:0:
192,192,10079,128,0,10785:0:0:0:0:
320,192,10785,1,0,0:0:0:0:
448,192,10785,1,0,0:0:0:0:
192,192,11138,1,0,0:0:0:0:
64,192,11138,1,0,0:0:0:0:
448,192,11491,1,0,0:0:0:0:
320,192,11667,1,0,0:0:0:0:
64,192,11844,1,0,0:0:0:0:
192,192,12020,1,0,0:0:0:0:
448,192,12197,128,0,12902:0:0:0:0:
320,192,12902,128,0,13608:0:0:0:0:
192,192,13608,1,0,0:0:0:0:
64,192,13608,1,0,0:0:0:0:
448,192,13785,1,0,0:0:0:0:
192,192,13961,1,0,0:0:0:0:
448,192,14050,1,0,0:0:0:0:
192,192,14226,1,0,0:0:0:0:
448,192,14314,1,0,0:0:0:0:
320,192,14402,1,0,0:0:0:0:
192,192,14579,1,0,0:0:0:0:
64,192,14755,1,0,0:0:0:0:
320,192,14844,1,0,0:0:0:0:
192,192,15020,1,0,0:0:0:0:
448,192,15197,1,0,0:0:0:0:
192,192,15373,1,0,0:0:0:0:
448,192,15461,1,0,0:0:0:0:
64,192,15638,1,0,0:0:0:0:
192,192,15726,1,0,0:0:0:0:
320,192,15814,1,0,0:0:0:0:
448,192,15991,1,0,0:0:0:0:
320,192,16167,1,0,0:0:0:0:
192,192,16255,1,0,0:0:0:0:
320,192,16432,1,0,0:0:0:0:
64,192,16608,1,0,0:0:0:0:
320,192,16785,1,0,0:0:0:0:
64,192,16873,1,0,0:0:0:0:
320,192,17050,1,0,0:0:0:0:
64,192,17138,1,0,0:0:0:0:
192,192,17226,1,0,0:0:0:0:
320,192,17402,1,0,0:0:0:0:
448,192,17579,1,0,0:0:0:0:
320,192,17667,1,0,0:0:0:0:
192,192,17755,1,0,0:0:0:0:
64,192,17844,1,0,0:0:0:0:
64,192,18020,1,0,0:0:0:0:
320,192,18197,1,0,0:0:0:0:
64,192,18285,1,0,0:0:0:0:
448,192,18373,1,0,0:0:0:0:
192,192,18550,1,0,0:0:0:0:
320,192,18638,1,0,0:0:0:0:
448,192,18814,1,0,0:0:0:0:
320,192,18991,1,0,0:0:0:0:
192,192,19079,1,0,0:0:0:0:
64,192,19167,1,0,0:0:0:0:
320,192,19255,1,0,0:0:0:0:
448,192,19255,1,0,0:0:0:0:
64,192,19432,1,0,0:0:0:0:
320,192,19608,1,0,0:0:0:0:
64,192,19697,1,0,0:0:0:0:
320,192,19873,1,0,0:0:0:0:
64,192,19961,1,0,0:0:0:0:
192,192,20050,1,0,0:0:0:0:
320,192,20226,1,0,0:0:0:0:
448,192,20402,1,0,0:0:0:0:
192,192,20491,1,0,0:0:0:0:
320,192,20667,1,0,0:0:0:0:
64,192,20844,1,0,0:0:0:0:
320,192,21020,1,0,0:0:0:0:
64,192,21108,1,0,0:0:0:0:
448,192,21285,1,0,0:0:0:0:
320,192,21373,1,0,0:0:0:0:
192,192,21461,1,0,0:0:0:0:
64,192,21638,1,0,0:0:0:0:
192,192,21814,1,0,0:0:0:0:
320,192,21902,1,0,0:0:0:0:
192,192,22079,1,0,0:0:0:0:
448,192,22255,1,0,0:0:0:0:
192,192,22432,1,0,0:0:0:0:
448,192,22520,1,0,0:0:0:0:
192,192,22697,1,0,0:0:0:0:
448,192,22785,1,0,0:0:0:0:
320,192,22873,1,0,0:0:0:0:
192,192,23050,1,0,0:0:0:0:
64,192,23226,1,0,0:0:0:0:
192,192,23314,1,0,0:0:0:0:
320,192,23402,1,0,0:0:0:0:
448,192,23491,1,0,0:0:0:0:
448,192,23667,1,0,0:0:0:0:
64,192,23844,1,0,0:0:0:0:
192,192,23932,1,0,0:0:0:0:
320,192,24020,1,0,0:0:0:0:
448,192,24197,1,0,0:0:0:0:
320,192,24285,1,0,0:0:0:0:
192,192,24461,1,0,0:0:0:0:
448,192,24638,1,0,0:0:0:0:
320,192,24726,1,0,0:0:0:0:
192,192,24814,1,0,0:0:0:0:
448,192,24902,1,0,0:0:0:0:
64,192,24902,128,0,25255:0:0:0:0:
448,192,25255,1,0,0:0:0:0:
192,192,25608,128,0,25961:0:0:0:0:
448,192,25608,1,0,0:0:0:0:
448,192,25961,1,0,0:0:0:0:
320,192,26314,128,0,26667:0:0:0:0:
64,192,26314,1,0,0:0:0:0:
64,192,26667,1,0,0:0:0:0:
448,192,27020,128,0,27373:0:0:0:0:
64,192,27020,1,0,0:0:0:0:
64,192,27373,1,0,0:0:0:0:
448,192,27726,128,0,28079:0:0:0:0:
64,192,27726,1,0,0:0:0:0:
64,192,28079,1,0,0:0:0:0:
64,192,28432,1,0,0:0:0:0:
320,192,28432,128,0,28785:0:0:0:0:
64,192,28785,1,0,0:0:0:0:
192,192,29138,128,0,29491:0:0:0:0:
448,192,29138,1,0,0:0:0:0:
448,192,29491,1,0,0:0:0:0:
64,192,29844,128,0,30197:0:0:0:0:
448,192,29844,1,0,0:0:0:0:
448,192,30197,1,0,0:0:0:0:
448,192,30550,1,0,0:0:0:0:
64,192,30550,1,0,0:0:0:0:
64,192,30726,1,0,0:0:0:0:
64,192,30902,1,0,0:0:0:0:
64,192,31079,1,0,0:0:0:0:
192,192,31255,1,0,0:0:0:0:
192,192,31432,1,0,0:0:0:0:
192,192,31608,1,0,0:0:0:0:
192,192,31785,1,0,0:0:0:0:
64,192,31961,1,0,0:0:0:0:
448,192,31961,1,0,0:0:0:0:
448,192,32138,1,0,0:0:0:0:
448,192,32314,1,0,0:0:0:0:
448,192,32491,1,0,0:0:0:0:
320,192,32667,1,0,0:0:0:0:
320,192,32844,1,0,0:0:0:0:
320,192,33020,1,0,0:0:0:0:
320,192,33197,1,0,0:0:0:0:
64,192,33373,1,0,0:0:0:0:
192,192,33461,1,0,0:0:0:0:
320,192,33550,1,0,0:0:0:0:
448,192,33638,1,0,0:0:0:0:
64,192,33726,1,0,0:0:0:0:
320,192,33814,1,0,0:0:0:0:
64,192,33902,1,0,0:0:0:0:
320,192,33991,1,0,0:0:0:0:
448,192,34079,1,0,0:0:0:0:
320,192,34167,1,0,0:0:0:0:
192,192,34255,1,0,0:0:0:0:
64,192,34344,1,0,0:0:0:0:
448,192,34432,1,0,0:0:0:0:
192,192,34520,1,0,0:0:0:0:
448,192,34608,1,0,0:0:0:0:
192,192,34697,1,0,0:0:0:0:
448,192,34785,1,0,0:0:0:0:
320,192,34961,1,0,0:0:0:0:
192,192,35138,1,0,0:0:0:0:
64,192,35138,1,0,0:0:0:0:
448,192,35314,1,0,0:0:0:0:
320,192,35491,1,0,0:0:0:0:
192,192,35667,1,0,0:0:0:0:
64,192,35667,1,0,0:0:0:0:
320,192,35844,1,0,0:0:0:0:
320,192,36020,1,0,0:0:0:0:
448,192,36197,128,0,36550:0:0:0:0:
64,192,36197,1,0,0:0:0:0:
64,192,36550,1,0,0:0:0:0:
320,192,36726,1,0,0:0:0:0:
448,192,36902,128,0,37255:0:0:0:0:
192,192,36902,1,0,0:0:0:0:
192,192,37167,1,0,0:0:0:0:
192,192,37432,1,0,0:0:0:0:
320,192,37432,1,0,0:0:0:0:
448,192,37608,128,0,37961:0:0:0:0:
64,192,37608,1,0,0:0:0:0:
64,192,37961,1,0,0:0:0:0:
320,192,38138,1,0,0:0:0:0:
64,192,38314,1,0,0:0:0:0:
192,192,38402,1,0,0:0:0:0:
320,192,38491,1,0,0:0:0:0:
64,192,38579,1,0,0:0:0:0:
448,192,38667,1,0,0:0:0:0:
320,192,38755,1,0,0:0:0:0:
192,192,38844,1,0,0:0:0:0:
320,192,38932,1,0,0:0:0:0:
448,192,39020,1,0,0:0:0:0:
64,192,39020,128,0,39373:0:0:0:0:
448,192,39373,1,0,0:0:0:0:
192,192,39550,1,0,0:0:0:0:
64,192,39726,128,0,40079:0:0:0:0:
320,192,39726,1,0,0:0:0:0:
320,192,39991,1,0,0:0:0:0:
320,192,40255,1,0,0:0:0:0:
192,192,40255,1,0,0:0:0:0:
64,192,40432,128,0,40785:0:0:0:0:
448,192,40432,1,0,0:0:0:0:
448,192,40785,1,0,0:0:0:0:
192,192,40961,1,0,0:0:0:0:
448,192,41138,1,0,0:0:0:0:
64,192,41138,1,0,0:0:0:0:
448,192,41314,1,0,0:0:0:0:
64,192,41314,1,0,0:0:0:0:
320,192,41491,1,0,0:0:0:0:
192,192,41667,1,0,0:0:0:0:
64,192,41667,1,0,0:0:0:0:
448,192,41844,128,0,42197:0:0:0:0:
64,192,41844,1,0,0:0:0:0:
64,192,42197,1,0,0:0:0:0:
320,192,42373,1,0,0:0:0:0:
448,192,42550,128,0,42902:0:0:0:0:
192,192,42550,1,0,0:0:0:0:
192,192,42814,1,0,0:0:0:0:
192,192,43079,1,0,0:0:0:0:
320,192,43079,1,0,0:0:0:0:
448,192,43255,128,0,43608:0:0:0:0:
64,192,43255,1,0,0:0:0:0:
64,192,43608,1,0,0:0:0:0:
192,192,43785,1,0,0:0:0:0:
448,192,43961,1,0,0:0:0:0:
320,192,44050,1,0,0:0:0:0:
192,192,44138,1,0,0:0:0:0:
448,192,44226,1,0,0:0:0:0:
64,192,44314,1,0,0:0:0:0:
192,192,44402,1,0,0:0:0:0:
320,192,44491,1,0,0:0:0:0:
192,192,44579,1,0,0:0:0:0:
448,192,44667,1,0,0:0:0:0:
64,192,44667,128,0,45020:0:0:0:0:
448,192,45020,1,0,0:0:0:0:
192,192,45197,1,0,0:0:0:0:
320,192,45373,1,0,0:0:0:0:
64,192,45373,128,0,45726:0:0:0:0:
320,192,45638,1,0,0:0:0:0:
192,192,45902,1,0,0:0:0:0:
320,192,45902,1,0,0:0:0:0:
448,192,46079,1,0,0:0:0:0:
64,192,46079,128,0,46432:0:0:0:0:
448,192,46255,1,0,0:0:0:0:
448,192,46432,1,0,0:0:0:0:
448,192,46608,1,0,0:0:0:0:
64,192,46785,1,0,0:0:0:0:
192,192,46873,1,0,0:0:0:0:
320,192,46961,128,0,47138:0:0:0:0:
192,192,47138,1,0,0:0:0:0:
192,192,47314,1,0,0:0:0:0:
64,192,47491,1,0,0:0:0:0:
448,192,47491,1,0,0:0:0:0:
320,192,47755,1,0,0:0:0:0:
192,192,47844,1,0,0:0:0:0:
64,192,47844,1,0,0:0:0:0:
320,192,48020,1,0,0:0:0:0:
448,192,48197,1,0,0:0:0:0:
64,192,48197,1,0,0:0:0:0:
192,192,48461,1,0,0:0:0:0:
320,192,48461,1,0,0:0:0:0:
320,192,48726,1,0,0:0:0:0:
192,192,48726,1,0,0:0:0:0:
448,192,48902,1,0,0:0:0:0:
64,192,48902,1,0,0:0:0:0:
320,192,49167,1,0,0:0:0:0:
192,192,49255,1,0,0:0:0:0:
64,192,49255,1,0,0:0:0:0:
320,192,49432,1,0,0:0:0:0:
448,192,49608,1,0,0:0:0:0:
320,192,49697,1,0,0:0:0:0:
192,192,49785,1,0,0:0:0:0:
448,192,49873,1,0,0:0:0:0:
64,192,49961,1,0,0:0:0:0:
192,192,50050,1,0,0:0:0:0:
320,192,50138,1,0,0:0:0:0:
192,192,50226,1,0,0:0:0:0:
64,192,50314,1,0,0:0:0:0:
448,192,50314,1,0,0:0:0:0:
192,192,50579,1,0,0:0:0:0:
320,192,50667,1,0,0:0:0:0:
448,192,50667,1,0,0:0:0:0:
192,192,50844,1,0,0:0:0:0:
448,192,51020,1,0,0:0:0:0:
64,192,51020,1,0,0:0:0:0:
192,192,51285,1,0,0:0:0:0:
320,192,51285,1,0,0:0:0:0:
320,192,51550,1,0,0:0:0:0:
192,192,51550,1,0,0:0:0:0:
448,192,51726,1,0,0:0:0:0:
64,192,51726,1,0,0:0:0:0:
448,192,52079,1,0,0:0:0:0:
64,192,52079,1,0,0:0:0:0:
192,192,52255,128,0,52432:0:0:0:0:
448,192,52432,1,0,0:0:0:0:
320,192,52550,1,0,0:0:0:0:
192,192,52667,1,0,0:0:0:0:
64,192,52785,1,0,0:0:0:0:
192,192,52873,1,0,0:0:0:0:
320,192,52961,1,0,0:0:0:0:
448,192,53050,1,0,0:0:0:0:
64,192,53138,1,0,0:0:0:0:
192,192,53138,1,0,0:0:0:0:
320,192,53402,1,0,0:0:0:0:
448,192,53491,1,0,0:0:0:0:
64,192,53491,1,0,0:0:0:0:
192,192,53667,1,0,0:0:0:0:
320,192,53844,1,0,0:0:0:0:
448,192,53844,1,0,0:0:0:0:
320,192,54108,1,0,0:0:0:0:
192,192,54108,1,0,0:0:0:0:
192,192,54373,1,0,0:0:0:0:
64,192,54373,1,0,0:0:0:0:
320,192,54550,1,0,0:0:0:0:
448,192,54550,1,0,0:0:0:0:
192,192,54814,1,0,0:0:0:0:
64,192,54902,1,0,0:0:0:0:
448,192,54902,1,0,0:0:0:0:
320,192,55079,1,0,0:0:0:0:
192,192,55255,1,0,0:0:0:0:
64,192,55255,1,0,0:0:0:0:
448,192,55432,1,0,0:0:0:0:
320,192,55608,1,0,0:0:0:0:
192,192,55785,1,0,0:0:0:0:
448,192,55961,1,0,0:0:0:0:
64,192,55961,1,0,0:0:0:0:
320,192,56226,1,0,0:0:0:0:
192,192,56314,1,0,0:0:0:0:
64,192,56314,1,0,0:0:0:0:
64,192,56491,1,0,0:0:0:0:
192,192,56491,1,0,0:0:0:0:
320,192,56667,128,0,57020:0:0:0:0:
448,192,56667,128,0,57020:0:0:0:0:
192,192,57020,128,0,57373:0:0:0:0:
64,192,57020,128,0,57373:0:0:0:0:
448,192,57373,1,0,0:0:0:0:
320,192,57550,1,0,0:0:0:0:
192,192,57726,1,0,0:0:0:0:
64,192,57726,1,0,0:0:0:0:
448,192,57902,1,0,0:0:0:0:
320,192,58079,1,0,0:0:0:0:
192,192,58255,1,0,0:0:0:0:
64,192,58255,1,0,0:0:0:0:
320,192,58432,1,0,0:0:0:0:
320,192,58608,1,0,0:0:0:0:
64,192,58785,1,0,0:0:0:0:
448,192,58785,128,0,59138:0:0:0:0:
64,192,59138,1,0,0:0:0:0:
64,192,59314,1,0,0:0:0:0:
192,192,59491,1,0,0:0:0:0:
320,192,59491,128,0,59844:0:0:0:0:
192,192,59844,1,0,0:0:0:0:
192,192,60020,1,0,0:0:0:0:
448,192,60197,1,0,0:0:0:0:
64,192,60197,128,0,60550:0:0:0:0:
448,192,60550,1,0,0:0:0:0:
448,192,60726,1,0,0:0:0:0:
320,192,60902,1,0,0:0:0:0:
192,192,60902,128,0,61255:0:0:0:0:
320,192,61255,1,0,0:0:0:0:
320,192,61432,1,0,0:0:0:0:
64,192,61608,1,0,0:0:0:0:
448,192,61608,128,0,61961:0:0:0:0:
192,192,61961,1,0,0:0:0:0:
192,192,62138,1,0,0:0:0:0:
192,192,62314,1,0,0:0:0:0:
320,192,62314,128,0,62667:0:0:0:0:
64,192,62667,1,0,0:0:0:0:
64,192,62844,1,0,0:0:0:0:
448,192,63020,1,0,0:0:0:0:
64,192,63020,128,0,63373:0:0:0:0:
320,192,63373,1,0,0:0:0:0:
320,192,63550,1,0,0:0:0:0:
320,192,63726,1,0,0:0:0:0:
192,192,63726,128,0,64079:0:0:0:0:
448,192,64079,1,0,0:0:0:0:
448,192,64255,1,0,0:0:0:0:
64,192,64432,1,0,0:0:0:0:
192,192,64432,1,0,0:0:0:0:
448,192,64608,1,0,0:0:0:0:
64,192,64785,1,0,0:0:0:0:
192,192,64785,1,0,0:0:0:0:
448,192,64961,1,0,0:0:0:0:
192,192,65138,1,0,0:0:0:0:
320,192,65138,1,0,0:0:0:0:
448,192,65314,1,0,0:0:0:0:
192,192,65491,1,0,0:0:0:0:
320,192,65491,1,0,0:0:0:0:
448,192,65667,1,0,0:0:0:0:
448,192,65844,1,0,0:0:0:0:
320,192,65844,1,0,0:0:0:0:
64,192,66020,1,0,0:0:0:0:
320,192,66197,1,0,0:0:0:0:
448,192,66197,1,0,0:0:0:0:
64,192,66373,1,0,0:0:0:0:
320,192,66550,1,0,0:0:0:0:
192,192,66550,1,0,0:0:0:0:
64,192,66726,1,0,0:0:0:0:
192,192,66902,1,0,0:0:0:0:
320,192,66902,1,0,0:0:0:0:
64,192,67079,1,0,0:0:0:0:
64,192,67255,1,0,0:0:0:0:
320,192,67344,1,0,0:0:0:0:
64,192,67432,1,0,0:0:0:0:
320,192,67520,1,0,0:0:0:0:
448,192,67608,1,0,0:0:0:0:
192,192,67697,1,0,0:0:0:0:
448,192,67785,1,0,0:0:0:0:
192,192,67873,1,0,0:0:0:0:
64,192,67961,1,0,0:0:0:0:
192,192,68050,1,0,0:0:0:0:
320,192,68138,1,0,0:0:0:0:
448,192,68226,1,0,0:0:0:0:
64,192,68314,1,0,0:0:0:0:
192,192,68402,1,0,0:0:0:0:
320,192,68491,1,0,0:0:0:0:
448,192,68579,1,0,0:0:0:0:
64,192,68667,128,0,69020:0:0:0:0:
192,192,68667,128,0,69020:0:0:0:0:
320,192,69373,1,0,0:0:0:0:
448,192,69373,1,0,0:0:0:0:
64,192,69726,1,0,0:0:0:0:
64,192,70079,128,0,70432:0:0:0:0:
192,192,70079,128,0,70432:0:0:0:0:
448,192,70432,1,0,0:0:0:0:
192,192,70608,1,0,0:0:0:0:
320,192,70785,1,0,0:0:0:0:
448,192,70785,1,0,0:0:0:0:
64,192,70961,1,0,0:0:0:0:
320,192,71138,1,0,0:0:0:0:
64,192,71314,1,0,0:0:0:0:
448,192,71491,1,0,0:0:0:0:
320,192,71667,1,0,0:0:0:0:
64,192,71844,1,0,0:0:0:0:
320,192,72020,1,0,0:0:0:0:
64,192,72197,1,0,0:0:0:0:
192,192,72197,1,0,0:0:0:0:
448,192,72373,1,0,0:0:0:0:
192,192,72550,1,0,0:0:0:0:
448,192,72726,1,0,0:0:0:0:
64,192,72902,1,0,0:0:0:0:
192,192,72902,1,0,0:0:0:0:
320,192,73079,1,0,0:0:0:0:
448,192,73079,1,0,0:0:0:0:
64,192,73255,1,0,0:0:0:0:
320,192,73432,1,0,0:0:0:0:
192,192,73608,1,0,0:0:0:0:
64,192,73608,1,0,0:0:0:0:
448,192,73785,1,0,0:0:0:0:
192,192,73961,1,0,0:0:0:0:
448,192,74138,1,0,0:0:0:0:
64,192,74314,1,0,0:0:0:0:
192,192,74491,1,0,0:0:0:0:
448,192,74667,1,0,0:0:0:0:
192,192,74844,1,0,0:0:0:0:
320,192,75020,1,0,0:0:0:0:
448,192,75020,1,0,0:0:0:0:
64,192,75197,1,0,0:0:0:0:
320,192,75373,1,0,0:0:0:0:
64,192,75550,1,0,0:0:0:0:
320,192,75726,128,0,76079:0:0:0:0:
448,192,75726,128,0,76079:0:0:0:0:
64,192,76079,128,0,76432:0:0:0:0:
448,192,76432,1,0,0:0:0:0:
320,192,76608,1,0,0:0:0:0:
320,192,76785,128,0,76961:0:0:0:0:
64,192,77138,1,0,0:0:0:0:
192,192,77138,128,0,77491:0:0:0:0:
448,192,77491,128,0,77844:0:0:0:0:
64,192,77844,1,0,0:0:0:0:
192,192,78020,1,0,0:0:0:0:
192,192,78197,128,0,78373:0:0:0:0:
320,192,78550,1,0,0:0:0:0:
448,192,78550,1,0,0:0:0:0:
192,192,78726,1,0,0:0:0:0:
64,192,78726,1,0,0:0:0:0:
448,192,78902,1,0,0:0:0:0:
320,192,79079,1,0,0:0:0:0:
192,192,79255,1,0,0:0:0:0:
64,192,79432,1,0,0:0:0:0:
192,192,79608,1,0,0:0:0:0:
320,192,79785,1,0,0:0:0:0:
448,192,79961,128,0,80491:0:0:0:0:
320,192,80491,128,0,81020:0:0:0:0:
64,192,81020,128,0,81373:0:0:0:0:
320,192,81373,128,0,81726:0:0:0:0:
448,192,81373,128,0,81726:0:0:0:0:
64,192,81726,1,0,0:0:0:0:
192,192,81902,1,0,0:0:0:0:
320,192,82079,1,0,0:0:0:0:
448,192,82079,1,0,0:0:0:0:
192,192,82255,1,0,0:0:0:0:
64,192,82432,1,0,0:0:0:0:
192,192,82608,1,0,0:0:0:0:
448,192,82785,1,0,0:0:0:0:
320,192,82961,1,0,0:0:0:0:
192,192,83138,1,0,0:0:0:0:
64,192,83314,1,0,0:0:0:0:
320,192,83491,1,0,0:0:0:0:
448,192,83491,1,0,0:0:0:0:
192,192,83667,1,0,0:0:0:0:
64,192,83844,1,0,0:0:0:0:
192,192,84020,1,0,0:0:0:0:
320,192,84197,1,0,0:0:0:0:
448,192,84197,1,0,0:0:0:0:
192,192,84373,1,0,0:0:0:0:
64,192,84373,1,0,0:0:0:0:
448,192,84550,1,0,0:0:0:0:
64,192,84785,1,0,0:0:0:0:
448,192,85020,1,0,0:0:0:0:
448,192,85138,1,0,0:0:0:0:
448,192,85255,1,0,0:0:0:0:
448,192,85491,1,0,0:0:0:0:
64,192,85726,1,0,0:0:0:0:
64,192,85844,1,0,0:0:0:0:
64,192,85961,1,0,0:0:0:0:
64,192,86197,1,0,0:0:0:0:
320,192,86432,1,0,0:0:0:0:
320,192,86550,1,0,0:0:0:0:
320,192,86667,1,0,0:0:0:0:
192,192,87020,128,0,87373:0:0:0:0:
64,192,87020,128,0,87373:0:0:0:0:
448,192,87373,128,0,87638:0:0:0:0:
320,192,87638,128,0,87902:0:0:0:0:
192,192,87902,128,0,88167:0:0:0:0:
64,192,88167,128,0,88432:0:0:0:0:
448,192,88432,128,0,88697:0:0:0:0:
320,192,88697,128,0,88961:0:0:0:0:
192,192,88961,128,0,89226:0:0:0:0:
64,192,89226,128,0,89491:0:0:0:0:
448,192,89491,128,0,89755:0:0:0:0:
320,192,89755,1,0,0:0:0:0:
192,192,89844,1,0,0:0:0:0:
64,192,89844,1,0,0:0:0:0:
320,192,90020,1,0,0:0:0:0:
448,192,90020,1,0,0:0:0:0:
64,192,90197,128,0,90461:0:0:0:0:
192,192,90461,128,0,90726:0:0:0:0:
320,192,90726,128,0,90991:0:0:0:0:
448,192,90991,128,0,91255:0:0:0:0:
64,192,91255,1,0,0:0:0:0:
192,192,91432,1,0,0:0:0:0:
320,192,91608,1,0,0:0:0:0:
448,192,91608,1,0,0:0:0:0:
64,192,91785,1,0,0:0:0:0:
192,192,91961,1,0,0:0:0:0:
320,192,92138,1,0,0:0:0:0:
448,192,92138,1,0,0:0:0:0:
192,192,92314,1,0,0:0:0:0:
192,192,92491,1,0,0:0:0:0:
448,192,92667,1,0,0:0:0:0:
64,192,92667,1,0,0:0:0:0:
320,192,93020,1,0,0:0:0:0:
64,192,93285,1,0,0:0:0:0:
320,192,93373,1,0,0:0:0:0:
64,192,93461,1,0,0:0:0:0:
448,192,93638,1,0,0:0:0:0:
192,192,93902,1,0,0:0:0:0:
448,192,94255,1,0,0:0:0:0:
448,192,94520,1,0,0:0:0:0:
64,192,94697,1,0,0:0:0:0:
320,192,94785,1,0,0:0:0:0:
64,192,94873,1,0,0:0:0:0:
448,192,95050,1,0,0:0:0:0:
192,192,95314,1,0,0:0:0:0:
320,192,95491,1,0,0:0:0:0:
192,192,95755,1,0,0:0:0:0:
64,192,96020,1,0,0:0:0:0:
320,192,96197,1,0,0:0:0:0:
192,192,96461,1,0,0:0:0:0:
320,192,96726,1,0,0:0:0:0:
448,192,96902,1,0,0:0:0:0:
320,192,97167,1,0,0:0:0:0:
192,192,97432,1,0,0:0:0:0:
448,192,97608,1,0,0:0:0:0:
320,192,97873,1,0,0:0:0:0:
192,192,98138,1,0,0:0:0:0:
64,192,98314,1,0,0:0:0:0:
192,192,98667,1,0,0:0:0:0:
448,192,98932,1,0,0:0:0:0:
192,192,99020,1,0,0:0:0:0:
448,192,99108,1,0,0:0:0:0:
64,192,99285,1,0,0:0:0:0:
320,192,99550,1,0,0:0:0:0:
64,192,99902,1,0,0:0:0:0:
64,192,100167,1,0,0:0:0:0:
448,192,100344,1,0,0:0:0:0:
192,192,100432,1,0,0:0:0:0:
448,192,100520,1,0,0:0:0:0:
64,192,100697,1,0,0:0:0:0:
320,192,100961,1,0,0:0:0:0:
192,192,101138,1,0,0:0:0:0:
320,192,101402,1,0,0:0:0:0:
448,192,101667,1,0,0:0:0:0:
192,192,101844,1,0,0:0:0:0:
320,192,102108,1,0,0:0:0:0:
192,192,102373,1,0,0:0:0:0:
64,192,102550,1,0,0:0:0:0:
192,192,102814,1,0,0:0:0:0:
320,192,103079,1,0,0:0:0:0:
64,192,103255,1,0,0:0:0:0:
192,192,103520,1,0,0:0:0:0:
320,192,103785,1,0,0:0:0:0:
448,192,103961,1,0,0:0:0:0:
64,192,103961,1,0,0:0:0:0:
448,192,104314,1,0,0:0:0:0:
64,192,104314,1,0,0:0:0:0:
448,192,104667,1,0,0:0:0:0:
64,192,104667,1,0,0:0:0:0:
448,192,105020,1,0,0:0:0:0:
64,192,105020,1,0,0:0:0:0:
64,192,105373,1,0,0:0:0:0:
192,192,105373,1,0,0:0:0:0:
64,192,105715,1,0,0:0:0:0:
192,192,105715,1,0,0:0:0:0:
64,192,106058,1,0,0:0:0:0:
192,192,106058,1,0,0:0:0:0:
64,192,106401,1,0,0:0:0:0:
192,192,106401,1,0,0:0:0:0:
64,192,106744,1,0,0:0:0:0:
448,192,106744,1,0,0:0:0:0:
64,192,107081,1,0,0:0:0:0:
448,192,107081,1,0,0:0:0:0:
448,192,107418,1,0,0:0:0:0:
64,192,107418,1,0,0:0:0:0:
448,192,107755,1,0,0:0:0:0:
64,192,107755,1,0,0:0:0:0:
320,192,108092,1,0,0:0:0:0:
448,192,108092,1,0,0:0:0:0:
320,192,108421,1,0,0:0:0:0:
448,192,108421,1,0,0:0:0:0:
448,192,108751,1,0,0:0:0:0:
320,192,108751,1,0,0:0:0:0:
448,192,109081,1,0,0:0:0:0:
320,192,109081,1,0,0:0:0:0:
64,192,109410,1,0,0:0:0:0:
320,192,109572,1,0,0:0:0:0:
64,192,109734,1,0,0:0:0:0:
320,192,109896,1,0,0:0:0:0:
192,192,110058,1,0,0:0:0:0:
448,192,110217,1,0,0:0:0:0:
192,192,110377,1,0,0:0:0:0:
448,192,110536,1,0,0:0:0:0:
320,192,110696,1,0,0:0:0:0:
64,192,110852,1,0,0:0:0:0:
320,192,111008,1,0,0:0:0:0:
64,192,111164,1,0,0:0:0:0:
448,192,111321,1,0,0:0:0:0:
192,192,111474,1,0,0:0:0:0:
448,192,111628,1,0,0:0:0:0:
192,192,111782,1,0,0:0:0:0:
64,192,111936,1,0,0:0:0:0:
448,192,112011,1,0,0:0:0:0:
64,192,112087,1,0,0:0:0:0:
448,192,112239,1,0,0:0:0:0:
64,192,112314,1,0,0:0:0:0:
448,192,112390,1,0,0:0:0:0:
192,192,112542,1,0,0:0:0:0:
320,192,112617,1,0,0:0:0:0:
192,192,112693,1,0,0:0:0:0:
320,192,112845,1,0,0:0:0:0:
192,192,112920,1,0,0:0:0:0:
320,192,112996,1,0,0:0:0:0:
64,192,113148,1,0,0:0:0:0:
64,192,113298,1,0,0:0:0:0:
448,192,113448,1,0,0:0:0:0:
320,192,113748,1,0,0:0:0:0:
192,192,114048,1,0,0:0:0:0:
448,192,114348,1,0,0:0:0:0:
64,192,114348,1,0,0:0:0:0:
320,192,114573,1,0,0:0:0:0:
64,192,114648,1,0,0:0:0:0:
192,192,114798,1,0,0:0:0:0:
64,192,114948,1,0,0:0:0:0:
448,192,114948,1,0,0:0:0:0:
320,192,115173,1,0,0:0:0:0:
64,192,115248,1,0,0:0:0:0:
192,192,115398,1,0,0:0:0:0:
448,192,115548,1,0,0:0:0:0:
64,192,115548,1,0,0:0:0:0:
320,192,115773,1,0,0:0:0:0:
64,192,115848,1,0,0:0:0:0:
192,192,115998,1,0,0:0:0:0:
64,192,116148,1,0,0:0:0:0:
448,192,116148,1,0,0:0:0:0:
320,192,116373,1,0,0:0:0:0:
64,192,116448,1,0,0:0:0:0:
192,192,116598,1,0,0:0:0:0:
320,192,116748,1,0,0:0:0:0:
448,192,116748,1,0,0:0:0:0:
192,192,116973,1,0,0:0:0:0:
448,192,117048,1,0,0:0:0:0:
64,192,117198,1,0,0:0:0:0:
320,192,117348,1,0,0:0:0:0:
448,192,117348,1,0,0:0:0:0:
192,192,117573,1,0,0:0:0:0:
448,192,117648,1,0,0:0:0:0:
64,192,117798,1,0,0:0:0:0:
448,192,117948,1,0,0:0:0:0:
320,192,117948,1,0,0:0:0:0:
192,192,118173,1,0,0:0:0:0:
448,192,118248,1,0,0:0:0:0:
64,192,118398,1,0,0:0:0:0:
320,192,118548,1,0,0:0:0:0:
448,192,118548,1,0,0:0:0:0:
192,192,118773,1,0,0:0:0:0:
448,192,118848,1,0,0:0:0:0:
448,192,118998,1,0,0:0:0:0:
320,192,119148,1,0,0:0:0:0:
64,192,119148,1,0,0:0:0:0:
192,192,119373,1,0,0:0:0:0:
64,192,119448,1,0,0:0:0:0:
448,192,119598,1,0,0:0:0:0:
64,192,119748,1,0,0:0:0:0:
320,192,119748,1,0,0:0:0:0:
192,192,119973,1,0,0:0:0:0:
64,192,120048,1,0,0:0:0:0:
448,192,120198,1,0,0:0:0:0:
320,192,120348,1,0,0:0:0:0:
64,192,120348,1,0,0:0:0:0:
192,192,120573,1,0,0:0:0:0:
64,192,120648,1,0,0:0:0:0:
448,192,120798,1,0,0:0:0:0:
320,192,120948,1,0,0:0:0:0:
64,192,120948,1,0,0:0:0:0:
192,192,121173,1,0,0:0:0:0:
64,192,121248,1,0,0:0:0:0:
320,192,121398,1,0,0:0:0:0:
448,192,121548,1,0,0:0:0:0:
64,192,121548,1,0,0:0:0:0:
320,192,121773,1,0,0:0:0:0:
448,192,121848,1,0,0:0:0:0:
192,192,121998,1,0,0:0:0:0:
64,192,122148,1,0,0:0:0:0:
448,192,122148,1,0,0:0:0:0:
320,192,122373,1,0,0:0:0:0:
448,192,122448,1,0,0:0:0:0:
192,192,122598,1,0,0:0:0:0:
320,192,122748,1,0,0:0:0:0:
448,192,122748,1,0,0:0:0:0:
192,192,122973,1,0,0:0:0:0:
448,192,123048,1,0,0:0:0:0:
64,192,123198,1,0,0:0:0:0:
320,192,123348,1,0,0:0:0:0:
448,192,123348,1,0,0:0:0:0:
448,192,123498,1,0,0:0:0:0:
320,192,123498,1,0,0:0:0:0:
192,192,123798,1,0,0:0:0:0:
64,192,123948,1,0,0:0:0:0:
448,192,123948,1,0,0:0:0:0:
192,192,124173,1,0,0:0:0:0:
64,192,124248,1,0,0:0:0:0:
320,192,124398,1,0,0:0:0:0:
64,192,124548,1,0,0:0:0:0:
448,192,124548,1,0,0:0:0:0:
192,192,124773,1,0,0:0:0:0:
64,192,124848,1,0,0:0:0:0:
320,192,124998,1,0,0:0:0:0:
64,192,125148,1,0,0:0:0:0:
448,192,125148,1,0,0:0:0:0:
192,192,125373,1,0,0:0:0:0:
64,192,125448,1,0,0:0:0:0:
320,192,125598,1,0,0:0:0:0:
448,192,125748,1,0,0:0:0:0:
64,192,125748,1,0,0:0:0:0:
192,192,125973,1,0,0:0:0:0:
64,192,126048,1,0,0:0:0:0:
320,192,126198,1,0,0:0:0:0:
192,192,126348,1,0,0:0:0:0:
64,192,126348,1,0,0:0:0:0:
320,192,126573,1,0,0:0:0:0:
192,192,126648,1,0,0:0:0:0:
448,192,126798,1,0,0:0:0:0:
192,192,126948,1,0,0:0:0:0:
64,192,126948,1,0,0:0:0:0:
320,192,127173,1,0,0:0:0:0:
192,192,127248,1,0,0:0:0:0:
448,192,127398,1,0,0:0:0:0:
192,192,127548,1,0,0:0:0:0:
64,192,127548,1,0,0:0:0:0:
320,192,127773,1,0,0:0:0:0:
192,192,127848,1,0,0:0:0:0:
448,192,127998,1,0,0:0:0:0:
192,192,128148,1,0,0:0:0:0:
64,192,128148,1,0,0:0:0:0:
320,192,128373,1,0,0:0:0:0:
64,192,128448,1,0,0:0:0:0:
192,192,128598,1,0,0:0:0:0:
448,192,128598,1,0,0:0:0:0:
64,192,128748,1,0,0:0:0:0:
64,192,128898,1,0,0:0:0:0:
448,192,129048,1,0,0:0:0:0:
448,192,129198,1,0,0:0:0:0:
64,192,129348,1,0,0:0:0:0:
64,192,129498,1,0,0:0:0:0:
448,192,129648,1,0,0:0:0:0:
448,192,129798,1,0,0:0:0:0:
320,192,129798,1,0,0:0:0:0:
64,192,129948,1,0,0:0:0:0:
192,192,129948,1,0,0:0:0:0:
192,192,130098,1,0,0:0:0:0:
320,192,130248,1,0,0:0:0:0:
320,192,130398,1,0,0:0:0:0:
192,192,130548,1,0,0:0:0:0:
192,192,130698,1,0,0:0:0:0:
320,192,130848,1,0,0:0:0:0:
320,192,130998,1,0,0:0:0:0:
448,192,130998,1,0,0:0:0:0:
192,192,131148,1,0,0:0:0:0:
64,192,131148,1,0,0:0:0:0:
320,192,131298,1,0,0:0:0:0:
448,192,131448,1,0,0:0:0:0:
64,192,131598,1,0,0:0:0:0:
192,192,131748,1,0,0:0:0:0:
448,192,131898,1,0,0:0:0:0:
320,192,132048,1,0,0:0:0:0:
192,192,132198,1,0,0:0:0:0:
64,192,132348,1,0,0:0:0:0:
192,192,132423,1,0,0:0:0:0:
320,192,132498,1,0,0:0:0:0:
64,192,132573,1,0,0:0:0:0:
448,192,132648,1,0,0:0:0:0:
320,192,132723,1,0,0:0:0:0:
192,192,132798,1,0,0:0:0:0:
448,192,132873,1,0,0:0:0:0:
64,192,132948,1,0,0:0:0:0:
192,192,133023,1,0,0:0:0:0:
320,192,133098,1,0,0:0:0:0:
448,192,133173,1,0,0:0:0:0:
64,192,133248,1,0,0:0:0:0:
192,192,133323,1,0,0:0:0:0:
320,192,133398,1,0,0:0:0:0:
448,192,133473,1,0,0:0:0:0:
64,192,133548,128,0,133848:0:0:0:0:
192,192,133548,128,0,133848:0:0:0:0:
448,192,133848,1,0,0:0:0:0:
320,192,134148,1,0,0:0:0:0:
64,192,134148,1,0,0:0:0:0:
448,192,134448,128,0,134598:0:0:0:0:
64,192,134748,1,0,0:0:0:0:
192,192,134823,1,0,0:0:0:0:
320,192,134898,1,0,0:0:0:0:
64,192,135048,1,0,0:0:0:0:
448,192,135198,1,0,0:0:0:0:
320,192,135273,1,0,0:0:0:0:
192,192,135348,1,0,0:0:0:0:
448,192,135498,1,0,0:0:0:0:
64,192,135648,1,0,0:0:0:0:
448,192,135948,1,0,0:0:0:0:
320,192,136023,1,0,0:0:0:0:
192,192,136098,1,0,0:0:0:0:
448,192,136248,1,0,0:0:0:0:
64,192,136398,1,0,0:0:0:0:
192,192,136473,1,0,0:0:0:0:
320,192,136548,1,0,0:0:0:0:
64,192,136698,1,0,0:0:0:0:
448,192,136848,1,0,0:0:0:0:
64,192,137148,128,0,137448:0:0:0:0:
192,192,137448,1,0,0:0:0:0:
320,192,137598,1,0,0:0:0:0:
448,192,137748,1,0,0:0:0:0:
320,192,137898,1,0,0:0:0:0:
192,192,138048,1,0,0:0:0:0:
64,192,138198,1,0,0:0:0:0:
320,192,138348,128,0,138648:0:0:0:0:
448,192,138348,128,0,138648:0:0:0:0:
64,192,138648,1,0,0:0:0:0:
192,192,138948,1,0,0:0:0:0:
448,192,138948,1,0,0:0:0:0:
64,192,139248,128,0,139398:0:0:0:0:
448,192,139548,1,0,0:0:0:0:
320,192,139623,1,0,0:0:0:0:
192,192,139698,1,0,0:0:0:0:
448,192,139848,1,0,0:0:0:0:
64,192,139998,1,0,0:0:0:0:
192,192,140073,1,0,0:0:0:0:
320,192,140148,1,0,0:0:0:0:
64,192,140298,1,0,0:0:0:0:
448,192,140448,1,0,0:0:0:0:
64,192,140748,1,0,0:0:0:0:
192,192,140823,1,0,0:0:0:0:
320,192,140898,1,0,0:0:0:0:
64,192,141048,1,0,0:0:0:0:
448,192,141198,1,0,0:0:0:0:
320,192,141273,1,0,0:0:0:0:
192,192,141348,1,0,0:0:0:0:
448,192,141498,1,0,0:0:0:0:
64,192,141648,1,0,0:0:0:0:
448,192,141948,128,0,142248:0:0:0:0:
320,192,142248,1,0,0:0:0:0:
192,192,142398,1,0,0:0:0:0:
320,192,142548,1,0,0:0:0:0:
320,192,142698,1,0,0:0:0:0:
192,192,142848,1,0,0:0:0:0:
320,192,142998,1,0,0:0:0:0:
448,192,143148,128,0,143448:0:0:0:0:
64,192,143148,128,0,143448:0:0:0:0:
192,192,143448,1,0,0:0:0:0:
320,192,143748,1,0,0:0:0:0:
448,192,143748,1,0,0:0:0:0:
192,192,144048,128,0,144198:0:0:0:0:
448,192,144348,1,0,0:0:0:0:
192,192,144423,1,0,0:0:0:0:
320,192,144498,1,0,0:0:0:0:
448,192,144648,1,0,0:0:0:0:
64,192,144798,1,0,0:0:0:0:
320,192,144873,1,0,0:0:0:0:
192,192,144948,1,0,0:0:0:0:
64,192,145098,1,0,0:0:0:0:
448,192,145248,1,0,0:0:0:0:
64,192,145548,1,0,0:0:0:0:
320,192,145623,1,0,0:0:0:0:
192,192,145698,1,0,0:0:0:0:
64,192,145848,1,0,0:0:0:0:
448,192,145998,1,0,0:0:0:0:
192,192,146073,1,0,0:0:0:0:
320,192,146148,1,0,0:0:0:0:
448,192,146298,1,0,0:0:0:0:
64,192,146448,1,0,0:0:0:0:
192,192,146748,1,0,0:0:0:0:
320,192,146823,1,0,0:0:0:0:
448,192,146898,1,0,0:0:0:0:
192,192,147048,1,0,0:0:0:0:
320,192,147198,1,0,0:0:0:0:
192,192,147273,1,0,0:0:0:0:
64,192,147348,1,0,0:0:0:0:
320,192,147498,1,0,0:0:0:0:
64,192,147648,1,0,0:0:0:0:
448,192,147798,1,0,0:0:0:0:
192,192,147948,1,0,0:0:0:0:
320,192,147948,1,0,0:0:0:0:
448,192,148248,1,0,0:0:0:0:
192,192,148548,1,0,0:0:0:0:
64,192,148548,1,0,0:0:0:0:
448,192,148848,128,0,148998:0:0:0:0:
64,192,149148,1,0,0:0:0:0:
192,192,149223,1,0,0:0:0:0:
320,192,149298,1,0,0:0:0:0:
64,192,149448,1,0,0:0:0:0:
320,192,149598,1,0,0:0:0:0:
192,192,149673,1,0,0:0:0:0:
64,192,149748,1,0,0:0:0:0:
320,192,149898,1,0,0:0:0:0:
64,192,150048,128,0,150198:0:0:0:0:
448,192,150348,1,0,0:0:0:0:
320,192,150423,1,0,0:0:0:0:
192,192,150498,1,0,0:0:0:0:
448,192,150648,1,0,0:0:0:0:
192,192,150798,1,0,0:0:0:0:
320,192,150873,1,0,0:0:0:0:
448,192,150948,1,0,0:0:0:0:
192,192,151098,1,0,0:0:0:0:
448,192,151248,128,0,151398:0:0:0:0:
64,192,151548,1,0,0:0:0:0:
192,192,151623,1,0,0:0:0:0:
320,192,151698,1,0,0:0:0:0:
448,192,151773,1,0,0:0:0:0:
64,192,151848,1,0,0:0:0:0:
192,192,151923,1,0,0:0:0:0:
320,192,151998,1,0,0:0:0:0:
448,192,152073,1,0,0:0:0:0:
192,192,152148,1,0,0:0:0:0:
320,192,152298,1,0,0:0:0:0:
192,192,152448,1,0,0:0:0:0:
320,192,152598,1,0,0:0:0:0:
448,192,152748,1,0,0:0:0:0:
64,192,152748,1,0,0:0:0:0:
