osu file format v14

[General]
AudioFilename: audio.mp3
AudioLeadIn: 0
PreviewTime: 91079
Countdown: 0
SampleSet: Soft
StackLeniency: 0.7
Mode: 3
LetterboxInBreaks: 0
SpecialStyle: 0
WidescreenStoryboard: 0

[Editor]
Bookmarks: 222,9364,18507,27650,36793,55079,73364,91650,109936,128221,146507,164793,173936,192221,210507,228793,246507
DistanceSpacing: 2.6
BeatDivisor: 6
GridSize: 4
TimelineZoom: 2.799999

[Metadata]
Title:rift.exe (Camellia's "De-compiling" Remix)
TitleUnicode:rift.exe (かめりあ's "De-compiling" Remix)
Artist:Akira Complex
ArtistUnicode:Akira Complex
Creator:Feylos
Version:fissure.exe
Source:
Tags:cametek reality distortion electronic dance music edm dubstep instrumental featured artist fa S2TB-0019 antireal technical dump stream
BeatmapID:3182046
BeatmapSetID:1557713

[Difficulty]
HPDrainRate:9
CircleSize:4
OverallDifficulty:9
ApproachRate:5
SliderMultiplier:1.4
SliderTickRate:1

[Events]
//Background and Video events
0,0,"4501658-triangle-clouds-glitch-art-mountain-glitch-sky-paisaje-erroneo-min.png",0,0
//Break Periods
//Storyboard Layer 0 (Background)
//Storyboard Layer 1 (Fail)
//Storyboard Layer 2 (Pass)
//Storyboard Layer 3 (Foreground)
//Storyboard Layer 4 (Overlay)
//Storyboard Sound Samples

[TimingPoints]
222,285.714285714286,4,2,1,45,1,0

[HitObjects]
64,192,222,5,0,0:0:0:0:
192,192,222,1,0,0:0:0:0:
448,192,222,1,0,0:0:0:0:
320,192,269,1,0,0:0:0:0:
192,192,317,1,0,0:0:0:0:
64,192,364,1,0,0:0:0:0:
448,192,412,1,0,0:0:0:0:
320,192,460,1,0,0:0:0:0:
192,192,507,1,0,0:0:0:0:
448,192,555,1,0,0:0:0:0:
64,192,602,1,0,0:0:0:0:
320,192,650,1,0,0:0:0:0:
192,192,698,1,0,0:0:0:0:
64,192,745,1,0,0:0:0:0:
448,192,793,1,0,0:0:0:0:
320,192,864,1,0,0:0:0:0:
448,192,936,1,0,0:0:0:0:
192,192,1007,1,0,0:0:0:0:
320,192,1079,1,0,0:0:0:0:
64,192,1174,1,0,0:0:0:0:
192,192,1269,1,0,0:0:0:0:
64,192,1364,1,0,0:0:0:0:
64,192,1650,1,0,0:0:0:0:
448,192,1793,1,0,0:0:0:0:
320,192,1841,1,0,0:0:0:0:
192,192,1888,1,0,0:0:0:0:
64,192,1936,1,0,0:0:0:0:
448,192,1936,1,0,0:0:0:0:
448,192,2222,1,0,0:0:0:0:
448,192,2507,1,0,0:0:0:0:
192,192,2507,1,0,0:0:0:0:
320,192,2602,1,0,0:0:0:0:
64,192,2698,1,0,0:0:0:0:
192,192,2793,1,0,0:0:0:0:
320,192,2888,1,0,0:0:0:0:
64,192,2936,1,0,0:0:0:0:
192,192,2983,1,0,0:0:0:0:
448,192,3031,1,0,0:0:0:0:
64,192,3079,1,0,0:0:0:0:
320,192,3079,1,0,0:0:0:0:
192,192,3364,1,0,0:0:0:0:
192,192,3650,1,0,0:0:0:0:
192,192,3936,1,0,0:0:0:0:
320,192,4079,1,0,0:0:0:0:
64,192,4126,1,0,0:0:0:0:
192,192,4174,1,0,0:0:0:0:
320,192,4222,1,0,0:0:0:0:
448,192,4222,128,0,4793:0:0:0:0:
64,192,4507,1,0,0:0:0:0:
64,192,4793,1,0,0:0:0:0:
192,192,4793,1,0,0:0:0:0:
320,192,4793,1,0,0:0:0:0:
64,192,4888,1,0,0:0:0:0:
448,192,4936,1,0,0:0:0:0:
320,192,4983,1,0,0:0:0:0:
192,192,5031,1,0,0:0:0:0:
448,192,5079,1,0,0:0:0:0:
64,192,5136,1,0,0:0:0:0:
320,192,5193,1,0,0:0:0:0:
192,192,5269,1,0,0:0:0:0:
448,192,5317,1,0,0:0:0:0:
320,192,5364,1,0,0:0:0:0:
64,192,5405,1,0,0:0:0:0:
192,192,5446,1,0,0:0:0:0:
320,192,5487,1,0,0:0:0:0:
192,192,5650,1,0,0:0:0:0:
448,192,5691,1,0,0:0:0:0:
320,192,5732,1,0,0:0:0:0:
192,192,5773,1,0,0:0:0:0:
448,192,5936,1,0,0:0:0:0:
448,192,6222,1,0,0:0:0:0:
64,192,6364,1,0,0:0:0:0:
192,192,6412,1,0,0:0:0:0:
320,192,6460,1,0,0:0:0:0:
448,192,6507,1,0,0:0:0:0:
64,192,6507,1,0,0:0:0:0:
64,192,6793,1,0,0:0:0:0:
64,192,7079,1,0,0:0:0:0:
320,192,7079,1,0,0:0:0:0:
192,192,7174,1,0,0:0:0:0:
448,192,7269,1,0,0:0:0:0:
320,192,7364,1,0,0:0:0:0:
192,192,7460,1,0,0:0:0:0:
448,192,7507,1,0,0:0:0:0:
320,192,7555,1,0,0:0:0:0:
64,192,7602,1,0,0:0:0:0:
192,192,7650,1,0,0:0:0:0:
448,192,7650,1,0,0:0:0:0:
320,192,7936,1,0,0:0:0:0:
320,192,8222,1,0,0:0:0:0:
320,192,8507,1,0,0:0:0:0:
64,192,8650,1,0,0:0:0:0:
448,192,8698,1,0,0:0:0:0:
320,192,8745,1,0,0:0:0:0:
64,192,8793,128,0,9364:0:0:0:0:
192,192,8793,1,0,0:0:0:0:
448,192,9079,1,0,0:0:0:0:
320,192,9364,5,0,0:0:0:0:
448,192,9364,1,0,0:0:0:0:
192,192,9364,1,0,0:0:0:0:
64,192,9460,1,0,0:0:0:0:
192,192,9507,1,0,0:0:0:0:
448,192,9555,1,0,0:0:0:0:
320,192,9602,1,0,0:0:0:0:
192,192,9650,1,0,0:0:0:0:
448,192,9698,1,0,0:0:0:0:
64,192,9745,1,0,0:0:0:0:
320,192,9793,1,0,0:0:0:0:
192,192,9841,1,0,0:0:0:0:
448,192,9888,1,0,0:0:0:0:
320,192,9936,1,0,0:0:0:0:
64,192,9936,1,0,0:0:0:0:
192,192,10007,1,0,0:0:0:0:
448,192,10079,1,0,0:0:0:0:
64,192,10150,1,0,0:0:0:0:
320,192,10222,1,0,0:0:0:0:
192,192,10317,1,0,0:0:0:0:
448,192,10412,1,0,0:0:0:0:
320,192,10412,1,0,0:0:0:0:
64,192,10507,1,0,0:0:0:0:
448,192,10698,1,0,0:0:0:0:
192,192,10698,1,0,0:0:0:0:
448,192,10793,1,0,0:0:0:0:
320,192,10793,1,0,0:0:0:0:
64,192,10936,1,0,0:0:0:0:
320,192,10983,1,0,0:0:0:0:
192,192,11031,1,0,0:0:0:0:
64,192,11079,1,0,0:0:0:0:
448,192,11079,1,0,0:0:0:0:
64,192,11364,1,0,0:0:0:0:
320,192,11650,1,0,0:0:0:0:
192,192,11650,1,0,0:0:0:0:
64,192,11745,1,0,0:0:0:0:
448,192,11841,1,0,0:0:0:0:
192,192,11936,1,0,0:0:0:0:
320,192,12031,1,0,0:0:0:0:
64,192,12079,1,0,0:0:0:0:
192,192,12126,1,0,0:0:0:0:
448,192,12174,1,0,0:0:0:0:
320,192,12222,1,0,0:0:0:0:
64,192,12222,1,0,0:0:0:0:
320,192,12507,1,0,0:0:0:0:
64,192,12698,1,0,0:0:0:0:
192,192,12698,1,0,0:0:0:0:
448,192,12793,1,0,0:0:0:0:
64,192,12983,1,0,0:0:0:0:
320,192,12983,1,0,0:0:0:0:
192,192,13079,1,0,0:0:0:0:
64,192,13079,1,0,0:0:0:0:
448,192,13174,1,0,0:0:0:0:
64,192,13222,1,0,0:0:0:0:
192,192,13269,1,0,0:0:0:0:
320,192,13317,1,0,0:0:0:0:
64,192,13364,1,0,0:0:0:0:
448,192,13364,1,0,0:0:0:0:
64,192,13555,1,0,0:0:0:0:
448,192,13555,1,0,0:0:0:0:
320,192,13650,1,0,0:0:0:0:
192,192,13745,1,0,0:0:0:0:
448,192,13841,1,0,0:0:0:0:
64,192,13936,1,0,0:0:0:0:
192,192,13936,1,0,0:0:0:0:
320,192,13936,1,0,0:0:0:0:
192,192,14031,1,0,0:0:0:0:
448,192,14079,1,0,0:0:0:0:
320,192,14126,1,0,0:0:0:0:
64,192,14174,1,0,0:0:0:0:
448,192,14222,1,0,0:0:0:0:
192,192,14279,1,0,0:0:0:0:
320,192,14336,1,0,0:0:0:0:
64,192,14412,1,0,0:0:0:0:
320,192,14460,1,0,0:0:0:0:
192,192,14507,1,0,0:0:0:0:
448,192,14507,1,0,0:0:0:0:
64,192,14548,1,0,0:0:0:0:
320,192,14589,1,0,0:0:0:0:
192,192,14630,1,0,0:0:0:0:
320,192,14793,1,0,0:0:0:0:
448,192,14834,1,0,0:0:0:0:
192,192,14875,1,0,0:0:0:0:
320,192,14915,1,0,0:0:0:0:
64,192,14983,1,0,0:0:0:0:
192,192,14983,1,0,0:0:0:0:
64,192,15269,1,0,0:0:0:0:
448,192,15269,1,0,0:0:0:0:
192,192,15364,1,0,0:0:0:0:
64,192,15364,1,0,0:0:0:0:
448,192,15507,1,0,0:0:0:0:
192,192,15555,1,0,0:0:0:0:
320,192,15602,1,0,0:0:0:0:
448,192,15650,1,0,0:0:0:0:
64,192,15650,1,0,0:0:0:0:
192,192,15936,1,0,0:0:0:0:
320,192,16222,1,0,0:0:0:0:
448,192,16222,1,0,0:0:0:0:
64,192,16507,1,0,0:0:0:0:
448,192,16650,1,0,0:0:0:0:
320,192,16698,1,0,0:0:0:0:
192,192,16745,1,0,0:0:0:0:
64,192,16793,1,0,0:0:0:0:
448,192,16793,1,0,0:0:0:0:
192,192,17079,1,0,0:0:0:0:
320,192,17269,1,0,0:0:0:0:
448,192,17269,1,0,0:0:0:0:
64,192,17555,1,0,0:0:0:0:
448,192,17555,1,0,0:0:0:0:
320,192,17650,1,0,0:0:0:0:
448,192,17650,1,0,0:0:0:0:
64,192,17793,1,0,0:0:0:0:
192,192,17841,1,0,0:0:0:0:
320,192,17888,1,0,0:0:0:0:
64,192,17936,1,0,0:0:0:0:
448,192,17936,1,0,0:0:0:0:
448,192,18126,1,0,0:0:0:0:
64,192,18126,1,0,0:0:0:0:
64,192,18507,1,0,0:0:0:0:
448,192,18507,1,0,0:0:0:0:
320,192,18507,1,0,0:0:0:0:
64,192,18793,1,0,0:0:0:0:
64,192,19079,1,0,0:0:0:0:
64,192,19269,1,0,0:0:0:0:
192,192,19364,1,0,0:0:0:0:
448,192,19555,128,0,19650:0:0:0:0:
64,192,19650,128,0,19793:0:0:0:0:
320,192,19650,1,0,0:0:0:0:
320,192,19841,1,0,0:0:0:0:
192,192,19936,128,0,20079:0:0:0:0:
448,192,19936,1,0,0:0:0:0:
320,192,20126,1,0,0:0:0:0:
448,192,20222,128,0,20364:0:0:0:0:
64,192,20222,1,0,0:0:0:0:
64,192,20412,1,0,0:0:0:0:
320,192,20507,128,0,20650:0:0:0:0:
192,192,20698,1,0,0:0:0:0:
448,192,20793,1,0,0:0:0:0:
448,192,20936,1,0,0:0:0:0:
64,192,21079,1,0,0:0:0:0:
320,192,21174,1,0,0:0:0:0:
64,192,21222,1,0,0:0:0:0:
448,192,21269,1,0,0:0:0:0:
320,192,21364,1,0,0:0:0:0:
192,192,21507,1,0,0:0:0:0:
320,192,21555,1,0,0:0:0:0:
64,192,21650,1,0,0:0:0:0:
64,192,21793,1,0,0:0:0:0:
192,192,21841,1,0,0:0:0:0:
320,192,21936,1,0,0:0:0:0:
320,192,22222,1,0,0:0:0:0:
448,192,22269,1,0,0:0:0:0:
64,192,22412,1,0,0:0:0:0:
192,192,22507,1,0,0:0:0:0:
64,192,22650,1,0,0:0:0:0:
448,192,22793,1,0,0:0:0:0:
192,192,22793,128,0,23079:0:0:0:0:
448,192,22888,1,0,0:0:0:0:
448,192,22983,1,0,0:0:0:0:
64,192,23079,128,0,23364:0:0:0:0:
320,192,23079,1,0,0:0:0:0:
192,192,23364,1,0,0:0:0:0:
320,192,23555,1,0,0:0:0:0:
64,192,23650,1,0,0:0:0:0:
64,192,23841,1,0,0:0:0:0:
192,192,23936,1,0,0:0:0:0:
448,192,24126,128,0,24222:0:0:0:0:
64,192,24222,128,0,24364:0:0:0:0:
320,192,24222,1,0,0:0:0:0:
320,192,24412,1,0,0:0:0:0:
192,192,24507,128,0,24650:0:0:0:0:
448,192,24507,1,0,0:0:0:0:
320,192,24698,1,0,0:0:0:0:
448,192,24793,128,0,24936:0:0:0:0:
64,192,24793,1,0,0:0:0:0:
64,192,24983,1,0,0:0:0:0:
320,192,25079,128,0,25222:0:0:0:0:
192,192,25269,1,0,0:0:0:0:
448,192,25364,1,0,0:0:0:0:
448,192,25507,1,0,0:0:0:0:
64,192,25650,1,0,0:0:0:0:
320,192,25745,1,0,0:0:0:0:
64,192,25793,1,0,0:0:0:0:
448,192,25841,1,0,0:0:0:0:
320,192,25936,1,0,0:0:0:0:
192,192,26079,1,0,0:0:0:0:
320,192,26126,1,0,0:0:0:0:
64,192,26222,1,0,0:0:0:0:
64,192,26364,1,0,0:0:0:0:
192,192,26412,1,0,0:0:0:0:
320,192,26507,1,0,0:0:0:0:
448,192,26793,1,0,0:0:0:0:
448,192,26936,1,0,0:0:0:0:
64,192,26983,1,0,0:0:0:0:
320,192,27079,1,0,0:0:0:0:
320,192,27222,1,0,0:0:0:0:
192,192,27364,1,0,0:0:0:0:
192,192,27507,1,0,0:0:0:0:
448,192,27555,1,0,0:0:0:0:
448,192,27650,1,0,0:0:0:0:
192,192,27650,1,0,0:0:0:0:
64,192,27650,1,0,0:0:0:0:
64,192,27936,1,0,0:0:0:0:
320,192,27936,1,0,0:0:0:0:
448,192,27936,1,0,0:0:0:0:
64,192,28222,1,0,0:0:0:0:
192,192,28222,1,0,0:0:0:0:
448,192,28222,1,0,0:0:0:0:
64,192,28412,1,0,0:0:0:0:
192,192,28507,1,0,0:0:0:0:
320,192,28507,1,0,0:0:0:0:
448,192,28507,1,0,0:0:0:0:
448,192,28698,128,0,28793:0:0:0:0:
320,192,28793,1,0,0:0:0:0:
64,192,28793,128,0,28936:0:0:0:0:
192,192,28793,1,0,0:0:0:0:
320,192,28983,1,0,0:0:0:0:
448,192,29079,1,0,0:0:0:0:
192,192,29079,128,0,29222:0:0:0:0:
64,192,29079,1,0,0:0:0:0:
320,192,29269,1,0,0:0:0:0:
64,192,29364,1,0,0:0:0:0:
448,192,29364,128,0,29507:0:0:0:0:
192,192,29364,1,0,0:0:0:0:
64,192,29555,1,0,0:0:0:0:
320,192,29650,128,0,29793:0:0:0:0:
192,192,29650,1,0,0:0:0:0:
448,192,29650,1,0,0:0:0:0:
64,192,29745,1,0,0:0:0:0:
192,192,29841,1,0,0:0:0:0:
448,192,29936,1,0,0:0:0:0:
64,192,29936,1,0,0:0:0:0:
320,192,29936,1,0,0:0:0:0:
320,192,30079,1,0,0:0:0:0:
64,192,30222,1,0,0:0:0:0:
192,192,30222,1,0,0:0:0:0:
448,192,30222,1,0,0:0:0:0:
320,192,30317,1,0,0:0:0:0:
64,192,30364,1,0,0:0:0:0:
448,192,30412,1,0,0:0:0:0:
320,192,30507,1,0,0:0:0:0:
192,192,30507,1,0,0:0:0:0:
64,192,30507,1,0,0:0:0:0:
448,192,30650,1,0,0:0:0:0:
320,192,30698,1,0,0:0:0:0:
64,192,30793,1,0,0:0:0:0:
448,192,30793,1,0,0:0:0:0:
192,192,30793,1,0,0:0:0:0:
320,192,30936,1,0,0:0:0:0:
192,192,30983,1,0,0:0:0:0:
320,192,31079,1,0,0:0:0:0:
448,192,31079,1,0,0:0:0:0:
64,192,31079,1,0,0:0:0:0:
320,192,31269,1,0,0:0:0:0:
448,192,31364,1,0,0:0:0:0:
192,192,31364,1,0,0:0:0:0:
64,192,31364,1,0,0:0:0:0:
64,192,31555,1,0,0:0:0:0:
192,192,31650,1,0,0:0:0:0:
320,192,31650,1,0,0:0:0:0:
448,192,31650,1,0,0:0:0:0:
64,192,31793,1,0,0:0:0:0:
320,192,31841,1,0,0:0:0:0:
448,192,31936,1,0,0:0:0:0:
64,192,31936,1,0,0:0:0:0:
192,192,31936,1,0,0:0:0:0:
320,192,32031,1,0,0:0:0:0:
448,192,32126,1,0,0:0:0:0:
64,192,32222,1,0,0:0:0:0:
192,192,32222,1,0,0:0:0:0:
320,192,32222,1,0,0:0:0:0:
448,192,32317,1,0,0:0:0:0:
64,192,32412,1,0,0:0:0:0:
192,192,32412,1,0,0:0:0:0:
64,192,32507,1,0,0:0:0:0:
192,192,32507,1,0,0:0:0:0:
448,192,32602,1,0,0:0:0:0:
192,192,32698,1,0,0:0:0:0:
320,192,32698,1,0,0:0:0:0:
320,192,32793,1,0,0:0:0:0:
192,192,32793,1,0,0:0:0:0:
64,192,32888,1,0,0:0:0:0:
320,192,32983,1,0,0:0:0:0:
448,192,32983,1,0,0:0:0:0:
448,192,33079,1,0,0:0:0:0:
320,192,33079,1,0,0:0:0:0:
192,192,33174,1,0,0:0:0:0:
64,192,33269,1,0,0:0:0:0:
448,192,33269,1,0,0:0:0:0:
64,192,33364,1,0,0:0:0:0:
448,192,33364,1,0,0:0:0:0:
320,192,33460,1,0,0:0:0:0:
192,192,33555,1,0,0:0:0:0:
64,192,33555,1,0,0:0:0:0:
64,192,33650,1,0,0:0:0:0:
192,192,33650,1,0,0:0:0:0:
448,192,33745,1,0,0:0:0:0:
320,192,33841,1,0,0:0:0:0:
192,192,33841,1,0,0:0:0:0:
192,192,33936,1,0,0:0:0:0:
320,192,33936,1,0,0:0:0:0:
64,192,34031,1,0,0:0:0:0:
448,192,34126,1,0,0:0:0:0:
192,192,34126,1,0,0:0:0:0:
448,192,34222,1,0,0:0:0:0:
192,192,34222,1,0,0:0:0:0:
320,192,34317,1,0,0:0:0:0:
64,192,34412,1,0,0:0:0:0:
192,192,34412,1,0,0:0:0:0:
64,192,34507,1,0,0:0:0:0:
192,192,34507,1,0,0:0:0:0:
448,192,34571,1,0,0:0:0:0:
320,192,34634,1,0,0:0:0:0:
448,192,34698,1,0,0:0:0:0:
64,192,34698,1,0,0:0:0:0:
192,192,34761,1,0,0:0:0:0:
320,192,34825,1,0,0:0:0:0:
192,192,34888,1,0,0:0:0:0:
64,192,34888,1,0,0:0:0:0:
448,192,34952,1,0,0:0:0:0:
64,192,35015,1,0,0:0:0:0:
192,192,35079,1,0,0:0:0:0:
448,192,35079,1,0,0:0:0:0:
320,192,35142,1,0,0:0:0:0:
64,192,35206,1,0,0:0:0:0:
448,192,35269,1,0,0:0:0:0:
320,192,35269,1,0,0:0:0:0:
192,192,35333,1,0,0:0:0:0:
448,192,35396,1,0,0:0:0:0:
320,192,35460,1,0,0:0:0:0:
64,192,35460,1,0,0:0:0:0:
192,192,35523,1,0,0:0:0:0:
64,192,35587,1,0,0:0:0:0:
192,192,35650,1,0,0:0:0:0:
448,192,35650,1,0,0:0:0:0:
320,192,35714,1,0,0:0:0:0:
448,192,35777,1,0,0:0:0:0:
320,192,35841,1,0,0:0:0:0:
192,192,35841,1,0,0:0:0:0:
64,192,35936,1,0,0:0:0:0:
320,192,36126,1,0,0:0:0:0:
448,192,36174,1,0,0:0:0:0:
192,192,36222,1,0,0:0:0:0:
64,192,36222,1,0,0:0:0:0:
320,192,36317,1,0,0:0:0:0:
320,192,36412,1,0,0:0:0:0:
64,192,36507,1,0,0:0:0:0:
448,192,36602,1,0,0:0:0:0:
448,192,36698,1,0,0:0:0:0:
64,192,36793,1,0,0:0:0:0:
192,192,36793,1,0,0:0:0:0:
320,192,36793,1,0,0:0:0:0:
448,192,36841,1,0,0:0:0:0:
64,192,36888,1,0,0:0:0:0:
320,192,36936,1,0,0:0:0:0:
192,192,36983,1,0,0:0:0:0:
448,192,37031,1,0,0:0:0:0:
64,192,37079,1,0,0:0:0:0:
448,192,37126,1,0,0:0:0:0:
192,192,37174,1,0,0:0:0:0:
320,192,37222,1,0,0:0:0:0:
64,192,37269,1,0,0:0:0:0:
448,192,37317,1,0,0:0:0:0:
192,192,37364,1,0,0:0:0:0:
320,192,37364,1,0,0:0:0:0:
320,192,37555,1,0,0:0:0:0:
192,192,37650,1,0,0:0:0:0:
64,192,37674,1,0,0:0:0:0:
192,192,37745,1,0,0:0:0:0:
320,192,37841,1,0,0:0:0:0:
448,192,37841,1,0,0:0:0:0:
64,192,37888,1,0,0:0:0:0:
448,192,37936,1,0,0:0:0:0:
320,192,37983,1,0,0:0:0:0:
192,192,38031,1,0,0:0:0:0:
64,192,38126,1,0,0:0:0:0:
448,192,38126,1,0,0:0:0:0:
64,192,38222,1,0,0:0:0:0:
192,192,38222,1,0,0:0:0:0:
320,192,38269,1,0,0:0:0:0:
448,192,38317,1,0,0:0:0:0:
192,192,38364,1,0,0:0:0:0:
320,192,38412,1,0,0:0:0:0:
64,192,38460,1,0,0:0:0:0:
192,192,38507,1,0,0:0:0:0:
448,192,38507,1,0,0:0:0:0:
320,192,38602,1,0,0:0:0:0:
64,192,38650,1,0,0:0:0:0:
448,192,38686,1,0,0:0:0:0:
320,192,38722,1,0,0:0:0:0:
192,192,38757,1,0,0:0:0:0:
64,192,38793,1,0,0:0:0:0:
448,192,38850,1,0,0:0:0:0:
192,192,38907,1,0,0:0:0:0:
448,192,39079,1,0,0:0:0:0:
320,192,39079,1,0,0:0:0:0:
64,192,39126,1,0,0:0:0:0:
448,192,39174,1,0,0:0:0:0:
192,192,39222,1,0,0:0:0:0:
320,192,39269,1,0,0:0:0:0:
64,192,39317,1,0,0:0:0:0:
448,192,39364,1,0,0:0:0:0:
64,192,39412,1,0,0:0:0:0:
320,192,39460,1,0,0:0:0:0:
192,192,39507,1,0,0:0:0:0:
448,192,39555,1,0,0:0:0:0:
192,192,39602,1,0,0:0:0:0:
64,192,39650,1,0,0:0:0:0:
320,192,39650,1,0,0:0:0:0:
448,192,39841,1,0,0:0:0:0:
64,192,39888,1,0,0:0:0:0:
448,192,39936,1,0,0:0:0:0:
320,192,39960,1,0,0:0:0:0:
192,192,39983,1,0,0:0:0:0:
64,192,40126,1,0,0:0:0:0:
192,192,40126,1,0,0:0:0:0:
320,192,40174,1,0,0:0:0:0:
448,192,40222,1,0,0:0:0:0:
192,192,40269,1,0,0:0:0:0:
320,192,40317,1,0,0:0:0:0:
64,192,40364,1,0,0:0:0:0:
192,192,40412,1,0,0:0:0:0:
448,192,40412,1,0,0:0:0:0:
320,192,40507,1,0,0:0:0:0:
448,192,40507,1,0,0:0:0:0:
64,192,40555,1,0,0:0:0:0:
192,192,40602,1,0,0:0:0:0:
320,192,40698,1,0,0:0:0:0:
320,192,40793,1,0,0:0:0:0:
64,192,40793,1,0,0:0:0:0:
448,192,40841,1,0,0:0:0:0:
192,192,40888,1,0,0:0:0:0:
64,192,40983,1,0,0:0:0:0:
320,192,40983,1,0,0:0:0:0:
64,192,41079,1,0,0:0:0:0:
448,192,41126,1,0,0:0:0:0:
192,192,41174,1,0,0:0:0:0:
320,192,41222,1,0,0:0:0:0:
448,192,41269,1,0,0:0:0:0:
64,192,41364,1,0,0:0:0:0:
320,192,41436,1,0,0:0:0:0:
192,192,41472,1,0,0:0:0:0:
64,192,41507,1,0,0:0:0:0:
448,192,41555,1,0,0:0:0:0:
320,192,41602,1,0,0:0:0:0:
192,192,41650,1,0,0:0:0:0:
64,192,41650,1,0,0:0:0:0:
448,192,41698,1,0,0:0:0:0:
192,192,41745,1,0,0:0:0:0:
320,192,41793,1,0,0:0:0:0:
64,192,41841,1,0,0:0:0:0:
448,192,41888,1,0,0:0:0:0:
320,192,41936,1,0,0:0:0:0:
192,192,41936,1,0,0:0:0:0:
192,192,42126,1,0,0:0:0:0:
320,192,42222,1,0,0:0:0:0:
448,192,42245,1,0,0:0:0:0:
320,192,42317,1,0,0:0:0:0:
192,192,42412,1,0,0:0:0:0:
64,192,42412,1,0,0:0:0:0:
448,192,42460,1,0,0:0:0:0:
64,192,42507,1,0,0:0:0:0:
192,192,42555,1,0,0:0:0:0:
320,192,42602,1,0,0:0:0:0:
448,192,42698,1,0,0:0:0:0:
64,192,42698,1,0,0:0:0:0:
448,192,42793,1,0,0:0:0:0:
320,192,42793,1,0,0:0:0:0:
192,192,42841,1,0,0:0:0:0:
64,192,42888,1,0,0:0:0:0:
320,192,42936,1,0,0:0:0:0:
192,192,42983,1,0,0:0:0:0:
448,192,43031,1,0,0:0:0:0:
320,192,43079,1,0,0:0:0:0:
64,192,43079,1,0,0:0:0:0:
192,192,43174,1,0,0:0:0:0:
320,192,43222,1,0,0:0:0:0:
64,192,43269,1,0,0:0:0:0:
192,192,43317,1,0,0:0:0:0:
448,192,43364,1,0,0:0:0:0:
320,192,43400,1,0,0:0:0:0:
64,192,43436,1,0,0:0:0:0:
448,192,43472,1,0,0:0:0:0:
192,192,43507,1,0,0:0:0:0:
320,192,43555,1,0,0:0:0:0:
64,192,43650,1,0,0:0:0:0:
192,192,43650,1,0,0:0:0:0:
448,192,43650,1,0,0:0:0:0:
192,192,43793,1,0,0:0:0:0:
320,192,43841,1,0,0:0:0:0:
192,192,43936,1,0,0:0:0:0:
448,192,43936,1,0,0:0:0:0:
192,192,44126,1,0,0:0:0:0:
320,192,44222,1,0,0:0:0:0:
64,192,44317,1,0,0:0:0:0:
192,192,44412,1,0,0:0:0:0:
448,192,44507,1,0,0:0:0:0:
320,192,44507,1,0,0:0:0:0:
64,192,44793,1,0,0:0:0:0:
192,192,44829,1,0,0:0:0:0:
448,192,44900,1,0,0:0:0:0:
192,192,44936,1,0,0:0:0:0:
320,192,44972,1,0,0:0:0:0:
448,192,45079,1,0,0:0:0:0:
64,192,45079,1,0,0:0:0:0:
192,192,45114,1,0,0:0:0:0:
320,192,45150,1,0,0:0:0:0:
448,192,45293,1,0,0:0:0:0:
192,192,45329,1,0,0:0:0:0:
64,192,45364,1,0,0:0:0:0:
448,192,45436,1,0,0:0:0:0:
320,192,45507,1,0,0:0:0:0:
64,192,45555,1,0,0:0:0:0:
64,192,45650,1,0,0:0:0:0:
192,192,45698,1,0,0:0:0:0:
448,192,45745,1,0,0:0:0:0:
320,192,45793,1,0,0:0:0:0:
64,192,45841,1,0,0:0:0:0:
448,192,45888,1,0,0:0:0:0:
64,192,45936,1,0,0:0:0:0:
192,192,45936,1,0,0:0:0:0:
320,192,45983,1,0,0:0:0:0:
192,192,46031,1,0,0:0:0:0:
448,192,46079,1,0,0:0:0:0:
64,192,46126,1,0,0:0:0:0:
320,192,46174,1,0,0:0:0:0:
192,192,46222,1,0,0:0:0:0:
320,192,46269,1,0,0:0:0:0:
64,192,46317,1,0,0:0:0:0:
448,192,46364,1,0,0:0:0:0:
192,192,46412,1,0,0:0:0:0:
320,192,46460,1,0,0:0:0:0:
64,192,46507,1,0,0:0:0:0:
448,192,46507,1,0,0:0:0:0:
320,192,46698,1,0,0:0:0:0:
192,192,46793,1,0,0:0:0:0:
64,192,46817,1,0,0:0:0:0:
192,192,46888,1,0,0:0:0:0:
448,192,46983,1,0,0:0:0:0:
320,192,46983,1,0,0:0:0:0:
64,192,47031,1,0,0:0:0:0:
448,192,47079,1,0,0:0:0:0:
320,192,47126,1,0,0:0:0:0:
192,192,47174,1,0,0:0:0:0:
448,192,47269,1,0,0:0:0:0:
64,192,47269,1,0,0:0:0:0:
192,192,47364,1,0,0:0:0:0:
64,192,47364,1,0,0:0:0:0:
320,192,47412,1,0,0:0:0:0:
448,192,47460,1,0,0:0:0:0:
192,192,47507,1,0,0:0:0:0:
320,192,47555,1,0,0:0:0:0:
64,192,47602,1,0,0:0:0:0:
448,192,47650,1,0,0:0:0:0:
192,192,47650,1,0,0:0:0:0:
320,192,47745,1,0,0:0:0:0:
64,192,47793,1,0,0:0:0:0:
448,192,47841,1,0,0:0:0:0:
320,192,47864,1,0,0:0:0:0:
192,192,47900,1,0,0:0:0:0:
64,192,47936,1,0,0:0:0:0:
320,192,48031,1,0,0:0:0:0:
448,192,48055,1,0,0:0:0:0:
64,192,48079,1,0,0:0:0:0:
192,192,48126,1,0,0:0:0:0:
320,192,48222,1,0,0:0:0:0:
448,192,48222,1,0,0:0:0:0:
192,192,48269,1,0,0:0:0:0:
320,192,48317,1,0,0:0:0:0:
64,192,48364,1,0,0:0:0:0:
448,192,48412,1,0,0:0:0:0:
192,192,48460,1,0,0:0:0:0:
320,192,48507,1,0,0:0:0:0:
192,192,48555,1,0,0:0:0:0:
64,192,48602,1,0,0:0:0:0:
448,192,48650,1,0,0:0:0:0:
192,192,48698,1,0,0:0:0:0:
448,192,48745,1,0,0:0:0:0:
320,192,48793,1,0,0:0:0:0:
64,192,48793,1,0,0:0:0:0:
64,192,48888,1,0,0:0:0:0:
192,192,48912,1,0,0:0:0:0:
320,192,48936,1,0,0:0:0:0:
448,192,48983,1,0,0:0:0:0:
64,192,49079,1,0,0:0:0:0:
192,192,49079,1,0,0:0:0:0:
64,192,49174,1,0,0:0:0:0:
320,192,49222,1,0,0:0:0:0:
192,192,49257,1,0,0:0:0:0:
448,192,49293,1,0,0:0:0:0:
320,192,49329,1,0,0:0:0:0:
64,192,49364,1,0,0:0:0:0:
192,192,49412,1,0,0:0:0:0:
320,192,49460,1,0,0:0:0:0:
64,192,49507,1,0,0:0:0:0:
448,192,49579,1,0,0:0:0:0:
320,192,49650,1,0,0:0:0:0:
192,192,49745,1,0,0:0:0:0:
320,192,49841,1,0,0:0:0:0:
448,192,49936,128,0,50222:0:0:0:0:
320,192,50222,1,0,0:0:0:0:
64,192,50222,1,0,0:0:0:0:
320,192,50412,1,0,0:0:0:0:
64,192,50412,1,0,0:0:0:0:
192,192,50507,1,0,0:0:0:0:
64,192,50507,1,0,0:0:0:0:
448,192,50555,1,0,0:0:0:0:
320,192,50602,1,0,0:0:0:0:
64,192,50650,1,0,0:0:0:0:
448,192,50698,1,0,0:0:0:0:
192,192,50745,1,0,0:0:0:0:
320,192,50793,1,0,0:0:0:0:
192,192,50841,1,0,0:0:0:0:
448,192,50888,1,0,0:0:0:0:
64,192,50936,1,0,0:0:0:0:
320,192,50983,1,0,0:0:0:0:
192,192,51031,1,0,0:0:0:0:
64,192,51079,1,0,0:0:0:0:
448,192,51079,1,0,0:0:0:0:
320,192,51269,1,0,0:0:0:0:
64,192,51317,1,0,0:0:0:0:
448,192,51364,1,0,0:0:0:0:
192,192,51412,1,0,0:0:0:0:
448,192,51460,1,0,0:0:0:0:
64,192,51555,1,0,0:0:0:0:
192,192,51555,1,0,0:0:0:0:
320,192,51602,1,0,0:0:0:0:
64,192,51650,1,0,0:0:0:0:
448,192,51698,1,0,0:0:0:0:
192,192,51745,1,0,0:0:0:0:
320,192,51841,1,0,0:0:0:0:
64,192,51841,1,0,0:0:0:0:
320,192,51936,1,0,0:0:0:0:
448,192,51936,1,0,0:0:0:0:
192,192,51983,1,0,0:0:0:0:
64,192,52031,1,0,0:0:0:0:
448,192,52079,1,0,0:0:0:0:
192,192,52126,1,0,0:0:0:0:
320,192,52174,1,0,0:0:0:0:
448,192,52222,1,0,0:0:0:0:
64,192,52222,1,0,0:0:0:0:
192,192,52317,1,0,0:0:0:0:
320,192,52364,1,0,0:0:0:0:
64,192,52412,1,0,0:0:0:0:
192,192,52460,1,0,0:0:0:0:
448,192,52507,1,0,0:0:0:0:
320,192,52543,1,0,0:0:0:0:
64,192,52579,1,0,0:0:0:0:
448,192,52614,1,0,0:0:0:0:
192,192,52650,1,0,0:0:0:0:
320,192,52698,1,0,0:0:0:0:
192,192,52793,1,0,0:0:0:0:
64,192,52793,1,0,0:0:0:0:
448,192,52793,1,0,0:0:0:0:
320,192,52841,1,0,0:0:0:0:
192,192,52888,1,0,0:0:0:0:
448,192,52936,1,0,0:0:0:0:
64,192,52983,1,0,0:0:0:0:
320,192,53031,1,0,0:0:0:0:
192,192,53079,1,0,0:0:0:0:
64,192,53114,1,0,0:0:0:0:
448,192,53150,1,0,0:0:0:0:
192,192,53222,1,0,0:0:0:0:
320,192,53269,1,0,0:0:0:0:
448,192,53317,1,0,0:0:0:0:
64,192,53364,1,0,0:0:0:0:
192,192,53460,1,0,0:0:0:0:
320,192,53507,1,0,0:0:0:0:
64,192,53555,1,0,0:0:0:0:
448,192,53602,1,0,0:0:0:0:
320,192,53650,1,0,0:0:0:0:
64,192,53722,1,0,0:0:0:0:
192,192,53793,1,0,0:0:0:0:
320,192,53864,1,0,0:0:0:0:
192,192,53936,1,0,0:0:0:0:
64,192,54031,1,0,0:0:0:0:
448,192,54126,1,0,0:0:0:0:
64,192,54222,1,0,0:0:0:0:
448,192,54412,128,0,54698:0:0:0:0:
64,192,54507,1,0,0:0:0:0:
320,192,54507,128,0,54793:0:0:0:0:
64,192,54793,1,0,0:0:0:0:
64,192,55079,1,0,0:0:0:0:
192,192,55079,1,0,0:0:0:0:
448,192,55079,1,0,0:0:0:0:
320,192,55126,1,0,0:0:0:0:
64,192,55174,1,0,0:0:0:0:
448,192,55222,1,0,0:0:0:0:
192,192,55269,1,0,0:0:0:0:
320,192,55317,1,0,0:0:0:0:
192,192,55364,1,0,0:0:0:0:
448,192,55412,1,0,0:0:0:0:
64,192,55460,1,0,0:0:0:0:
320,192,55507,1,0,0:0:0:0:
448,192,55555,1,0,0:0:0:0:
64,192,55602,1,0,0:0:0:0:
192,192,55650,1,0,0:0:0:0:
448,192,55650,1,0,0:0:0:0:
320,192,55745,1,0,0:0:0:0:
448,192,55841,1,0,0:0:0:0:
192,192,55936,1,0,0:0:0:0:
64,192,55960,1,0,0:0:0:0:
192,192,56031,1,0,0:0:0:0:
320,192,56126,1,0,0:0:0:0:
448,192,56126,1,0,0:0:0:0:
64,192,56174,1,0,0:0:0:0:
448,192,56222,1,0,0:0:0:0:
320,192,56269,1,0,0:0:0:0:
192,192,56317,1,0,0:0:0:0:
448,192,56364,1,0,0:0:0:0:
64,192,56412,1,0,0:0:0:0:
320,192,56412,1,0,0:0:0:0:
64,192,56507,1,0,0:0:0:0:
192,192,56507,1,0,0:0:0:0:
320,192,56555,1,0,0:0:0:0:
448,192,56602,1,0,0:0:0:0:
192,192,56650,1,0,0:0:0:0:
320,192,56698,1,0,0:0:0:0:
64,192,56745,1,0,0:0:0:0:
192,192,56793,1,0,0:0:0:0:
448,192,56793,1,0,0:0:0:0:
320,192,56888,1,0,0:0:0:0:
64,192,56936,1,0,0:0:0:0:
448,192,56972,1,0,0:0:0:0:
320,192,57007,1,0,0:0:0:0:
192,192,57043,1,0,0:0:0:0:
64,192,57079,1,0,0:0:0:0:
448,192,57126,1,0,0:0:0:0:
192,192,57174,1,0,0:0:0:0:
320,192,57222,1,0,0:0:0:0:
64,192,57269,1,0,0:0:0:0:
448,192,57364,1,0,0:0:0:0:
320,192,57364,1,0,0:0:0:0:
64,192,57412,1,0,0:0:0:0:
448,192,57460,1,0,0:0:0:0:
192,192,57507,1,0,0:0:0:0:
320,192,57555,1,0,0:0:0:0:
64,192,57602,1,0,0:0:0:0:
448,192,57650,1,0,0:0:0:0:
64,192,57698,1,0,0:0:0:0:
192,192,57745,1,0,0:0:0:0:
320,192,57793,1,0,0:0:0:0:
64,192,57841,1,0,0:0:0:0:
320,192,57888,1,0,0:0:0:0:
448,192,57936,1,0,0:0:0:0:
192,192,57936,1,0,0:0:0:0:
448,192,58126,1,0,0:0:0:0:
64,192,58174,1,0,0:0:0:0:
448,192,58222,1,0,0:0:0:0:
320,192,58245,1,0,0:0:0:0:
192,192,58269,1,0,0:0:0:0:
64,192,58412,1,0,0:0:0:0:
192,192,58412,1,0,0:0:0:0:
320,192,58460,1,0,0:0:0:0:
448,192,58507,1,0,0:0:0:0:
192,192,58555,1,0,0:0:0:0:
320,192,58602,1,0,0:0:0:0:
64,192,58650,1,0,0:0:0:0:
192,192,58698,1,0,0:0:0:0:
448,192,58698,1,0,0:0:0:0:
320,192,58793,1,0,0:0:0:0:
448,192,58793,1,0,0:0:0:0:
64,192,58841,1,0,0:0:0:0:
192,192,58888,1,0,0:0:0:0:
320,192,58983,1,0,0:0:0:0:
320,192,59079,1,0,0:0:0:0:
64,192,59079,1,0,0:0:0:0:
448,192,59126,1,0,0:0:0:0:
192,192,59174,1,0,0:0:0:0:
64,192,59269,1,0,0:0:0:0:
320,192,59269,1,0,0:0:0:0:
64,192,59364,1,0,0:0:0:0:
448,192,59412,1,0,0:0:0:0:
192,192,59460,1,0,0:0:0:0:
320,192,59507,1,0,0:0:0:0:
448,192,59555,1,0,0:0:0:0:
448,192,59650,1,0,0:0:0:0:
192,192,59722,1,0,0:0:0:0:
320,192,59757,1,0,0:0:0:0:
448,192,59793,1,0,0:0:0:0:
64,192,59841,1,0,0:0:0:0:
192,192,59888,1,0,0:0:0:0:
320,192,59936,1,0,0:0:0:0:
448,192,59936,1,0,0:0:0:0:
64,192,59983,1,0,0:0:0:0:
320,192,60031,1,0,0:0:0:0:
192,192,60079,1,0,0:0:0:0:
448,192,60126,1,0,0:0:0:0:
64,192,60174,1,0,0:0:0:0:
192,192,60222,1,0,0:0:0:0:
320,192,60222,1,0,0:0:0:0:
192,192,60412,1,0,0:0:0:0:
320,192,60507,1,0,0:0:0:0:
448,192,60543,1,0,0:0:0:0:
320,192,60602,1,0,0:0:0:0:
192,192,60698,1,0,0:0:0:0:
64,192,60698,1,0,0:0:0:0:
448,192,60745,1,0,0:0:0:0:
64,192,60793,1,0,0:0:0:0:
192,192,60841,1,0,0:0:0:0:
320,192,60888,1,0,0:0:0:0:
448,192,60983,1,0,0:0:0:0:
64,192,60983,1,0,0:0:0:0:
448,192,61079,1,0,0:0:0:0:
320,192,61079,1,0,0:0:0:0:
192,192,61126,1,0,0:0:0:0:
64,192,61174,1,0,0:0:0:0:
320,192,61222,1,0,0:0:0:0:
192,192,61269,1,0,0:0:0:0:
448,192,61317,1,0,0:0:0:0:
320,192,61364,1,0,0:0:0:0:
64,192,61364,1,0,0:0:0:0:
192,192,61460,1,0,0:0:0:0:
320,192,61507,1,0,0:0:0:0:
64,192,61555,1,0,0:0:0:0:
64,192,61650,1,0,0:0:0:0:
448,192,61686,1,0,0:0:0:0:
320,192,61722,1,0,0:0:0:0:
192,192,61757,1,0,0:0:0:0:
64,192,61793,1,0,0:0:0:0:
448,192,61841,1,0,0:0:0:0:
64,192,61936,1,0,0:0:0:0:
192,192,61936,1,0,0:0:0:0:
448,192,61936,1,0,0:0:0:0:
192,192,62031,1,0,0:0:0:0:
320,192,62079,1,0,0:0:0:0:
64,192,62126,1,0,0:0:0:0:
448,192,62174,1,0,0:0:0:0:
192,192,62222,1,0,0:0:0:0:
320,192,62269,1,0,0:0:0:0:
64,192,62317,1,0,0:0:0:0:
448,192,62364,1,0,0:0:0:0:
192,192,62412,1,0,0:0:0:0:
448,192,62460,1,0,0:0:0:0:
64,192,62507,1,0,0:0:0:0:
320,192,62555,1,0,0:0:0:0:
64,192,62602,1,0,0:0:0:0:
448,192,62650,1,0,0:0:0:0:
192,192,62698,1,0,0:0:0:0:
448,192,62745,1,0,0:0:0:0:
64,192,62793,1,0,0:0:0:0:
320,192,62841,1,0,0:0:0:0:
64,192,62888,1,0,0:0:0:0:
448,192,62936,1,0,0:0:0:0:
192,192,62983,1,0,0:0:0:0:
448,192,63031,1,0,0:0:0:0:
64,192,63079,1,0,0:0:0:0:
192,192,63114,1,0,0:0:0:0:
448,192,63186,1,0,0:0:0:0:
192,192,63222,1,0,0:0:0:0:
320,192,63257,1,0,0:0:0:0:
448,192,63364,1,0,0:0:0:0:
64,192,63364,1,0,0:0:0:0:
192,192,63400,1,0,0:0:0:0:
320,192,63436,1,0,0:0:0:0:
448,192,63579,1,0,0:0:0:0:
192,192,63614,1,0,0:0:0:0:
64,192,63650,1,0,0:0:0:0:
448,192,63722,1,0,0:0:0:0:
320,192,63793,1,0,0:0:0:0:
64,192,63841,1,0,0:0:0:0:
64,192,63936,1,0,0:0:0:0:
192,192,63983,1,0,0:0:0:0:
448,192,64031,1,0,0:0:0:0:
320,192,64079,1,0,0:0:0:0:
64,192,64126,1,0,0:0:0:0:
448,192,64174,1,0,0:0:0:0:
64,192,64222,1,0,0:0:0:0:
192,192,64222,1,0,0:0:0:0:
320,192,64269,1,0,0:0:0:0:
192,192,64317,1,0,0:0:0:0:
448,192,64364,1,0,0:0:0:0:
64,192,64412,1,0,0:0:0:0:
320,192,64460,1,0,0:0:0:0:
192,192,64507,1,0,0:0:0:0:
448,192,64555,1,0,0:0:0:0:
64,192,64602,1,0,0:0:0:0:
320,192,64650,1,0,0:0:0:0:
192,192,64698,1,0,0:0:0:0:
448,192,64745,1,0,0:0:0:0:
192,192,64793,1,0,0:0:0:0:
320,192,64793,1,0,0:0:0:0:
320,192,64983,1,0,0:0:0:0:
192,192,65079,1,0,0:0:0:0:
64,192,65102,1,0,0:0:0:0:
192,192,65174,1,0,0:0:0:0:
448,192,65269,1,0,0:0:0:0:
320,192,65269,1,0,0:0:0:0:
64,192,65317,1,0,0:0:0:0:
448,192,65364,1,0,0:0:0:0:
320,192,65412,1,0,0:0:0:0:
192,192,65460,1,0,0:0:0:0:
448,192,65507,1,0,0:0:0:0:
64,192,65555,1,0,0:0:0:0:
320,192,65555,1,0,0:0:0:0:
192,192,65650,1,0,0:0:0:0:
64,192,65650,1,0,0:0:0:0:
320,192,65698,1,0,0:0:0:0:
448,192,65745,1,0,0:0:0:0:
192,192,65793,1,0,0:0:0:0:
320,192,65841,1,0,0:0:0:0:
64,192,65888,1,0,0:0:0:0:
448,192,65936,1,0,0:0:0:0:
192,192,65936,1,0,0:0:0:0:
320,192,66031,1,0,0:0:0:0:
64,192,66079,1,0,0:0:0:0:
448,192,66126,1,0,0:0:0:0:
320,192,66150,1,0,0:0:0:0:
192,192,66186,1,0,0:0:0:0:
64,192,66222,1,0,0:0:0:0:
320,192,66317,1,0,0:0:0:0:
448,192,66341,1,0,0:0:0:0:
64,192,66364,1,0,0:0:0:0:
192,192,66412,1,0,0:0:0:0:
320,192,66507,1,0,0:0:0:0:
448,192,66507,1,0,0:0:0:0:
192,192,66555,1,0,0:0:0:0:
320,192,66602,1,0,0:0:0:0:
64,192,66650,1,0,0:0:0:0:
448,192,66698,1,0,0:0:0:0:
192,192,66745,1,0,0:0:0:0:
320,192,66793,1,0,0:0:0:0:
192,192,66841,1,0,0:0:0:0:
64,192,66888,1,0,0:0:0:0:
448,192,66936,1,0,0:0:0:0:
192,192,66983,1,0,0:0:0:0:
448,192,67031,1,0,0:0:0:0:
64,192,67079,1,0,0:0:0:0:
320,192,67079,1,0,0:0:0:0:
64,192,67174,1,0,0:0:0:0:
192,192,67198,1,0,0:0:0:0:
320,192,67222,1,0,0:0:0:0:
448,192,67269,1,0,0:0:0:0:
64,192,67364,1,0,0:0:0:0:
192,192,67364,1,0,0:0:0:0:
64,192,67460,1,0,0:0:0:0:
320,192,67507,1,0,0:0:0:0:
192,192,67543,1,0,0:0:0:0:
448,192,67579,1,0,0:0:0:0:
320,192,67614,1,0,0:0:0:0:
64,192,67650,1,0,0:0:0:0:
192,192,67698,1,0,0:0:0:0:
320,192,67745,1,0,0:0:0:0:
64,192,67793,1,0,0:0:0:0:
448,192,67864,1,0,0:0:0:0:
320,192,67936,1,0,0:0:0:0:
192,192,68031,1,0,0:0:0:0:
320,192,68126,1,0,0:0:0:0:
448,192,68222,128,0,68507:0:0:0:0:
320,192,68507,1,0,0:0:0:0:
64,192,68507,1,0,0:0:0:0:
320,192,68698,1,0,0:0:0:0:
64,192,68698,1,0,0:0:0:0:
192,192,68793,1,0,0:0:0:0:
64,192,68793,1,0,0:0:0:0:
448,192,68841,1,0,0:0:0:0:
320,192,68888,1,0,0:0:0:0:
64,192,68936,1,0,0:0:0:0:
448,192,68983,1,0,0:0:0:0:
192,192,69031,1,0,0:0:0:0:
320,192,69079,1,0,0:0:0:0:
192,192,69126,1,0,0:0:0:0:
448,192,69174,1,0,0:0:0:0:
64,192,69222,1,0,0:0:0:0:
320,192,69269,1,0,0:0:0:0:
192,192,69317,1,0,0:0:0:0:
64,192,69364,1,0,0:0:0:0:
448,192,69364,1,0,0:0:0:0:
64,192,69555,1,0,0:0:0:0:
320,192,69602,1,0,0:0:0:0:
448,192,69650,1,0,0:0:0:0:
192,192,69674,1,0,0:0:0:0:
448,192,69745,1,0,0:0:0:0:
64,192,69841,1,0,0:0:0:0:
192,192,69841,1,0,0:0:0:0:
320,192,69888,1,0,0:0:0:0:
64,192,69936,1,0,0:0:0:0:
448,192,69983,1,0,0:0:0:0:
192,192,70031,1,0,0:0:0:0:
320,192,70126,1,0,0:0:0:0:
64,192,70126,1,0,0:0:0:0:
320,192,70222,1,0,0:0:0:0:
448,192,70222,1,0,0:0:0:0:
192,192,70269,1,0,0:0:0:0:
64,192,70317,1,0,0:0:0:0:
448,192,70364,1,0,0:0:0:0:
192,192,70412,1,0,0:0:0:0:
320,192,70460,1,0,0:0:0:0:
448,192,70507,1,0,0:0:0:0:
64,192,70507,1,0,0:0:0:0:
192,192,70602,1,0,0:0:0:0:
320,192,70650,1,0,0:0:0:0:
64,192,70698,1,0,0:0:0:0:
192,192,70745,1,0,0:0:0:0:
448,192,70793,1,0,0:0:0:0:
320,192,70829,1,0,0:0:0:0:
64,192,70864,1,0,0:0:0:0:
448,192,70900,1,0,0:0:0:0:
192,192,70936,1,0,0:0:0:0:
320,192,70983,1,0,0:0:0:0:
192,192,71079,1,0,0:0:0:0:
64,192,71079,1,0,0:0:0:0:
448,192,71079,1,0,0:0:0:0:
192,192,71174,1,0,0:0:0:0:
448,192,71222,1,0,0:0:0:0:
64,192,71269,1,0,0:0:0:0:
320,192,71317,1,0,0:0:0:0:
192,192,71364,1,0,0:0:0:0:
64,192,71400,1,0,0:0:0:0:
448,192,71436,1,0,0:0:0:0:
192,192,71507,1,0,0:0:0:0:
320,192,71555,1,0,0:0:0:0:
448,192,71602,1,0,0:0:0:0:
64,192,71650,1,0,0:0:0:0:
192,192,71745,1,0,0:0:0:0:
320,192,71793,1,0,0:0:0:0:
64,192,71841,1,0,0:0:0:0:
448,192,71888,1,0,0:0:0:0:
320,192,71936,1,0,0:0:0:0:
64,192,72007,1,0,0:0:0:0:
192,192,72079,1,0,0:0:0:0:
320,192,72150,1,0,0:0:0:0:
192,192,72222,1,0,0:0:0:0:
320,192,72317,1,0,0:0:0:0:
448,192,72412,1,0,0:0:0:0:
64,192,72507,1,0,0:0:0:0:
448,192,72698,1,0,0:0:0:0:
192,192,72745,1,0,0:0:0:0:
64,192,72793,1,0,0:0:0:0:
320,192,72888,1,0,0:0:0:0:
320,192,72983,1,0,0:0:0:0:
64,192,73079,1,0,0:0:0:0:
448,192,73174,1,0,0:0:0:0:
448,192,73269,1,0,0:0:0:0:
64,192,73364,1,0,0:0:0:0:
192,192,73364,1,0,0:0:0:0:
320,192,73364,1,0,0:0:0:0:
448,192,73412,1,0,0:0:0:0:
64,192,73460,1,0,0:0:0:0:
192,192,73507,1,0,0:0:0:0:
320,192,73555,1,0,0:0:0:0:
192,192,73602,1,0,0:0:0:0:
64,192,73650,1,0,0:0:0:0:
448,192,73841,1,0,0:0:0:0:
320,192,73864,1,0,0:0:0:0:
192,192,73900,1,0,0:0:0:0:
64,192,73936,1,0,0:0:0:0:
448,192,73936,1,0,0:0:0:0:
192,192,74126,1,0,0:0:0:0:
448,192,74150,1,0,0:0:0:0:
320,192,74174,1,0,0:0:0:0:
64,192,74222,1,0,0:0:0:0:
192,192,74317,1,0,0:0:0:0:
448,192,74341,1,0,0:0:0:0:
320,192,74364,1,0,0:0:0:0:
64,192,74412,1,0,0:0:0:0:
192,192,74412,1,0,0:0:0:0:
448,192,74555,1,0,0:0:0:0:
192,192,74602,1,0,0:0:0:0:
320,192,74650,1,0,0:0:0:0:
64,192,74698,1,0,0:0:0:0:
448,192,74698,1,0,0:0:0:0:
320,192,74793,1,0,0:0:0:0:
448,192,74793,1,0,0:0:0:0:
64,192,74983,1,0,0:0:0:0:
192,192,75007,1,0,0:0:0:0:
320,192,75043,1,0,0:0:0:0:
64,192,75079,1,0,0:0:0:0:
448,192,75079,1,0,0:0:0:0:
192,192,75269,1,0,0:0:0:0:
448,192,75293,1,0,0:0:0:0:
320,192,75317,1,0,0:0:0:0:
64,192,75364,1,0,0:0:0:0:
192,192,75460,1,0,0:0:0:0:
448,192,75483,1,0,0:0:0:0:
320,192,75507,1,0,0:0:0:0:
64,192,75650,1,0,0:0:0:0:
192,192,75650,1,0,0:0:0:0:
448,192,75698,1,0,0:0:0:0:
64,192,75745,1,0,0:0:0:0:
320,192,75793,1,0,0:0:0:0:
192,192,75841,1,0,0:0:0:0:
64,192,75888,1,0,0:0:0:0:
448,192,75936,1,0,0:0:0:0:
448,192,76126,1,0,0:0:0:0:
320,192,76150,1,0,0:0:0:0:
192,192,76186,1,0,0:0:0:0:
448,192,76222,1,0,0:0:0:0:
64,192,76222,1,0,0:0:0:0:
320,192,76412,1,0,0:0:0:0:
64,192,76436,1,0,0:0:0:0:
192,192,76460,1,0,0:0:0:0:
448,192,76507,1,0,0:0:0:0:
320,192,76602,1,0,0:0:0:0:
64,192,76626,1,0,0:0:0:0:
192,192,76650,1,0,0:0:0:0:
320,192,76698,1,0,0:0:0:0:
448,192,76698,1,0,0:0:0:0:
192,192,76793,1,0,0:0:0:0:
320,192,76841,1,0,0:0:0:0:
448,192,76888,1,0,0:0:0:0:
64,192,76936,1,0,0:0:0:0:
192,192,76983,1,0,0:0:0:0:
320,192,76983,1,0,0:0:0:0:
192,192,77079,1,0,0:0:0:0:
64,192,77079,1,0,0:0:0:0:
192,192,77364,1,0,0:0:0:0:
448,192,77364,1,0,0:0:0:0:
320,192,77412,1,0,0:0:0:0:
64,192,77460,1,0,0:0:0:0:
448,192,77507,1,0,0:0:0:0:
320,192,77555,1,0,0:0:0:0:
192,192,77555,1,0,0:0:0:0:
64,192,77602,1,0,0:0:0:0:
448,192,77650,1,0,0:0:0:0:
320,192,77698,1,0,0:0:0:0:
192,192,77745,1,0,0:0:0:0:
64,192,77936,1,0,0:0:0:0:
448,192,77936,1,0,0:0:0:0:
320,192,77983,1,0,0:0:0:0:
64,192,78031,1,0,0:0:0:0:
192,192,78079,1,0,0:0:0:0:
320,192,78126,1,0,0:0:0:0:
192,192,78174,1,0,0:0:0:0:
64,192,78222,1,0,0:0:0:0:
448,192,78412,1,0,0:0:0:0:
320,192,78436,1,0,0:0:0:0:
192,192,78472,1,0,0:0:0:0:
64,192,78507,1,0,0:0:0:0:
448,192,78507,1,0,0:0:0:0:
192,192,78698,1,0,0:0:0:0:
448,192,78722,1,0,0:0:0:0:
320,192,78745,1,0,0:0:0:0:
64,192,78793,1,0,0:0:0:0:
192,192,78888,1,0,0:0:0:0:
448,192,78912,1,0,0:0:0:0:
320,192,78936,1,0,0:0:0:0:
64,192,78983,1,0,0:0:0:0:
192,192,78983,1,0,0:0:0:0:
448,192,79126,1,0,0:0:0:0:
192,192,79174,1,0,0:0:0:0:
320,192,79222,1,0,0:0:0:0:
64,192,79269,1,0,0:0:0:0:
448,192,79269,1,0,0:0:0:0:
320,192,79364,1,0,0:0:0:0:
448,192,79364,1,0,0:0:0:0:
64,192,79555,1,0,0:0:0:0:
192,192,79579,1,0,0:0:0:0:
320,192,79614,1,0,0:0:0:0:
64,192,79650,1,0,0:0:0:0:
448,192,79650,1,0,0:0:0:0:
192,192,79841,1,0,0:0:0:0:
448,192,79864,1,0,0:0:0:0:
320,192,79888,1,0,0:0:0:0:
64,192,79936,1,0,0:0:0:0:
192,192,80031,1,0,0:0:0:0:
448,192,80055,1,0,0:0:0:0:
320,192,80079,1,0,0:0:0:0:
64,192,80222,1,0,0:0:0:0:
192,192,80222,1,0,0:0:0:0:
448,192,80269,1,0,0:0:0:0:
64,192,80317,1,0,0:0:0:0:
320,192,80364,1,0,0:0:0:0:
192,192,80412,1,0,0:0:0:0:
64,192,80460,1,0,0:0:0:0:
448,192,80507,1,0,0:0:0:0:
448,192,80698,1,0,0:0:0:0:
320,192,80722,1,0,0:0:0:0:
192,192,80757,1,0,0:0:0:0:
448,192,80793,1,0,0:0:0:0:
64,192,80793,1,0,0:0:0:0:
320,192,80983,1,0,0:0:0:0:
64,192,81007,1,0,0:0:0:0:
192,192,81031,1,0,0:0:0:0:
448,192,81079,1,0,0:0:0:0:
320,192,81174,1,0,0:0:0:0:
64,192,81198,1,0,0:0:0:0:
192,192,81222,1,0,0:0:0:0:
320,192,81269,1,0,0:0:0:0:
448,192,81269,1,0,0:0:0:0:
64,192,81364,1,0,0:0:0:0:
192,192,81400,1,0,0:0:0:0:
320,192,81436,1,0,0:0:0:0:
448,192,81472,1,0,0:0:0:0:
64,192,81507,1,0,0:0:0:0:
192,192,81555,1,0,0:0:0:0:
320,192,81555,1,0,0:0:0:0:
192,192,81650,1,0,0:0:0:0:
64,192,81650,1,0,0:0:0:0:
448,192,81698,1,0,0:0:0:0:
320,192,81745,1,0,0:0:0:0:
192,192,81793,1,0,0:0:0:0:
64,192,81936,1,0,0:0:0:0:
448,192,81936,1,0,0:0:0:0:
192,192,81983,1,0,0:0:0:0:
320,192,82031,1,0,0:0:0:0:
448,192,82126,1,0,0:0:0:0:
64,192,82126,1,0,0:0:0:0:
320,192,82222,1,0,0:0:0:0:
64,192,82269,1,0,0:0:0:0:
320,192,82317,1,0,0:0:0:0:
192,192,82364,1,0,0:0:0:0:
448,192,82412,1,0,0:0:0:0:
64,192,82507,1,0,0:0:0:0:
192,192,82507,1,0,0:0:0:0:
448,192,82555,1,0,0:0:0:0:
64,192,82602,1,0,0:0:0:0:
320,192,82650,1,0,0:0:0:0:
192,192,82698,1,0,0:0:0:0:
320,192,82745,1,0,0:0:0:0:
64,192,82793,1,0,0:0:0:0:
448,192,82841,1,0,0:0:0:0:
192,192,82888,1,0,0:0:0:0:
64,192,82936,1,0,0:0:0:0:
448,192,82983,1,0,0:0:0:0:
320,192,83007,1,0,0:0:0:0:
192,192,83043,1,0,0:0:0:0:
448,192,83079,1,0,0:0:0:0:
64,192,83079,1,0,0:0:0:0:
192,192,83269,1,0,0:0:0:0:
448,192,83293,1,0,0:0:0:0:
320,192,83317,1,0,0:0:0:0:
64,192,83364,1,0,0:0:0:0:
192,192,83460,1,0,0:0:0:0:
448,192,83483,1,0,0:0:0:0:
320,192,83507,1,0,0:0:0:0:
192,192,83555,1,0,0:0:0:0:
64,192,83555,1,0,0:0:0:0:
320,192,83650,1,0,0:0:0:0:
448,192,83698,1,0,0:0:0:0:
192,192,83745,1,0,0:0:0:0:
320,192,83793,1,0,0:0:0:0:
448,192,83841,1,0,0:0:0:0:
64,192,83841,1,0,0:0:0:0:
448,192,83936,1,0,0:0:0:0:
320,192,83936,1,0,0:0:0:0:
448,192,84126,1,0,0:0:0:0:
320,192,84150,1,0,0:0:0:0:
192,192,84186,1,0,0:0:0:0:
64,192,84222,1,0,0:0:0:0:
448,192,84222,1,0,0:0:0:0:
192,192,84412,1,0,0:0:0:0:
448,192,84436,1,0,0:0:0:0:
320,192,84460,1,0,0:0:0:0:
64,192,84507,1,0,0:0:0:0:
192,192,84602,1,0,0:0:0:0:
448,192,84626,1,0,0:0:0:0:
320,192,84650,1,0,0:0:0:0:
192,192,84793,1,0,0:0:0:0:
64,192,84793,1,0,0:0:0:0:
448,192,84841,1,0,0:0:0:0:
64,192,84888,1,0,0:0:0:0:
320,192,84936,1,0,0:0:0:0:
192,192,84983,1,0,0:0:0:0:
64,192,85031,1,0,0:0:0:0:
448,192,85079,1,0,0:0:0:0:
192,192,85126,1,0,0:0:0:0:
320,192,85174,1,0,0:0:0:0:
64,192,85222,1,0,0:0:0:0:
448,192,85269,1,0,0:0:0:0:
320,192,85293,1,0,0:0:0:0:
192,192,85329,1,0,0:0:0:0:
64,192,85364,1,0,0:0:0:0:
448,192,85364,1,0,0:0:0:0:
320,192,85555,1,0,0:0:0:0:
64,192,85579,1,0,0:0:0:0:
192,192,85602,1,0,0:0:0:0:
448,192,85650,1,0,0:0:0:0:
320,192,85745,1,0,0:0:0:0:
64,192,85769,1,0,0:0:0:0:
192,192,85793,1,0,0:0:0:0:
448,192,85841,1,0,0:0:0:0:
320,192,85841,1,0,0:0:0:0:
192,192,85936,1,0,0:0:0:0:
320,192,85983,1,0,0:0:0:0:
448,192,86031,1,0,0:0:0:0:
64,192,86079,1,0,0:0:0:0:
320,192,86126,1,0,0:0:0:0:
192,192,86126,1,0,0:0:0:0:
64,192,86222,1,0,0:0:0:0:
192,192,86222,1,0,0:0:0:0:
448,192,86317,1,0,0:0:0:0:
192,192,86364,1,0,0:0:0:0:
320,192,86412,1,0,0:0:0:0:
64,192,86460,1,0,0:0:0:0:
448,192,86507,1,0,0:0:0:0:
192,192,86507,1,0,0:0:0:0:
320,192,86555,1,0,0:0:0:0:
64,192,86602,1,0,0:0:0:0:
448,192,86650,1,0,0:0:0:0:
192,192,86698,1,0,0:0:0:0:
320,192,86698,1,0,0:0:0:0:
64,192,86745,1,0,0:0:0:0:
448,192,86793,1,0,0:0:0:0:
320,192,86841,1,0,0:0:0:0:
192,192,86888,1,0,0:0:0:0:
448,192,87079,1,0,0:0:0:0:
64,192,87079,1,0,0:0:0:0:
320,192,87126,1,0,0:0:0:0:
64,192,87174,1,0,0:0:0:0:
192,192,87222,1,0,0:0:0:0:
320,192,87269,1,0,0:0:0:0:
192,192,87317,1,0,0:0:0:0:
64,192,87364,1,0,0:0:0:0:
448,192,87412,1,0,0:0:0:0:
192,192,87460,1,0,0:0:0:0:
320,192,87507,1,0,0:0:0:0:
64,192,87555,1,0,0:0:0:0:
192,192,87579,1,0,0:0:0:0:
320,192,87614,1,0,0:0:0:0:
64,192,87650,1,0,0:0:0:0:
448,192,87650,1,0,0:0:0:0:
192,192,87841,1,0,0:0:0:0:
448,192,87864,1,0,0:0:0:0:
320,192,87888,1,0,0:0:0:0:
64,192,87936,1,0,0:0:0:0:
192,192,88031,1,0,0:0:0:0:
448,192,88055,1,0,0:0:0:0:
320,192,88079,1,0,0:0:0:0:
192,192,88126,1,0,0:0:0:0:
64,192,88126,1,0,0:0:0:0:
320,192,88222,1,0,0:0:0:0:
448,192,88269,1,0,0:0:0:0:
192,192,88317,1,0,0:0:0:0:
320,192,88364,1,0,0:0:0:0:
448,192,88412,1,0,0:0:0:0:
64,192,88412,1,0,0:0:0:0:
448,192,88507,1,0,0:0:0:0:
320,192,88507,1,0,0:0:0:0:
448,192,88698,1,0,0:0:0:0:
320,192,88722,1,0,0:0:0:0:
192,192,88757,1,0,0:0:0:0:
64,192,88793,1,0,0:0:0:0:
448,192,88793,1,0,0:0:0:0:
192,192,88983,1,0,0:0:0:0:
448,192,89007,1,0,0:0:0:0:
320,192,89031,1,0,0:0:0:0:
64,192,89079,1,0,0:0:0:0:
192,192,89174,1,0,0:0:0:0:
448,192,89198,1,0,0:0:0:0:
320,192,89222,1,0,0:0:0:0:
192,192,89364,1,0,0:0:0:0:
64,192,89364,1,0,0:0:0:0:
448,192,89364,1,0,0:0:0:0:
448,192,89460,1,0,0:0:0:0:
320,192,89507,1,0,0:0:0:0:
64,192,89555,1,0,0:0:0:0:
192,192,89555,1,0,0:0:0:0:
192,192,89650,1,0,0:0:0:0:
320,192,89745,1,0,0:0:0:0:
64,192,89745,1,0,0:0:0:0:
320,192,89841,1,0,0:0:0:0:
64,192,89936,1,0,0:0:0:0:
448,192,89936,1,0,0:0:0:0:
448,192,90031,1,0,0:0:0:0:
320,192,90126,1,0,0:0:0:0:
192,192,90126,1,0,0:0:0:0:
64,192,90126,1,0,0:0:0:0:
64,192,90222,1,0,0:0:0:0:
320,192,90317,1,0,0:0:0:0:
448,192,90317,1,0,0:0:0:0:
320,192,90412,1,0,0:0:0:0:
448,192,90507,1,0,0:0:0:0:
192,192,90507,1,0,0:0:0:0:
448,192,90602,1,0,0:0:0:0:
320,192,90650,1,0,0:0:0:0:
192,192,90698,1,0,0:0:0:0:
64,192,90698,1,0,0:0:0:0:
64,192,90793,1,0,0:0:0:0:
192,192,90841,1,0,0:0:0:0:
320,192,90888,1,0,0:0:0:0:
448,192,90888,1,0,0:0:0:0:
64,192,90983,1,0,0:0:0:0:
192,192,90983,1,0,0:0:0:0:
64,192,91079,1,0,0:0:0:0:
192,192,91079,1,0,0:0:0:0:
64,192,91174,1,0,0:0:0:0:
448,192,91174,1,0,0:0:0:0:
192,192,91174,1,0,0:0:0:0:
448,192,91269,1,0,0:0:0:0:
64,192,91364,1,0,0:0:0:0:
448,192,91364,1,0,0:0:0:0:
192,192,91364,1,0,0:0:0:0:
448,192,91460,1,0,0:0:0:0:
448,192,91555,1,0,0:0:0:0:
64,192,91650,1,0,0:0:0:0:
192,192,91650,1,0,0:0:0:0:
320,192,91650,1,0,0:0:0:0:
448,192,91698,1,0,0:0:0:0:
64,192,91745,1,0,0:0:0:0:
192,192,91793,1,0,0:0:0:0:
320,192,91841,1,0,0:0:0:0:
192,192,91888,1,0,0:0:0:0:
64,192,91936,1,0,0:0:0:0:
448,192,91972,1,0,0:0:0:0:
448,192,92126,1,0,0:0:0:0:
64,192,92126,1,0,0:0:0:0:
192,192,92174,1,0,0:0:0:0:
320,192,92222,1,0,0:0:0:0:
448,192,92222,1,0,0:0:0:0:
64,192,92412,1,0,0:0:0:0:
192,192,92436,1,0,0:0:0:0:
448,192,92460,1,0,0:0:0:0:
320,192,92507,1,0,0:0:0:0:
64,192,92507,1,0,0:0:0:0:
448,192,92602,1,0,0:0:0:0:
192,192,92626,1,0,0:0:0:0:
64,192,92650,1,0,0:0:0:0:
320,192,92698,1,0,0:0:0:0:
64,192,92793,1,0,0:0:0:0:
192,192,92793,1,0,0:0:0:0:
448,192,92841,1,0,0:0:0:0:
320,192,92888,1,0,0:0:0:0:
192,192,92936,1,0,0:0:0:0:
320,192,92983,1,0,0:0:0:0:
448,192,93031,1,0,0:0:0:0:
64,192,93079,1,0,0:0:0:0:
192,192,93174,1,0,0:0:0:0:
64,192,93269,1,0,0:0:0:0:
448,192,93269,1,0,0:0:0:0:
320,192,93317,1,0,0:0:0:0:
64,192,93364,1,0,0:0:0:0:
192,192,93364,1,0,0:0:0:0:
64,192,93555,1,0,0:0:0:0:
192,192,93579,1,0,0:0:0:0:
448,192,93602,1,0,0:0:0:0:
64,192,93650,1,0,0:0:0:0:
320,192,93650,1,0,0:0:0:0:
448,192,93745,1,0,0:0:0:0:
192,192,93769,1,0,0:0:0:0:
320,192,93793,1,0,0:0:0:0:
64,192,93936,1,0,0:0:0:0:
448,192,93936,1,0,0:0:0:0:
320,192,93936,1,0,0:0:0:0:
192,192,93983,1,0,0:0:0:0:
448,192,94031,1,0,0:0:0:0:
192,192,94079,1,0,0:0:0:0:
320,192,94126,1,0,0:0:0:0:
64,192,94174,1,0,0:0:0:0:
448,192,94222,1,0,0:0:0:0:
192,192,94269,1,0,0:0:0:0:
320,192,94317,1,0,0:0:0:0:
64,192,94364,1,0,0:0:0:0:
448,192,94412,1,0,0:0:0:0:
192,192,94412,1,0,0:0:0:0:
320,192,94460,1,0,0:0:0:0:
64,192,94507,1,0,0:0:0:0:
192,192,94507,1,0,0:0:0:0:
192,192,94698,1,0,0:0:0:0:
64,192,94722,1,0,0:0:0:0:
320,192,94745,1,0,0:0:0:0:
448,192,94793,1,0,0:0:0:0:
192,192,94793,1,0,0:0:0:0:
320,192,94888,1,0,0:0:0:0:
64,192,94912,1,0,0:0:0:0:
192,192,94936,1,0,0:0:0:0:
448,192,94983,1,0,0:0:0:0:
192,192,95079,1,0,0:0:0:0:
64,192,95079,1,0,0:0:0:0:
320,192,95126,1,0,0:0:0:0:
64,192,95174,1,0,0:0:0:0:
448,192,95222,1,0,0:0:0:0:
192,192,95269,1,0,0:0:0:0:
320,192,95317,1,0,0:0:0:0:
448,192,95364,1,0,0:0:0:0:
192,192,95412,1,0,0:0:0:0:
320,192,95460,1,0,0:0:0:0:
64,192,95507,1,0,0:0:0:0:
192,192,95555,1,0,0:0:0:0:
448,192,95555,1,0,0:0:0:0:
448,192,95650,1,0,0:0:0:0:
320,192,95650,1,0,0:0:0:0:
192,192,95698,1,0,0:0:0:0:
64,192,95745,1,0,0:0:0:0:
448,192,95793,1,0,0:0:0:0:
320,192,95841,1,0,0:0:0:0:
64,192,95888,1,0,0:0:0:0:
448,192,95936,1,0,0:0:0:0:
192,192,95936,1,0,0:0:0:0:
320,192,95983,1,0,0:0:0:0:
64,192,96031,1,0,0:0:0:0:
320,192,96126,1,0,0:0:0:0:
448,192,96222,1,0,0:0:0:0:
192,192,96222,1,0,0:0:0:0:
64,192,96222,1,0,0:0:0:0:
320,192,96269,1,0,0:0:0:0:
64,192,96317,1,0,0:0:0:0:
192,192,96364,1,0,0:0:0:0:
320,192,96412,1,0,0:0:0:0:
192,192,96460,1,0,0:0:0:0:
64,192,96507,1,0,0:0:0:0:
448,192,96543,1,0,0:0:0:0:
64,192,96698,1,0,0:0:0:0:
448,192,96698,1,0,0:0:0:0:
192,192,96745,1,0,0:0:0:0:
448,192,96793,1,0,0:0:0:0:
320,192,96793,1,0,0:0:0:0:
64,192,96983,1,0,0:0:0:0:
192,192,97007,1,0,0:0:0:0:
448,192,97031,1,0,0:0:0:0:
64,192,97079,1,0,0:0:0:0:
320,192,97079,1,0,0:0:0:0:
448,192,97174,1,0,0:0:0:0:
192,192,97198,1,0,0:0:0:0:
64,192,97222,1,0,0:0:0:0:
320,192,97269,1,0,0:0:0:0:
192,192,97364,1,0,0:0:0:0:
64,192,97364,1,0,0:0:0:0:
448,192,97412,1,0,0:0:0:0:
320,192,97460,1,0,0:0:0:0:
192,192,97507,1,0,0:0:0:0:
320,192,97555,1,0,0:0:0:0:
448,192,97602,1,0,0:0:0:0:
64,192,97650,1,0,0:0:0:0:
192,192,97745,1,0,0:0:0:0:
448,192,97841,1,0,0:0:0:0:
64,192,97841,1,0,0:0:0:0:
320,192,97888,1,0,0:0:0:0:
192,192,97936,1,0,0:0:0:0:
64,192,97936,1,0,0:0:0:0:
64,192,98126,1,0,0:0:0:0:
192,192,98150,1,0,0:0:0:0:
448,192,98174,1,0,0:0:0:0:
320,192,98222,1,0,0:0:0:0:
64,192,98222,1,0,0:0:0:0:
448,192,98317,1,0,0:0:0:0:
192,192,98341,1,0,0:0:0:0:
320,192,98364,1,0,0:0:0:0:
320,192,98507,1,0,0:0:0:0:
448,192,98507,1,0,0:0:0:0:
64,192,98507,1,0,0:0:0:0:
192,192,98555,1,0,0:0:0:0:
448,192,98602,1,0,0:0:0:0:
192,192,98650,1,0,0:0:0:0:
320,192,98698,1,0,0:0:0:0:
64,192,98745,1,0,0:0:0:0:
448,192,98793,1,0,0:0:0:0:
192,192,98841,1,0,0:0:0:0:
320,192,98888,1,0,0:0:0:0:
64,192,98936,1,0,0:0:0:0:
192,192,98983,1,0,0:0:0:0:
448,192,98983,1,0,0:0:0:0:
320,192,99031,1,0,0:0:0:0:
192,192,99079,1,0,0:0:0:0:
64,192,99079,1,0,0:0:0:0:
192,192,99269,1,0,0:0:0:0:
64,192,99293,1,0,0:0:0:0:
320,192,99317,1,0,0:0:0:0:
192,192,99364,1,0,0:0:0:0:
448,192,99364,1,0,0:0:0:0:
320,192,99460,1,0,0:0:0:0:
64,192,99483,1,0,0:0:0:0:
192,192,99507,1,0,0:0:0:0:
448,192,99555,1,0,0:0:0:0:
64,192,99650,1,0,0:0:0:0:
192,192,99650,1,0,0:0:0:0:
320,192,99698,1,0,0:0:0:0:
448,192,99722,1,0,0:0:0:0:
64,192,99745,1,0,0:0:0:0:
192,192,99793,1,0,0:0:0:0:
448,192,99936,1,0,0:0:0:0:
320,192,99960,1,0,0:0:0:0:
64,192,99983,1,0,0:0:0:0:
192,192,100031,1,0,0:0:0:0:
64,192,100126,1,0,0:0:0:0:
448,192,100126,1,0,0:0:0:0:
320,192,100222,1,0,0:0:0:0:
448,192,100222,1,0,0:0:0:0:
192,192,100269,1,0,0:0:0:0:
64,192,100293,1,0,0:0:0:0:
320,192,100317,1,0,0:0:0:0:
448,192,100364,1,0,0:0:0:0:
192,192,100412,1,0,0:0:0:0:
448,192,100507,1,0,0:0:0:0:
64,192,100507,1,0,0:0:0:0:
320,192,100555,1,0,0:0:0:0:
192,192,100579,1,0,0:0:0:0:
448,192,100602,1,0,0:0:0:0:
320,192,100698,1,0,0:0:0:0:
64,192,100793,1,0,0:0:0:0:
192,192,100793,1,0,0:0:0:0:
448,192,100793,1,0,0:0:0:0:
320,192,100841,1,0,0:0:0:0:
64,192,100888,1,0,0:0:0:0:
192,192,100936,1,0,0:0:0:0:
320,192,100983,1,0,0:0:0:0:
192,192,101031,1,0,0:0:0:0:
64,192,101079,1,0,0:0:0:0:
448,192,101114,1,0,0:0:0:0:
448,192,101269,1,0,0:0:0:0:
64,192,101269,1,0,0:0:0:0:
192,192,101317,1,0,0:0:0:0:
320,192,101364,1,0,0:0:0:0:
448,192,101364,1,0,0:0:0:0:
64,192,101555,1,0,0:0:0:0:
192,192,101579,1,0,0:0:0:0:
448,192,101602,1,0,0:0:0:0:
320,192,101650,1,0,0:0:0:0:
64,192,101650,1,0,0:0:0:0:
448,192,101745,1,0,0:0:0:0:
192,192,101769,1,0,0:0:0:0:
64,192,101793,1,0,0:0:0:0:
320,192,101841,1,0,0:0:0:0:
64,192,101936,1,0,0:0:0:0:
192,192,101936,1,0,0:0:0:0:
448,192,101983,1,0,0:0:0:0:
320,192,102031,1,0,0:0:0:0:
192,192,102079,1,0,0:0:0:0:
320,192,102126,1,0,0:0:0:0:
448,192,102174,1,0,0:0:0:0:
64,192,102222,1,0,0:0:0:0:
192,192,102317,1,0,0:0:0:0:
64,192,102412,1,0,0:0:0:0:
448,192,102412,1,0,0:0:0:0:
320,192,102460,1,0,0:0:0:0:
64,192,102507,1,0,0:0:0:0:
192,192,102507,1,0,0:0:0:0:
64,192,102698,1,0,0:0:0:0:
192,192,102722,1,0,0:0:0:0:
448,192,102745,1,0,0:0:0:0:
64,192,102793,1,0,0:0:0:0:
320,192,102793,1,0,0:0:0:0:
448,192,102888,1,0,0:0:0:0:
192,192,102912,1,0,0:0:0:0:
320,192,102936,1,0,0:0:0:0:
64,192,103079,1,0,0:0:0:0:
448,192,103079,1,0,0:0:0:0:
320,192,103079,1,0,0:0:0:0:
192,192,103126,1,0,0:0:0:0:
448,192,103174,1,0,0:0:0:0:
192,192,103222,1,0,0:0:0:0:
320,192,103269,1,0,0:0:0:0:
64,192,103317,1,0,0:0:0:0:
448,192,103364,1,0,0:0:0:0:
192,192,103412,1,0,0:0:0:0:
320,192,103460,1,0,0:0:0:0:
64,192,103507,1,0,0:0:0:0:
448,192,103555,1,0,0:0:0:0:
192,192,103555,1,0,0:0:0:0:
320,192,103602,1,0,0:0:0:0:
64,192,103650,1,0,0:0:0:0:
192,192,103650,1,0,0:0:0:0:
192,192,103841,1,0,0:0:0:0:
64,192,103864,1,0,0:0:0:0:
320,192,103888,1,0,0:0:0:0:
448,192,103936,1,0,0:0:0:0:
192,192,103936,1,0,0:0:0:0:
320,192,104031,1,0,0:0:0:0:
64,192,104055,1,0,0:0:0:0:
192,192,104079,1,0,0:0:0:0:
448,192,104126,1,0,0:0:0:0:
192,192,104222,1,0,0:0:0:0:
64,192,104222,1,0,0:0:0:0:
320,192,104269,1,0,0:0:0:0:
64,192,104317,1,0,0:0:0:0:
448,192,104341,1,0,0:0:0:0:
192,192,104483,1,0,0:0:0:0:
64,192,104507,1,0,0:0:0:0:
448,192,104555,1,0,0:0:0:0:
320,192,104602,1,0,0:0:0:0:
192,192,104674,1,0,0:0:0:0:
64,192,104698,1,0,0:0:0:0:
448,192,104698,1,0,0:0:0:0:
320,192,104745,1,0,0:0:0:0:
64,192,104793,1,0,0:0:0:0:
192,192,104793,1,0,0:0:0:0:
448,192,104888,1,0,0:0:0:0:
64,192,104912,1,0,0:0:0:0:
192,192,104936,1,0,0:0:0:0:
320,192,104983,1,0,0:0:0:0:
448,192,105079,1,0,0:0:0:0:
64,192,105079,1,0,0:0:0:0:
192,192,105126,1,0,0:0:0:0:
320,192,105174,1,0,0:0:0:0:
64,192,105269,1,0,0:0:0:0:
192,192,105317,1,0,0:0:0:0:
448,192,105364,1,0,0:0:0:0:
320,192,105364,1,0,0:0:0:0:
64,192,105364,1,0,0:0:0:0:
448,192,105460,1,0,0:0:0:0:
320,192,105507,1,0,0:0:0:0:
192,192,105555,1,0,0:0:0:0:
64,192,105555,1,0,0:0:0:0:
192,192,105650,1,0,0:0:0:0:
64,192,105745,1,0,0:0:0:0:
320,192,105745,1,0,0:0:0:0:
320,192,105841,1,0,0:0:0:0:
192,192,105888,1,0,0:0:0:0:
448,192,105936,1,0,0:0:0:0:
64,192,105936,1,0,0:0:0:0:
448,192,106031,1,0,0:0:0:0:
64,192,106126,1,0,0:0:0:0:
192,192,106126,1,0,0:0:0:0:
320,192,106126,1,0,0:0:0:0:
448,192,106174,1,0,0:0:0:0:
64,192,106222,1,0,0:0:0:0:
448,192,106317,1,0,0:0:0:0:
320,192,106317,1,0,0:0:0:0:
320,192,106412,1,0,0:0:0:0:
192,192,106507,1,0,0:0:0:0:
448,192,106507,1,0,0:0:0:0:
64,192,106555,1,0,0:0:0:0:
448,192,106602,1,0,0:0:0:0:
320,192,106650,1,0,0:0:0:0:
64,192,106698,1,0,0:0:0:0:
192,192,106698,1,0,0:0:0:0:
192,192,106793,1,0,0:0:0:0:
448,192,106888,1,0,0:0:0:0:
320,192,106888,1,0,0:0:0:0:
64,192,106888,1,0,0:0:0:0:
448,192,106983,1,0,0:0:0:0:
64,192,107079,1,0,0:0:0:0:
192,192,107079,1,0,0:0:0:0:
192,192,107174,1,0,0:0:0:0:
320,192,107269,1,0,0:0:0:0:
448,192,107269,1,0,0:0:0:0:
448,192,107364,1,0,0:0:0:0:
192,192,107460,1,0,0:0:0:0:
64,192,107460,1,0,0:0:0:0:
448,192,107555,1,0,0:0:0:0:
320,192,107602,1,0,0:0:0:0:
192,192,107650,1,0,0:0:0:0:
64,192,107650,1,0,0:0:0:0:
448,192,107714,1,0,0:0:0:0:
320,192,107745,1,0,0:0:0:0:
192,192,107777,1,0,0:0:0:0:
64,192,107841,1,0,0:0:0:0:
448,192,107841,1,0,0:0:0:0:
320,192,107904,1,0,0:0:0:0:
192,192,107968,1,0,0:0:0:0:
448,192,108031,1,0,0:0:0:0:
320,192,108031,1,0,0:0:0:0:
64,192,108095,1,0,0:0:0:0:
192,192,108126,1,0,0:0:0:0:
448,192,108158,1,0,0:0:0:0:
320,192,108222,1,0,0:0:0:0:
64,192,108222,1,0,0:0:0:0:
192,192,108285,1,0,0:0:0:0:
320,192,108348,1,0,0:0:0:0:
192,192,108412,1,0,0:0:0:0:
64,192,108412,1,0,0:0:0:0:
448,192,108444,1,0,0:0:0:0:
320,192,108475,1,0,0:0:0:0:
64,192,108539,1,0,0:0:0:0:
448,192,108602,1,0,0:0:0:0:
192,192,108602,1,0,0:0:0:0:
320,192,108666,1,0,0:0:0:0:
448,192,108729,1,0,0:0:0:0:
192,192,108793,1,0,0:0:0:0:
64,192,108793,1,0,0:0:0:0:
320,192,108841,1,0,0:0:0:0:
448,192,108888,1,0,0:0:0:0:
64,192,108936,1,0,0:0:0:0:
320,192,108983,1,0,0:0:0:0:
192,192,108983,1,0,0:0:0:0:
448,192,109079,1,0,0:0:0:0:
320,192,109126,1,0,0:0:0:0:
192,192,109174,1,0,0:0:0:0:
64,192,109174,1,0,0:0:0:0:
448,192,109269,1,0,0:0:0:0:
320,192,109269,1,0,0:0:0:0:
448,192,109364,1,0,0:0:0:0:
320,192,109364,1,0,0:0:0:0:
64,192,109412,1,0,0:0:0:0:
192,192,109460,1,0,0:0:0:0:
192,192,109555,1,0,0:0:0:0:
64,192,109650,1,0,0:0:0:0:
448,192,109698,1,0,0:0:0:0:
192,192,109745,1,0,0:0:0:0:
192,192,109841,1,0,0:0:0:0:
320,192,109936,1,0,0:0:0:0:
448,192,109936,1,0,0:0:0:0:
64,192,110031,1,0,0:0:0:0:
448,192,110126,1,0,0:0:0:0:
64,192,110222,1,0,0:0:0:0:
448,192,110317,1,0,0:0:0:0:
64,192,110412,1,0,0:0:0:0:
448,192,110507,1,0,0:0:0:0:
64,192,110602,1,0,0:0:0:0:
448,192,110698,1,0,0:0:0:0:
64,192,110793,1,0,0:0:0:0:
448,192,110888,1,0,0:0:0:0:
64,192,110983,1,0,0:0:0:0:
448,192,111079,1,0,0:0:0:0:
64,192,111174,1,0,0:0:0:0:
448,192,111269,1,0,0:0:0:0:
64,192,111364,1,0,0:0:0:0:
448,192,111460,1,0,0:0:0:0:
64,192,111555,1,0,0:0:0:0:
320,192,111650,1,0,0:0:0:0:
448,192,111698,1,0,0:0:0:0:
64,192,111745,1,0,0:0:0:0:
192,192,111841,1,0,0:0:0:0:
64,192,111936,1,0,0:0:0:0:
192,192,112031,1,0,0:0:0:0:
64,192,112126,1,0,0:0:0:0:
448,192,112222,1,0,0:0:0:0:
192,192,112269,1,0,0:0:0:0:
320,192,112364,1,0,0:0:0:0:
192,192,112460,1,0,0:0:0:0:
320,192,112555,1,0,0:0:0:0:
192,192,112650,1,0,0:0:0:0:
320,192,112745,1,0,0:0:0:0:
192,192,112841,1,0,0:0:0:0:
320,192,112936,1,0,0:0:0:0:
192,192,113031,1,0,0:0:0:0:
320,192,113126,1,0,0:0:0:0:
192,192,113222,1,0,0:0:0:0:
320,192,113317,1,0,0:0:0:0:
64,192,113364,1,0,0:0:0:0:
448,192,113412,1,0,0:0:0:0:
320,192,113507,1,0,0:0:0:0:
448,192,113602,1,0,0:0:0:0:
320,192,113698,1,0,0:0:0:0:
448,192,113793,1,0,0:0:0:0:
320,192,113888,1,0,0:0:0:0:
448,192,113983,1,0,0:0:0:0:
320,192,114079,1,0,0:0:0:0:
448,192,114174,1,0,0:0:0:0:
320,192,114269,1,0,0:0:0:0:
448,192,114364,1,0,0:0:0:0:
320,192,114460,1,0,0:0:0:0:
192,192,114507,1,0,0:0:0:0:
448,192,114555,1,0,0:0:0:0:
64,192,114650,1,0,0:0:0:0:
448,192,114745,1,0,0:0:0:0:
64,192,114841,1,0,0:0:0:0:
448,192,114936,1,0,0:0:0:0:
64,192,115031,1,0,0:0:0:0:
448,192,115126,1,0,0:0:0:0:
64,192,115222,1,0,0:0:0:0:
448,192,115317,1,0,0:0:0:0:
64,192,115412,1,0,0:0:0:0:
448,192,115507,1,0,0:0:0:0:
64,192,115602,1,0,0:0:0:0:
320,192,115650,1,0,0:0:0:0:
192,192,115698,1,0,0:0:0:0:
64,192,115745,1,0,0:0:0:0:
192,192,115841,1,0,0:0:0:0:
64,192,115936,1,0,0:0:0:0:
192,192,116031,1,0,0:0:0:0:
64,192,116126,1,0,0:0:0:0:
192,192,116222,1,0,0:0:0:0:
64,192,116317,1,0,0:0:0:0:
192,192,116412,1,0,0:0:0:0:
64,192,116507,1,0,0:0:0:0:
192,192,116602,1,0,0:0:0:0:
64,192,116698,1,0,0:0:0:0:
320,192,116793,1,0,0:0:0:0:
192,192,116841,1,0,0:0:0:0:
320,192,116936,1,0,0:0:0:0:
192,192,117031,1,0,0:0:0:0:
320,192,117126,1,0,0:0:0:0:
192,192,117222,1,0,0:0:0:0:
320,192,117317,1,0,0:0:0:0:
192,192,117412,1,0,0:0:0:0:
320,192,117507,1,0,0:0:0:0:
192,192,117602,1,0,0:0:0:0:
320,192,117698,1,0,0:0:0:0:
192,192,117793,1,0,0:0:0:0:
320,192,117888,1,0,0:0:0:0:
192,192,117983,1,0,0:0:0:0:
320,192,118079,1,0,0:0:0:0:
192,192,118174,1,0,0:0:0:0:
320,192,118269,1,0,0:0:0:0:
192,192,118364,1,0,0:0:0:0:
320,192,118460,1,0,0:0:0:0:
64,192,118507,1,0,0:0:0:0:
192,192,118555,1,0,0:0:0:0:
448,192,118602,1,0,0:0:0:0:
64,192,118698,1,0,0:0:0:0:
448,192,118793,1,0,0:0:0:0:
64,192,118888,1,0,0:0:0:0:
448,192,118983,1,0,0:0:0:0:
64,192,119079,1,0,0:0:0:0:
192,192,119126,1,0,0:0:0:0:
448,192,119174,1,0,0:0:0:0:
64,192,119269,1,0,0:0:0:0:
448,192,119364,1,0,0:0:0:0:
64,192,119460,1,0,0:0:0:0:
448,192,119555,1,0,0:0:0:0:
64,192,119650,1,0,0:0:0:0:
448,192,119745,1,0,0:0:0:0:
64,192,119841,1,0,0:0:0:0:
448,192,119936,1,0,0:0:0:0:
64,192,120031,1,0,0:0:0:0:
448,192,120126,1,0,0:0:0:0:
64,192,120222,1,0,0:0:0:0:
448,192,120317,1,0,0:0:0:0:
64,192,120412,1,0,0:0:0:0:
448,192,120507,1,0,0:0:0:0:
64,192,120602,1,0,0:0:0:0:
448,192,120698,1,0,0:0:0:0:
320,192,120793,1,0,0:0:0:0:
192,192,120841,1,0,0:0:0:0:
64,192,120888,1,0,0:0:0:0:
192,192,120983,1,0,0:0:0:0:
64,192,121079,1,0,0:0:0:0:
192,192,121174,1,0,0:0:0:0:
64,192,121269,1,0,0:0:0:0:
448,192,121364,1,0,0:0:0:0:
192,192,121412,1,0,0:0:0:0:
320,192,121507,1,0,0:0:0:0:
192,192,121602,1,0,0:0:0:0:
320,192,121698,1,0,0:0:0:0:
192,192,121793,1,0,0:0:0:0:
320,192,121888,1,0,0:0:0:0:
192,192,121983,1,0,0:0:0:0:
320,192,122079,1,0,0:0:0:0:
192,192,122174,1,0,0:0:0:0:
320,192,122269,1,0,0:0:0:0:
192,192,122364,1,0,0:0:0:0:
320,192,122460,1,0,0:0:0:0:
64,192,122507,1,0,0:0:0:0:
448,192,122555,1,0,0:0:0:0:
320,192,122650,1,0,0:0:0:0:
448,192,122745,1,0,0:0:0:0:
320,192,122841,1,0,0:0:0:0:
448,192,122936,1,0,0:0:0:0:
320,192,123031,1,0,0:0:0:0:
448,192,123126,1,0,0:0:0:0:
320,192,123222,1,0,0:0:0:0:
448,192,123317,1,0,0:0:0:0:
320,192,123412,1,0,0:0:0:0:
448,192,123507,1,0,0:0:0:0:
320,192,123602,1,0,0:0:0:0:
192,192,123650,1,0,0:0:0:0:
448,192,123698,1,0,0:0:0:0:
320,192,123793,1,0,0:0:0:0:
448,192,123888,1,0,0:0:0:0:
320,192,123983,1,0,0:0:0:0:
448,192,124079,1,0,0:0:0:0:
320,192,124174,1,0,0:0:0:0:
448,192,124269,1,0,0:0:0:0:
320,192,124364,1,0,0:0:0:0:
448,192,124460,1,0,0:0:0:0:
320,192,124555,1,0,0:0:0:0:
448,192,124650,1,0,0:0:0:0:
64,192,124745,1,0,0:0:0:0:
320,192,124793,1,0,0:0:0:0:
192,192,124841,1,0,0:0:0:0:
64,192,124888,1,0,0:0:0:0:
192,192,124983,1,0,0:0:0:0:
64,192,125079,1,0,0:0:0:0:
192,192,125174,1,0,0:0:0:0:
64,192,125269,1,0,0:0:0:0:
192,192,125364,1,0,0:0:0:0:
64,192,125460,1,0,0:0:0:0:
192,192,125555,1,0,0:0:0:0:
64,192,125650,1,0,0:0:0:0:
192,192,125745,1,0,0:0:0:0:
64,192,125841,1,0,0:0:0:0:
320,192,125936,1,0,0:0:0:0:
192,192,125983,1,0,0:0:0:0:
320,192,126079,1,0,0:0:0:0:
192,192,126174,1,0,0:0:0:0:
320,192,126269,1,0,0:0:0:0:
192,192,126364,1,0,0:0:0:0:
320,192,126460,1,0,0:0:0:0:
192,192,126555,1,0,0:0:0:0:
320,192,126650,1,0,0:0:0:0:
192,192,126745,1,0,0:0:0:0:
320,192,126841,1,0,0:0:0:0:
192,192,126936,1,0,0:0:0:0:
320,192,127031,1,0,0:0:0:0:
192,192,127079,1,0,0:0:0:0:
64,192,127126,1,0,0:0:0:0:
448,192,127222,1,0,0:0:0:0:
64,192,127317,1,0,0:0:0:0:
448,192,127412,1,0,0:0:0:0:
64,192,127507,1,0,0:0:0:0:
448,192,127602,1,0,0:0:0:0:
320,192,127650,1,0,0:0:0:0:
192,192,127698,1,0,0:0:0:0:
64,192,127745,1,0,0:0:0:0:
320,192,127841,1,0,0:0:0:0:
64,192,127936,1,0,0:0:0:0:
320,192,128031,1,0,0:0:0:0:
64,192,128126,1,0,0:0:0:0:
448,192,128222,1,0,0:0:0:0:
320,192,128222,1,0,0:0:0:0:
64,192,128317,1,0,0:0:0:0:
448,192,128412,1,0,0:0:0:0:
320,192,128460,1,0,0:0:0:0:
64,192,128507,1,0,0:0:0:0:
192,192,128507,1,0,0:0:0:0:
448,192,128602,1,0,0:0:0:0:
64,192,128698,1,0,0:0:0:0:
192,192,128745,1,0,0:0:0:0:
448,192,128793,1,0,0:0:0:0:
320,192,128793,1,0,0:0:0:0:
64,192,128888,1,0,0:0:0:0:
448,192,128983,1,0,0:0:0:0:
64,192,129079,1,0,0:0:0:0:
192,192,129079,1,0,0:0:0:0:
448,192,129174,1,0,0:0:0:0:
64,192,129269,1,0,0:0:0:0:
448,192,129364,1,0,0:0:0:0:
320,192,129364,1,0,0:0:0:0:
64,192,129460,1,0,0:0:0:0:
448,192,129555,1,0,0:0:0:0:
64,192,129650,1,0,0:0:0:0:
192,192,129650,1,0,0:0:0:0:
448,192,129745,1,0,0:0:0:0:
64,192,129841,1,0,0:0:0:0:
320,192,129936,1,0,0:0:0:0:
192,192,129936,1,0,0:0:0:0:
448,192,129983,1,0,0:0:0:0:
64,192,130031,1,0,0:0:0:0:
192,192,130126,1,0,0:0:0:0:
64,192,130222,1,0,0:0:0:0:
192,192,130317,1,0,0:0:0:0:
64,192,130412,1,0,0:0:0:0:
448,192,130507,1,0,0:0:0:0:
320,192,130507,1,0,0:0:0:0:
192,192,130555,1,0,0:0:0:0:
320,192,130650,1,0,0:0:0:0:
192,192,130745,1,0,0:0:0:0:
64,192,130793,1,0,0:0:0:0:
320,192,130841,1,0,0:0:0:0:
64,192,130888,1,0,0:0:0:0:
192,192,130936,1,0,0:0:0:0:
448,192,130983,1,0,0:0:0:0:
320,192,131031,1,0,0:0:0:0:
64,192,131079,1,0,0:0:0:0:
192,192,131126,1,0,0:0:0:0:
320,192,131222,1,0,0:0:0:0:
448,192,131269,1,0,0:0:0:0:
192,192,131317,1,0,0:0:0:0:
448,192,131364,1,0,0:0:0:0:
320,192,131412,1,0,0:0:0:0:
192,192,131507,1,0,0:0:0:0:
320,192,131602,1,0,0:0:0:0:
64,192,131650,1,0,0:0:0:0:
448,192,131698,1,0,0:0:0:0:
320,192,131793,1,0,0:0:0:0:
448,192,131888,1,0,0:0:0:0:
64,192,131936,1,0,0:0:0:0:
320,192,131983,1,0,0:0:0:0:
448,192,132079,1,0,0:0:0:0:
320,192,132174,1,0,0:0:0:0:
64,192,132222,1,0,0:0:0:0:
448,192,132269,1,0,0:0:0:0:
320,192,132364,1,0,0:0:0:0:
448,192,132460,1,0,0:0:0:0:
64,192,132507,1,0,0:0:0:0:
320,192,132555,1,0,0:0:0:0:
448,192,132650,1,0,0:0:0:0:
320,192,132745,1,0,0:0:0:0:
192,192,132793,1,0,0:0:0:0:
64,192,132793,1,0,0:0:0:0:
448,192,132841,1,0,0:0:0:0:
64,192,132936,1,0,0:0:0:0:
448,192,133031,1,0,0:0:0:0:
320,192,133079,1,0,0:0:0:0:
64,192,133126,1,0,0:0:0:0:
448,192,133222,1,0,0:0:0:0:
64,192,133317,1,0,0:0:0:0:
192,192,133364,1,0,0:0:0:0:
448,192,133412,1,0,0:0:0:0:
64,192,133507,1,0,0:0:0:0:
448,192,133602,1,0,0:0:0:0:
320,192,133650,1,0,0:0:0:0:
64,192,133698,1,0,0:0:0:0:
448,192,133793,1,0,0:0:0:0:
64,192,133888,1,0,0:0:0:0:
320,192,133936,1,0,0:0:0:0:
448,192,133936,1,0,0:0:0:0:
192,192,133983,1,0,0:0:0:0:
64,192,134031,1,0,0:0:0:0:
192,192,134126,1,0,0:0:0:0:
64,192,134222,1,0,0:0:0:0:
448,192,134222,1,0,0:0:0:0:
192,192,134317,1,0,0:0:0:0:
64,192,134412,1,0,0:0:0:0:
192,192,134507,1,0,0:0:0:0:
320,192,134507,1,0,0:0:0:0:
64,192,134602,1,0,0:0:0:0:
192,192,134698,1,0,0:0:0:0:
64,192,134793,1,0,0:0:0:0:
448,192,134793,1,0,0:0:0:0:
192,192,134888,1,0,0:0:0:0:
64,192,134983,1,0,0:0:0:0:
320,192,135079,1,0,0:0:0:0:
448,192,135079,1,0,0:0:0:0:
192,192,135126,1,0,0:0:0:0:
320,192,135222,1,0,0:0:0:0:
192,192,135317,1,0,0:0:0:0:
64,192,135364,1,0,0:0:0:0:
320,192,135412,1,0,0:0:0:0:
64,192,135460,1,0,0:0:0:0:
192,192,135507,1,0,0:0:0:0:
448,192,135555,1,0,0:0:0:0:
320,192,135602,1,0,0:0:0:0:
64,192,135650,1,0,0:0:0:0:
192,192,135698,1,0,0:0:0:0:
320,192,135793,1,0,0:0:0:0:
448,192,135841,1,0,0:0:0:0:
192,192,135888,1,0,0:0:0:0:
448,192,135936,1,0,0:0:0:0:
320,192,135983,1,0,0:0:0:0:
192,192,136079,1,0,0:0:0:0:
64,192,136126,1,0,0:0:0:0:
320,192,136174,1,0,0:0:0:0:
448,192,136222,1,0,0:0:0:0:
192,192,136269,1,0,0:0:0:0:
320,192,136364,1,0,0:0:0:0:
192,192,136460,1,0,0:0:0:0:
64,192,136507,1,0,0:0:0:0:
320,192,136555,1,0,0:0:0:0:
192,192,136650,1,0,0:0:0:0:
448,192,136745,1,0,0:0:0:0:
64,192,136793,1,0,0:0:0:0:
320,192,136793,1,0,0:0:0:0:
192,192,136841,1,0,0:0:0:0:
448,192,136888,1,0,0:0:0:0:
64,192,136983,1,0,0:0:0:0:
448,192,137079,1,0,0:0:0:0:
320,192,137079,1,0,0:0:0:0:
64,192,137174,1,0,0:0:0:0:
448,192,137269,1,0,0:0:0:0:
64,192,137364,1,0,0:0:0:0:
320,192,137364,1,0,0:0:0:0:
192,192,137412,1,0,0:0:0:0:
448,192,137460,1,0,0:0:0:0:
64,192,137555,1,0,0:0:0:0:
448,192,137650,1,0,0:0:0:0:
320,192,137650,1,0,0:0:0:0:
64,192,137745,1,0,0:0:0:0:
448,192,137841,1,0,0:0:0:0:
64,192,137936,1,0,0:0:0:0:
192,192,137936,1,0,0:0:0:0:
448,192,138031,1,0,0:0:0:0:
64,192,138126,1,0,0:0:0:0:
448,192,138222,1,0,0:0:0:0:
320,192,138222,1,0,0:0:0:0:
64,192,138317,1,0,0:0:0:0:
448,192,138412,1,0,0:0:0:0:
64,192,138507,1,0,0:0:0:0:
192,192,138507,1,0,0:0:0:0:
448,192,138602,1,0,0:0:0:0:
64,192,138698,1,0,0:0:0:0:
448,192,138793,1,0,0:0:0:0:
320,192,138793,1,0,0:0:0:0:
64,192,138888,1,0,0:0:0:0:
448,192,138983,1,0,0:0:0:0:
320,192,139079,1,0,0:0:0:0:
192,192,139079,1,0,0:0:0:0:
448,192,139126,1,0,0:0:0:0:
64,192,139174,1,0,0:0:0:0:
192,192,139269,1,0,0:0:0:0:
64,192,139364,1,0,0:0:0:0:
448,192,139364,1,0,0:0:0:0:
192,192,139460,1,0,0:0:0:0:
64,192,139555,1,0,0:0:0:0:
448,192,139650,1,0,0:0:0:0:
320,192,139650,1,0,0:0:0:0:
192,192,139698,1,0,0:0:0:0:
320,192,139793,1,0,0:0:0:0:
192,192,139888,1,0,0:0:0:0:
64,192,139936,1,0,0:0:0:0:
320,192,139983,1,0,0:0:0:0:
64,192,140031,1,0,0:0:0:0:
192,192,140079,1,0,0:0:0:0:
448,192,140126,1,0,0:0:0:0:
320,192,140174,1,0,0:0:0:0:
64,192,140222,1,0,0:0:0:0:
192,192,140269,1,0,0:0:0:0:
320,192,140364,1,0,0:0:0:0:
448,192,140412,1,0,0:0:0:0:
192,192,140460,1,0,0:0:0:0:
448,192,140507,1,0,0:0:0:0:
320,192,140555,1,0,0:0:0:0:
64,192,140602,1,0,0:0:0:0:
192,192,140650,1,0,0:0:0:0:
320,192,140745,1,0,0:0:0:0:
64,192,140793,1,0,0:0:0:0:
192,192,140793,1,0,0:0:0:0:
448,192,140841,1,0,0:0:0:0:
320,192,140936,1,0,0:0:0:0:
448,192,141031,1,0,0:0:0:0:
64,192,141079,1,0,0:0:0:0:
320,192,141126,1,0,0:0:0:0:
448,192,141222,1,0,0:0:0:0:
320,192,141317,1,0,0:0:0:0:
64,192,141364,1,0,0:0:0:0:
448,192,141412,1,0,0:0:0:0:
320,192,141507,1,0,0:0:0:0:
448,192,141602,1,0,0:0:0:0:
64,192,141650,1,0,0:0:0:0:
320,192,141698,1,0,0:0:0:0:
448,192,141793,1,0,0:0:0:0:
320,192,141888,1,0,0:0:0:0:
192,192,141936,1,0,0:0:0:0:
64,192,141936,1,0,0:0:0:0:
448,192,141983,1,0,0:0:0:0:
320,192,142079,1,0,0:0:0:0:
448,192,142174,1,0,0:0:0:0:
64,192,142222,1,0,0:0:0:0:
320,192,142269,1,0,0:0:0:0:
448,192,142364,1,0,0:0:0:0:
64,192,142412,1,0,0:0:0:0:
320,192,142460,1,0,0:0:0:0:
192,192,142507,1,0,0:0:0:0:
448,192,142555,1,0,0:0:0:0:
320,192,142650,1,0,0:0:0:0:
64,192,142650,1,0,0:0:0:0:
448,192,142745,1,0,0:0:0:0:
192,192,142793,1,0,0:0:0:0:
320,192,142841,1,0,0:0:0:0:
448,192,142936,1,0,0:0:0:0:
64,192,143031,1,0,0:0:0:0:
320,192,143079,1,0,0:0:0:0:
448,192,143079,1,0,0:0:0:0:
192,192,143126,1,0,0:0:0:0:
64,192,143174,1,0,0:0:0:0:
192,192,143269,1,0,0:0:0:0:
64,192,143364,1,0,0:0:0:0:
448,192,143364,1,0,0:0:0:0:
192,192,143460,1,0,0:0:0:0:
64,192,143555,1,0,0:0:0:0:
192,192,143650,1,0,0:0:0:0:
320,192,143650,1,0,0:0:0:0:
64,192,143745,1,0,0:0:0:0:
192,192,143841,1,0,0:0:0:0:
64,192,143936,1,0,0:0:0:0:
448,192,143936,1,0,0:0:0:0:
192,192,144031,1,0,0:0:0:0:
64,192,144126,1,0,0:0:0:0:
320,192,144222,1,0,0:0:0:0:
448,192,144222,1,0,0:0:0:0:
192,192,144269,1,0,0:0:0:0:
320,192,144364,1,0,0:0:0:0:
192,192,144460,1,0,0:0:0:0:
64,192,144507,1,0,0:0:0:0:
320,192,144555,1,0,0:0:0:0:
64,192,144602,1,0,0:0:0:0:
192,192,144650,1,0,0:0:0:0:
448,192,144698,1,0,0:0:0:0:
320,192,144745,1,0,0:0:0:0:
64,192,144793,1,0,0:0:0:0:
192,192,144841,1,0,0:0:0:0:
320,192,144936,1,0,0:0:0:0:
448,192,144983,1,0,0:0:0:0:
192,192,145031,1,0,0:0:0:0:
448,192,145079,1,0,0:0:0:0:
320,192,145126,1,0,0:0:0:0:
192,192,145222,1,0,0:0:0:0:
320,192,145317,1,0,0:0:0:0:
192,192,145364,1,0,0:0:0:0:
448,192,145364,1,0,0:0:0:0:
64,192,145412,1,0,0:0:0:0:
448,192,145507,1,0,0:0:0:0:
320,192,145555,1,0,0:0:0:0:
64,192,145602,1,0,0:0:0:0:
320,192,145650,1,0,0:0:0:0:
448,192,145698,1,0,0:0:0:0:
192,192,145745,1,0,0:0:0:0:
192,192,145841,1,0,0:0:0:0:
448,192,145888,1,0,0:0:0:0:
192,192,145936,1,0,0:0:0:0:
192,192,146031,1,0,0:0:0:0:
192,192,146126,1,0,0:0:0:0:
192,192,146222,1,0,0:0:0:0:
192,192,146317,1,0,0:0:0:0:
192,192,146412,1,0,0:0:0:0:
320,192,146507,1,0,0:0:0:0:
448,192,146507,1,0,0:0:0:0:
64,192,146507,1,0,0:0:0:0:
64,192,146793,1,0,0:0:0:0:
64,192,147079,1,0,0:0:0:0:
64,192,147269,1,0,0:0:0:0:
192,192,147364,1,0,0:0:0:0:
448,192,147555,128,0,147650:0:0:0:0:
320,192,147650,1,0,0:0:0:0:
64,192,147650,128,0,147793:0:0:0:0:
320,192,147841,1,0,0:0:0:0:
448,192,147936,1,0,0:0:0:0:
192,192,147936,128,0,148079:0:0:0:0:
320,192,148126,1,0,0:0:0:0:
64,192,148222,1,0,0:0:0:0:
448,192,148222,128,0,148364:0:0:0:0:
64,192,148412,1,0,0:0:0:0:
320,192,148507,128,0,148650:0:0:0:0:
192,192,148698,1,0,0:0:0:0:
448,192,148793,1,0,0:0:0:0:
448,192,148936,1,0,0:0:0:0:
64,192,149079,1,0,0:0:0:0:
320,192,149174,1,0,0:0:0:0:
64,192,149222,1,0,0:0:0:0:
448,192,149269,1,0,0:0:0:0:
320,192,149364,1,0,0:0:0:0:
192,192,149507,1,0,0:0:0:0:
320,192,149555,1,0,0:0:0:0:
64,192,149650,1,0,0:0:0:0:
64,192,149793,1,0,0:0:0:0:
192,192,149841,1,0,0:0:0:0:
320,192,149936,1,0,0:0:0:0:
320,192,150222,1,0,0:0:0:0:
448,192,150269,1,0,0:0:0:0:
64,192,150412,1,0,0:0:0:0:
192,192,150507,1,0,0:0:0:0:
64,192,150650,1,0,0:0:0:0:
192,192,150793,128,0,151079:0:0:0:0:
448,192,150793,1,0,0:0:0:0:
448,192,150888,1,0,0:0:0:0:
448,192,150983,1,0,0:0:0:0:
320,192,151079,1,0,0:0:0:0:
64,192,151079,128,0,151364:0:0:0:0:
192,192,151364,1,0,0:0:0:0:
320,192,151555,1,0,0:0:0:0:
64,192,151650,1,0,0:0:0:0:
64,192,151841,1,0,0:0:0:0:
192,192,151936,1,0,0:0:0:0:
448,192,152126,128,0,152222:0:0:0:0:
320,192,152222,1,0,0:0:0:0:
64,192,152222,128,0,152364:0:0:0:0:
320,192,152412,1,0,0:0:0:0:
448,192,152507,1,0,0:0:0:0:
192,192,152507,128,0,152650:0:0:0:0:
320,192,152698,1,0,0:0:0:0:
64,192,152793,1,0,0:0:0:0:
448,192,152793,128,0,152936:0:0:0:0:
64,192,152983,1,0,0:0:0:0:
320,192,153079,128,0,153222:0:0:0:0:
192,192,153269,1,0,0:0:0:0:
448,192,153364,1,0,0:0:0:0:
448,192,153507,1,0,0:0:0:0:
64,192,153650,1,0,0:0:0:0:
320,192,153745,1,0,0:0:0:0:
64,192,153793,1,0,0:0:0:0:
448,192,153841,1,0,0:0:0:0:
320,192,153936,1,0,0:0:0:0:
192,192,154079,1,0,0:0:0:0:
320,192,154126,1,0,0:0:0:0:
64,192,154222,1,0,0:0:0:0:
64,192,154364,1,0,0:0:0:0:
192,192,154412,1,0,0:0:0:0:
320,192,154507,1,0,0:0:0:0:
448,192,154793,1,0,0:0:0:0:
448,192,154936,1,0,0:0:0:0:
64,192,154983,1,0,0:0:0:0:
320,192,155079,1,0,0:0:0:0:
320,192,155222,1,0,0:0:0:0:
192,192,155364,1,0,0:0:0:0:
192,192,155507,1,0,0:0:0:0:
448,192,155555,1,0,0:0:0:0:
320,192,155650,1,0,0:0:0:0:
64,192,155650,1,0,0:0:0:0:
64,192,155936,1,0,0:0:0:0:
64,192,156222,1,0,0:0:0:0:
64,192,156412,1,0,0:0:0:0:
192,192,156507,1,0,0:0:0:0:
448,192,156698,128,0,156793:0:0:0:0:
320,192,156793,1,0,0:0:0:0:
64,192,156793,128,0,156936:0:0:0:0:
320,192,156983,1,0,0:0:0:0:
448,192,157079,1,0,0:0:0:0:
192,192,157079,128,0,157222:0:0:0:0:
320,192,157269,1,0,0:0:0:0:
64,192,157364,1,0,0:0:0:0:
448,192,157364,128,0,157507:0:0:0:0:
64,192,157555,1,0,0:0:0:0:
320,192,157650,128,0,157793:0:0:0:0:
192,192,157841,1,0,0:0:0:0:
448,192,157936,1,0,0:0:0:0:
448,192,158079,1,0,0:0:0:0:
64,192,158222,1,0,0:0:0:0:
320,192,158317,1,0,0:0:0:0:
64,192,158364,1,0,0:0:0:0:
448,192,158412,1,0,0:0:0:0:
320,192,158507,1,0,0:0:0:0:
192,192,158650,1,0,0:0:0:0:
320,192,158698,1,0,0:0:0:0:
64,192,158793,1,0,0:0:0:0:
64,192,158936,1,0,0:0:0:0:
192,192,158983,1,0,0:0:0:0:
320,192,159079,1,0,0:0:0:0:
320,192,159364,1,0,0:0:0:0:
448,192,159412,1,0,0:0:0:0:
64,192,159555,1,0,0:0:0:0:
192,192,159650,1,0,0:0:0:0:
64,192,159793,1,0,0:0:0:0:
192,192,159936,128,0,160222:0:0:0:0:
448,192,159936,1,0,0:0:0:0:
448,192,160031,1,0,0:0:0:0:
448,192,160126,1,0,0:0:0:0:
320,192,160222,1,0,0:0:0:0:
64,192,160222,128,0,160507:0:0:0:0:
192,192,160507,1,0,0:0:0:0:
320,192,160698,1,0,0:0:0:0:
64,192,160793,1,0,0:0:0:0:
64,192,160983,1,0,0:0:0:0:
192,192,161079,1,0,0:0:0:0:
448,192,161269,128,0,161364:0:0:0:0:
320,192,161364,1,0,0:0:0:0:
64,192,161364,128,0,161507:0:0:0:0:
320,192,161555,1,0,0:0:0:0:
448,192,161650,1,0,0:0:0:0:
192,192,161650,128,0,161793:0:0:0:0:
320,192,161841,1,0,0:0:0:0:
64,192,161936,1,0,0:0:0:0:
448,192,161936,128,0,162079:0:0:0:0:
64,192,162126,1,0,0:0:0:0:
320,192,162222,128,0,162364:0:0:0:0:
192,192,162412,1,0,0:0:0:0:
448,192,162507,1,0,0:0:0:0:
448,192,162650,1,0,0:0:0:0:
64,192,162793,1,0,0:0:0:0:
320,192,162888,1,0,0:0:0:0:
64,192,162936,1,0,0:0:0:0:
448,192,162983,1,0,0:0:0:0:
320,192,163079,1,0,0:0:0:0:
192,192,163222,1,0,0:0:0:0:
320,192,163269,1,0,0:0:0:0:
64,192,163364,1,0,0:0:0:0:
64,192,163507,1,0,0:0:0:0:
192,192,163555,1,0,0:0:0:0:
320,192,163650,1,0,0:0:0:0:
448,192,163936,1,0,0:0:0:0:
192,192,164031,1,0,0:0:0:0:
448,192,164079,1,0,0:0:0:0:
192,192,164126,1,0,0:0:0:0:
320,192,164222,1,0,0:0:0:0:
64,192,164317,1,0,0:0:0:0:
320,192,164364,1,0,0:0:0:0:
64,192,164412,1,0,0:0:0:0:
192,192,164507,1,0,0:0:0:0:
448,192,164602,1,0,0:0:0:0:
192,192,164650,1,0,0:0:0:0:
320,192,164698,1,0,0:0:0:0:
64,192,164793,1,0,0:0:0:0:
192,192,164793,1,0,0:0:0:0:
320,192,164793,1,0,0:0:0:0:
448,192,165079,1,0,0:0:0:0:
320,192,165079,1,0,0:0:0:0:
64,192,165079,1,0,0:0:0:0:
448,192,165364,1,0,0:0:0:0:
192,192,165364,1,0,0:0:0:0:
64,192,165364,1,0,0:0:0:0:
64,192,165555,1,0,0:0:0:0:
448,192,165650,1,0,0:0:0:0:
320,192,165650,1,0,0:0:0:0:
192,192,165650,1,0,0:0:0:0:
448,192,165841,128,0,165936:0:0:0:0:
192,192,165936,1,0,0:0:0:0:
64,192,165936,128,0,166079:0:0:0:0:
320,192,165936,1,0,0:0:0:0:
320,192,166126,1,0,0:0:0:0:
64,192,166222,1,0,0:0:0:0:
192,192,166222,128,0,166364:0:0:0:0:
448,192,166222,1,0,0:0:0:0:
320,192,166412,1,0,0:0:0:0:
192,192,166507,1,0,0:0:0:0:
448,192,166507,128,0,166650:0:0:0:0:
64,192,166507,1,0,0:0:0:0:
64,192,166698,1,0,0:0:0:0:
448,192,166793,1,0,0:0:0:0:
192,192,166793,1,0,0:0:0:0:
320,192,166793,128,0,166936:0:0:0:0:
64,192,166888,1,0,0:0:0:0:
192,192,166983,1,0,0:0:0:0:
320,192,167079,1,0,0:0:0:0:
64,192,167079,1,0,0:0:0:0:
448,192,167079,1,0,0:0:0:0:
320,192,167222,1,0,0:0:0:0:
448,192,167364,1,0,0:0:0:0:
192,192,167364,1,0,0:0:0:0:
64,192,167364,1,0,0:0:0:0:
320,192,167460,1,0,0:0:0:0:
64,192,167507,1,0,0:0:0:0:
448,192,167555,1,0,0:0:0:0:
64,192,167650,1,0,0:0:0:0:
192,192,167650,1,0,0:0:0:0:
320,192,167650,1,0,0:0:0:0:
448,192,167793,1,0,0:0:0:0:
320,192,167841,1,0,0:0:0:0:
192,192,167936,1,0,0:0:0:0:
448,192,167936,1,0,0:0:0:0:
64,192,167936,1,0,0:0:0:0:
320,192,168079,1,0,0:0:0:0:
192,192,168126,1,0,0:0:0:0:
64,192,168222,1,0,0:0:0:0:
448,192,168222,1,0,0:0:0:0:
320,192,168222,1,0,0:0:0:0:
320,192,168412,1,0,0:0:0:0:
64,192,168507,1,0,0:0:0:0:
192,192,168507,1,0,0:0:0:0:
448,192,168507,1,0,0:0:0:0:
64,192,168698,1,0,0:0:0:0:
448,192,168793,1,0,0:0:0:0:
320,192,168793,1,0,0:0:0:0:
192,192,168793,1,0,0:0:0:0:
64,192,168936,1,0,0:0:0:0:
320,192,168983,1,0,0:0:0:0:
192,192,169079,1,0,0:0:0:0:
64,192,169079,1,0,0:0:0:0:
448,192,169079,1,0,0:0:0:0:
320,192,169174,1,0,0:0:0:0:
448,192,169269,1,0,0:0:0:0:
320,192,169364,1,0,0:0:0:0:
192,192,169364,1,0,0:0:0:0:
64,192,169364,1,0,0:0:0:0:
448,192,169460,1,0,0:0:0:0:
192,192,169555,1,0,0:0:0:0:
64,192,169555,1,0,0:0:0:0:
192,192,169650,1,0,0:0:0:0:
64,192,169650,1,0,0:0:0:0:
448,192,169745,1,0,0:0:0:0:
320,192,169841,1,0,0:0:0:0:
192,192,169841,1,0,0:0:0:0:
192,192,169936,1,0,0:0:0:0:
320,192,169936,1,0,0:0:0:0:
64,192,170031,1,0,0:0:0:0:
448,192,170126,1,0,0:0:0:0:
320,192,170126,1,0,0:0:0:0:
320,192,170222,1,0,0:0:0:0:
448,192,170222,1,0,0:0:0:0:
192,192,170317,1,0,0:0:0:0:
448,192,170412,1,0,0:0:0:0:
64,192,170412,1,0,0:0:0:0:
448,192,170507,1,0,0:0:0:0:
64,192,170507,1,0,0:0:0:0:
320,192,170602,1,0,0:0:0:0:
64,192,170698,1,0,0:0:0:0:
192,192,170698,1,0,0:0:0:0:
192,192,170793,1,0,0:0:0:0:
64,192,170793,1,0,0:0:0:0:
448,192,170888,1,0,0:0:0:0:
192,192,170983,1,0,0:0:0:0:
320,192,170983,1,0,0:0:0:0:
320,192,171079,1,0,0:0:0:0:
192,192,171079,1,0,0:0:0:0:
64,192,171174,1,0,0:0:0:0:
192,192,171269,1,0,0:0:0:0:
448,192,171269,1,0,0:0:0:0:
192,192,171364,1,0,0:0:0:0:
448,192,171364,1,0,0:0:0:0:
320,192,171460,1,0,0:0:0:0:
192,192,171555,1,0,0:0:0:0:
64,192,171555,1,0,0:0:0:0:
64,192,171650,1,0,0:0:0:0:
192,192,171650,1,0,0:0:0:0:
448,192,171714,1,0,0:0:0:0:
320,192,171777,1,0,0:0:0:0:
448,192,171841,1,0,0:0:0:0:
64,192,171841,1,0,0:0:0:0:
192,192,171904,1,0,0:0:0:0:
320,192,171968,1,0,0:0:0:0:
192,192,172031,1,0,0:0:0:0:
64,192,172031,1,0,0:0:0:0:
448,192,172095,1,0,0:0:0:0:
64,192,172158,1,0,0:0:0:0:
192,192,172222,1,0,0:0:0:0:
448,192,172222,1,0,0:0:0:0:
320,192,172285,1,0,0:0:0:0:
64,192,172348,1,0,0:0:0:0:
448,192,172412,1,0,0:0:0:0:
320,192,172412,1,0,0:0:0:0:
192,192,172475,1,0,0:0:0:0:
448,192,172539,1,0,0:0:0:0:
320,192,172602,1,0,0:0:0:0:
64,192,172602,1,0,0:0:0:0:
192,192,172666,1,0,0:0:0:0:
64,192,172729,1,0,0:0:0:0:
192,192,172793,1,0,0:0:0:0:
448,192,172793,1,0,0:0:0:0:
320,192,172856,1,0,0:0:0:0:
448,192,172920,1,0,0:0:0:0:
320,192,172983,1,0,0:0:0:0:
192,192,172983,1,0,0:0:0:0:
64,192,173079,1,0,0:0:0:0:
320,192,173269,1,0,0:0:0:0:
448,192,173317,1,0,0:0:0:0:
64,192,173364,1,0,0:0:0:0:
192,192,173364,1,0,0:0:0:0:
320,192,173460,1,0,0:0:0:0:
320,192,173555,1,0,0:0:0:0:
64,192,173650,1,0,0:0:0:0:
448,192,173745,1,0,0:0:0:0:
448,192,173841,1,0,0:0:0:0:
320,192,173936,1,0,0:0:0:0:
192,192,173936,1,0,0:0:0:0:
64,192,173936,1,0,0:0:0:0:
448,192,173983,1,0,0:0:0:0:
64,192,174031,1,0,0:0:0:0:
320,192,174079,1,0,0:0:0:0:
192,192,174126,1,0,0:0:0:0:
448,192,174174,1,0,0:0:0:0:
64,192,174222,1,0,0:0:0:0:
448,192,174269,1,0,0:0:0:0:
192,192,174317,1,0,0:0:0:0:
320,192,174364,1,0,0:0:0:0:
64,192,174412,1,0,0:0:0:0:
448,192,174460,1,0,0:0:0:0:
320,192,174507,1,0,0:0:0:0:
64,192,174539,1,0,0:0:0:0:
192,192,174571,1,0,0:0:0:0:
320,192,174698,1,0,0:0:0:0:
64,192,174729,1,0,0:0:0:0:
192,192,174761,1,0,0:0:0:0:
320,192,174888,1,0,0:0:0:0:
64,192,174920,1,0,0:0:0:0:
192,192,174952,1,0,0:0:0:0:
448,192,174983,1,0,0:0:0:0:
320,192,175079,1,0,0:0:0:0:
64,192,175110,1,0,0:0:0:0:
192,192,175142,1,0,0:0:0:0:
448,192,175174,1,0,0:0:0:0:
320,192,175269,1,0,0:0:0:0:
64,192,175301,1,0,0:0:0:0:
192,192,175333,1,0,0:0:0:0:
448,192,175364,1,0,0:0:0:0:
320,192,175460,1,0,0:0:0:0:
64,192,175491,1,0,0:0:0:0:
192,192,175523,1,0,0:0:0:0:
448,192,175555,1,0,0:0:0:0:
192,192,175650,1,0,0:0:0:0:
64,192,175650,1,0,0:0:0:0:
320,192,175745,1,0,0:0:0:0:
192,192,175793,1,0,0:0:0:0:
64,192,175829,1,0,0:0:0:0:
448,192,175864,1,0,0:0:0:0:
320,192,175900,1,0,0:0:0:0:
192,192,175936,1,0,0:0:0:0:
448,192,175983,1,0,0:0:0:0:
64,192,176031,1,0,0:0:0:0:
192,192,176079,1,0,0:0:0:0:
320,192,176222,1,0,0:0:0:0:
448,192,176222,1,0,0:0:0:0:
192,192,176222,1,0,0:0:0:0:
64,192,176269,1,0,0:0:0:0:
448,192,176317,1,0,0:0:0:0:
192,192,176364,1,0,0:0:0:0:
320,192,176412,1,0,0:0:0:0:
64,192,176460,1,0,0:0:0:0:
448,192,176507,1,0,0:0:0:0:
192,192,176555,1,0,0:0:0:0:
448,192,176602,1,0,0:0:0:0:
64,192,176650,1,0,0:0:0:0:
320,192,176698,1,0,0:0:0:0:
64,192,176745,1,0,0:0:0:0:
192,192,176793,1,0,0:0:0:0:
448,192,176793,1,0,0:0:0:0:
448,192,176983,1,0,0:0:0:0:
64,192,177031,1,0,0:0:0:0:
448,192,177079,1,0,0:0:0:0:
320,192,177102,1,0,0:0:0:0:
192,192,177126,1,0,0:0:0:0:
192,192,177269,1,0,0:0:0:0:
64,192,177269,1,0,0:0:0:0:
320,192,177317,1,0,0:0:0:0:
448,192,177364,1,0,0:0:0:0:
192,192,177412,1,0,0:0:0:0:
320,192,177460,1,0,0:0:0:0:
64,192,177507,1,0,0:0:0:0:
448,192,177555,1,0,0:0:0:0:
192,192,177555,1,0,0:0:0:0:
448,192,177650,1,0,0:0:0:0:
320,192,177650,1,0,0:0:0:0:
64,192,177698,1,0,0:0:0:0:
192,192,177745,1,0,0:0:0:0:
320,192,177841,1,0,0:0:0:0:
64,192,177936,1,0,0:0:0:0:
320,192,177936,1,0,0:0:0:0:
448,192,177983,1,0,0:0:0:0:
192,192,178031,1,0,0:0:0:0:
320,192,178126,1,0,0:0:0:0:
64,192,178126,1,0,0:0:0:0:
64,192,178222,1,0,0:0:0:0:
448,192,178269,1,0,0:0:0:0:
192,192,178317,1,0,0:0:0:0:
320,192,178364,1,0,0:0:0:0:
448,192,178412,1,0,0:0:0:0:
64,192,178507,1,0,0:0:0:0:
320,192,178579,1,0,0:0:0:0:
192,192,178614,1,0,0:0:0:0:
64,192,178650,1,0,0:0:0:0:
448,192,178698,1,0,0:0:0:0:
320,192,178745,1,0,0:0:0:0:
64,192,178793,1,0,0:0:0:0:
192,192,178793,1,0,0:0:0:0:
448,192,178841,1,0,0:0:0:0:
192,192,178888,1,0,0:0:0:0:
320,192,178936,1,0,0:0:0:0:
64,192,178983,1,0,0:0:0:0:
448,192,179031,1,0,0:0:0:0:
192,192,179079,1,0,0:0:0:0:
320,192,179079,1,0,0:0:0:0:
192,192,179269,1,0,0:0:0:0:
320,192,179364,1,0,0:0:0:0:
448,192,179388,1,0,0:0:0:0:
320,192,179460,1,0,0:0:0:0:
64,192,179555,1,0,0:0:0:0:
192,192,179555,1,0,0:0:0:0:
448,192,179602,1,0,0:0:0:0:
64,192,179650,1,0,0:0:0:0:
192,192,179698,1,0,0:0:0:0:
320,192,179745,1,0,0:0:0:0:
64,192,179841,1,0,0:0:0:0:
448,192,179841,1,0,0:0:0:0:
320,192,179936,1,0,0:0:0:0:
448,192,179936,1,0,0:0:0:0:
192,192,179983,1,0,0:0:0:0:
64,192,180031,1,0,0:0:0:0:
320,192,180079,1,0,0:0:0:0:
192,192,180126,1,0,0:0:0:0:
448,192,180174,1,0,0:0:0:0:
64,192,180222,1,0,0:0:0:0:
320,192,180222,1,0,0:0:0:0:
192,192,180317,1,0,0:0:0:0:
320,192,180364,1,0,0:0:0:0:
64,192,180412,1,0,0:0:0:0:
192,192,180460,1,0,0:0:0:0:
448,192,180507,1,0,0:0:0:0:
320,192,180543,1,0,0:0:0:0:
64,192,180579,1,0,0:0:0:0:
448,192,180614,1,0,0:0:0:0:
192,192,180650,1,0,0:0:0:0:
320,192,180698,1,0,0:0:0:0:
448,192,180793,1,0,0:0:0:0:
192,192,180793,1,0,0:0:0:0:
64,192,180793,1,0,0:0:0:0:
192,192,180936,1,0,0:0:0:0:
320,192,180983,1,0,0:0:0:0:
448,192,181079,1,0,0:0:0:0:
192,192,181079,1,0,0:0:0:0:
64,192,181174,1,0,0:0:0:0:
192,192,181269,1,0,0:0:0:0:
320,192,181364,1,0,0:0:0:0:
64,192,181460,1,0,0:0:0:0:
192,192,181555,1,0,0:0:0:0:
320,192,181650,1,0,0:0:0:0:
448,192,181650,1,0,0:0:0:0:
192,192,181745,1,0,0:0:0:0:
320,192,181841,1,0,0:0:0:0:
64,192,181936,1,0,0:0:0:0:
192,192,181972,1,0,0:0:0:0:
448,192,182031,1,0,0:0:0:0:
192,192,182079,1,0,0:0:0:0:
320,192,182126,1,0,0:0:0:0:
64,192,182222,1,0,0:0:0:0:
448,192,182222,1,0,0:0:0:0:
192,192,182269,1,0,0:0:0:0:
320,192,182317,1,0,0:0:0:0:
192,192,182460,1,0,0:0:0:0:
64,192,182507,1,0,0:0:0:0:
448,192,182579,1,0,0:0:0:0:
320,192,182650,1,0,0:0:0:0:
64,192,182698,1,0,0:0:0:0:
64,192,182793,1,0,0:0:0:0:
192,192,182841,1,0,0:0:0:0:
448,192,182888,1,0,0:0:0:0:
320,192,182936,1,0,0:0:0:0:
64,192,182983,1,0,0:0:0:0:
448,192,183031,1,0,0:0:0:0:
192,192,183079,1,0,0:0:0:0:
64,192,183079,1,0,0:0:0:0:
320,192,183126,1,0,0:0:0:0:
192,192,183174,1,0,0:0:0:0:
448,192,183222,1,0,0:0:0:0:
64,192,183269,1,0,0:0:0:0:
320,192,183317,1,0,0:0:0:0:
192,192,183364,1,0,0:0:0:0:
320,192,183412,1,0,0:0:0:0:
64,192,183460,1,0,0:0:0:0:
448,192,183507,1,0,0:0:0:0:
192,192,183555,1,0,0:0:0:0:
320,192,183602,1,0,0:0:0:0:
448,192,183650,1,0,0:0:0:0:
64,192,183650,1,0,0:0:0:0:
320,192,183841,1,0,0:0:0:0:
192,192,183936,1,0,0:0:0:0:
64,192,183960,1,0,0:0:0:0:
192,192,184031,1,0,0:0:0:0:
320,192,184126,1,0,0:0:0:0:
448,192,184126,1,0,0:0:0:0:
64,192,184174,1,0,0:0:0:0:
448,192,184222,1,0,0:0:0:0:
320,192,184269,1,0,0:0:0:0:
192,192,184317,1,0,0:0:0:0:
64,192,184412,1,0,0:0:0:0:
448,192,184412,1,0,0:0:0:0:
64,192,184507,1,0,0:0:0:0:
192,192,184507,1,0,0:0:0:0:
320,192,184555,1,0,0:0:0:0:
448,192,184602,1,0,0:0:0:0:
192,192,184650,1,0,0:0:0:0:
320,192,184698,1,0,0:0:0:0:
64,192,184745,1,0,0:0:0:0:
192,192,184793,1,0,0:0:0:0:
448,192,184793,1,0,0:0:0:0:
320,192,184888,1,0,0:0:0:0:
64,192,184936,1,0,0:0:0:0:
448,192,184983,1,0,0:0:0:0:
320,192,185007,1,0,0:0:0:0:
192,192,185043,1,0,0:0:0:0:
64,192,185079,1,0,0:0:0:0:
320,192,185174,1,0,0:0:0:0:
448,192,185198,1,0,0:0:0:0:
64,192,185222,1,0,0:0:0:0:
192,192,185269,1,0,0:0:0:0:
448,192,185364,1,0,0:0:0:0:
320,192,185364,1,0,0:0:0:0:
192,192,185412,1,0,0:0:0:0:
320,192,185460,1,0,0:0:0:0:
64,192,185507,1,0,0:0:0:0:
448,192,185555,1,0,0:0:0:0:
192,192,185602,1,0,0:0:0:0:
320,192,185650,1,0,0:0:0:0:
192,192,185698,1,0,0:0:0:0:
64,192,185745,1,0,0:0:0:0:
448,192,185793,1,0,0:0:0:0:
192,192,185841,1,0,0:0:0:0:
448,192,185888,1,0,0:0:0:0:
64,192,185936,1,0,0:0:0:0:
320,192,185936,1,0,0:0:0:0:
64,192,186031,1,0,0:0:0:0:
192,192,186055,1,0,0:0:0:0:
320,192,186079,1,0,0:0:0:0:
448,192,186126,1,0,0:0:0:0:
192,192,186222,1,0,0:0:0:0:
64,192,186222,1,0,0:0:0:0:
64,192,186317,1,0,0:0:0:0:
320,192,186364,1,0,0:0:0:0:
192,192,186400,1,0,0:0:0:0:
448,192,186436,1,0,0:0:0:0:
320,192,186472,1,0,0:0:0:0:
64,192,186507,1,0,0:0:0:0:
192,192,186555,1,0,0:0:0:0:
320,192,186602,1,0,0:0:0:0:
64,192,186650,1,0,0:0:0:0:
448,192,186722,1,0,0:0:0:0:
320,192,186793,1,0,0:0:0:0:
192,192,186888,1,0,0:0:0:0:
320,192,186983,1,0,0:0:0:0:
448,192,187079,128,0,187364:0:0:0:0:
64,192,187364,1,0,0:0:0:0:
320,192,187364,1,0,0:0:0:0:
64,192,187555,1,0,0:0:0:0:
320,192,187555,1,0,0:0:0:0:
64,192,187650,1,0,0:0:0:0:
192,192,187650,1,0,0:0:0:0:
448,192,187698,1,0,0:0:0:0:
320,192,187745,1,0,0:0:0:0:
64,192,187793,1,0,0:0:0:0:
448,192,187841,1,0,0:0:0:0:
192,192,187888,1,0,0:0:0:0:
320,192,187936,1,0,0:0:0:0:
192,192,187983,1,0,0:0:0:0:
448,192,188031,1,0,0:0:0:0:
64,192,188079,1,0,0:0:0:0:
320,192,188126,1,0,0:0:0:0:
192,192,188174,1,0,0:0:0:0:
448,192,188222,1,0,0:0:0:0:
64,192,188222,1,0,0:0:0:0:
320,192,188412,1,0,0:0:0:0:
64,192,188460,1,0,0:0:0:0:
448,192,188507,1,0,0:0:0:0:
192,192,188531,1,0,0:0:0:0:
448,192,188602,1,0,0:0:0:0:
192,192,188698,1,0,0:0:0:0:
64,192,188698,1,0,0:0:0:0:
320,192,188745,1,0,0:0:0:0:
64,192,188793,1,0,0:0:0:0:
448,192,188841,1,0,0:0:0:0:
192,192,188888,1,0,0:0:0:0:
64,192,188983,1,0,0:0:0:0:
320,192,188983,1,0,0:0:0:0:
448,192,189079,1,0,0:0:0:0:
320,192,189079,1,0,0:0:0:0:
192,192,189126,1,0,0:0:0:0:
64,192,189174,1,0,0:0:0:0:
448,192,189222,1,0,0:0:0:0:
192,192,189269,1,0,0:0:0:0:
320,192,189317,1,0,0:0:0:0:
64,192,189364,1,0,0:0:0:0:
448,192,189364,1,0,0:0:0:0:
192,192,189460,1,0,0:0:0:0:
320,192,189507,1,0,0:0:0:0:
64,192,189555,1,0,0:0:0:0:
192,192,189602,1,0,0:0:0:0:
448,192,189650,1,0,0:0:0:0:
320,192,189686,1,0,0:0:0:0:
64,192,189722,1,0,0:0:0:0:
448,192,189757,1,0,0:0:0:0:
192,192,189793,1,0,0:0:0:0:
320,192,189841,1,0,0:0:0:0:
448,192,189936,1,0,0:0:0:0:
64,192,189936,1,0,0:0:0:0:
192,192,189936,1,0,0:0:0:0:
320,192,189983,1,0,0:0:0:0:
192,192,190031,1,0,0:0:0:0:
448,192,190079,1,0,0:0:0:0:
64,192,190126,1,0,0:0:0:0:
320,192,190174,1,0,0:0:0:0:
192,192,190222,1,0,0:0:0:0:
64,192,190257,1,0,0:0:0:0:
448,192,190293,1,0,0:0:0:0:
192,192,190364,1,0,0:0:0:0:
320,192,190412,1,0,0:0:0:0:
448,192,190460,1,0,0:0:0:0:
64,192,190507,1,0,0:0:0:0:
192,192,190602,1,0,0:0:0:0:
320,192,190650,1,0,0:0:0:0:
64,192,190698,1,0,0:0:0:0:
448,192,190745,1,0,0:0:0:0:
320,192,190793,1,0,0:0:0:0:
64,192,190864,1,0,0:0:0:0:
192,192,190936,1,0,0:0:0:0:
320,192,191007,1,0,0:0:0:0:
192,192,191079,1,0,0:0:0:0:
64,192,191174,1,0,0:0:0:0:
448,192,191269,1,0,0:0:0:0:
64,192,191364,1,0,0:0:0:0:
448,192,191555,128,0,191841:0:0:0:0:
320,192,191650,128,0,191936:0:0:0:0:
64,192,191650,1,0,0:0:0:0:
64,192,191936,1,0,0:0:0:0:
448,192,192222,1,0,0:0:0:0:
192,192,192222,1,0,0:0:0:0:
64,192,192222,1,0,0:0:0:0:
320,192,192269,1,0,0:0:0:0:
64,192,192317,1,0,0:0:0:0:
448,192,192364,1,0,0:0:0:0:
192,192,192412,1,0,0:0:0:0:
320,192,192460,1,0,0:0:0:0:
192,192,192507,1,0,0:0:0:0:
448,192,192555,1,0,0:0:0:0:
64,192,192602,1,0,0:0:0:0:
320,192,192650,1,0,0:0:0:0:
448,192,192698,1,0,0:0:0:0:
64,192,192745,1,0,0:0:0:0:
448,192,192793,1,0,0:0:0:0:
192,192,192793,1,0,0:0:0:0:
320,192,192888,1,0,0:0:0:0:
448,192,192983,1,0,0:0:0:0:
192,192,193079,1,0,0:0:0:0:
64,192,193102,1,0,0:0:0:0:
192,192,193174,1,0,0:0:0:0:
448,192,193269,1,0,0:0:0:0:
320,192,193269,1,0,0:0:0:0:
64,192,193317,1,0,0:0:0:0:
448,192,193364,1,0,0:0:0:0:
320,192,193412,1,0,0:0:0:0:
192,192,193460,1,0,0:0:0:0:
448,192,193507,1,0,0:0:0:0:
320,192,193555,1,0,0:0:0:0:
64,192,193555,1,0,0:0:0:0:
192,192,193650,1,0,0:0:0:0:
64,192,193650,1,0,0:0:0:0:
320,192,193698,1,0,0:0:0:0:
448,192,193745,1,0,0:0:0:0:
192,192,193793,1,0,0:0:0:0:
320,192,193841,1,0,0:0:0:0:
64,192,193888,1,0,0:0:0:0:
448,192,193936,1,0,0:0:0:0:
192,192,193936,1,0,0:0:0:0:
320,192,194031,1,0,0:0:0:0:
64,192,194079,1,0,0:0:0:0:
448,192,194114,1,0,0:0:0:0:
320,192,194150,1,0,0:0:0:0:
192,192,194186,1,0,0:0:0:0:
64,192,194222,1,0,0:0:0:0:
448,192,194269,1,0,0:0:0:0:
192,192,194317,1,0,0:0:0:0:
320,192,194364,1,0,0:0:0:0:
64,192,194412,1,0,0:0:0:0:
320,192,194507,1,0,0:0:0:0:
448,192,194507,1,0,0:0:0:0:
64,192,194555,1,0,0:0:0:0:
448,192,194602,1,0,0:0:0:0:
192,192,194650,1,0,0:0:0:0:
320,192,194698,1,0,0:0:0:0:
64,192,194745,1,0,0:0:0:0:
448,192,194793,1,0,0:0:0:0:
64,192,194841,1,0,0:0:0:0:
192,192,194888,1,0,0:0:0:0:
320,192,194936,1,0,0:0:0:0:
64,192,194983,1,0,0:0:0:0:
320,192,195031,1,0,0:0:0:0:
192,192,195079,1,0,0:0:0:0:
448,192,195079,1,0,0:0:0:0:
448,192,195269,1,0,0:0:0:0:
64,192,195317,1,0,0:0:0:0:
448,192,195364,1,0,0:0:0:0:
320,192,195388,1,0,0:0:0:0:
192,192,195412,1,0,0:0:0:0:
192,192,195555,1,0,0:0:0:0:
64,192,195555,1,0,0:0:0:0:
320,192,195602,1,0,0:0:0:0:
448,192,195650,1,0,0:0:0:0:
192,192,195698,1,0,0:0:0:0:
320,192,195745,1,0,0:0:0:0:
64,192,195793,1,0,0:0:0:0:
448,192,195841,1,0,0:0:0:0:
192,192,195841,1,0,0:0:0:0:
448,192,195936,1,0,0:0:0:0:
320,192,195936,1,0,0:0:0:0:
64,192,195983,1,0,0:0:0:0:
192,192,196031,1,0,0:0:0:0:
320,192,196126,1,0,0:0:0:0:
64,192,196222,1,0,0:0:0:0:
320,192,196222,1,0,0:0:0:0:
448,192,196269,1,0,0:0:0:0:
192,192,196317,1,0,0:0:0:0:
320,192,196412,1,0,0:0:0:0:
64,192,196412,1,0,0:0:0:0:
64,192,196507,1,0,0:0:0:0:
448,192,196555,1,0,0:0:0:0:
192,192,196602,1,0,0:0:0:0:
320,192,196650,1,0,0:0:0:0:
448,192,196698,1,0,0:0:0:0:
448,192,196793,1,0,0:0:0:0:
192,192,196864,1,0,0:0:0:0:
320,192,196900,1,0,0:0:0:0:
448,192,196936,1,0,0:0:0:0:
64,192,196983,1,0,0:0:0:0:
192,192,197031,1,0,0:0:0:0:
448,192,197079,1,0,0:0:0:0:
320,192,197079,1,0,0:0:0:0:
64,192,197126,1,0,0:0:0:0:
320,192,197174,1,0,0:0:0:0:
192,192,197222,1,0,0:0:0:0:
448,192,197269,1,0,0:0:0:0:
64,192,197317,1,0,0:0:0:0:
320,192,197364,1,0,0:0:0:0:
192,192,197364,1,0,0:0:0:0:
192,192,197555,1,0,0:0:0:0:
320,192,197650,1,0,0:0:0:0:
448,192,197674,1,0,0:0:0:0:
320,192,197745,1,0,0:0:0:0:
64,192,197841,1,0,0:0:0:0:
192,192,197841,1,0,0:0:0:0:
448,192,197888,1,0,0:0:0:0:
64,192,197936,1,0,0:0:0:0:
192,192,197983,1,0,0:0:0:0:
320,192,198031,1,0,0:0:0:0:
64,192,198126,1,0,0:0:0:0:
448,192,198126,1,0,0:0:0:0:
320,192,198222,1,0,0:0:0:0:
448,192,198222,1,0,0:0:0:0:
192,192,198269,1,0,0:0:0:0:
64,192,198317,1,0,0:0:0:0:
320,192,198364,1,0,0:0:0:0:
192,192,198412,1,0,0:0:0:0:
448,192,198460,1,0,0:0:0:0:
64,192,198507,1,0,0:0:0:0:
320,192,198507,1,0,0:0:0:0:
192,192,198602,1,0,0:0:0:0:
320,192,198650,1,0,0:0:0:0:
64,192,198698,1,0,0:0:0:0:
64,192,198793,1,0,0:0:0:0:
448,192,198829,1,0,0:0:0:0:
320,192,198864,1,0,0:0:0:0:
192,192,198900,1,0,0:0:0:0:
64,192,198936,1,0,0:0:0:0:
448,192,198983,1,0,0:0:0:0:
448,192,199079,1,0,0:0:0:0:
192,192,199079,1,0,0:0:0:0:
64,192,199079,1,0,0:0:0:0:
192,192,199174,1,0,0:0:0:0:
320,192,199222,1,0,0:0:0:0:
64,192,199269,1,0,0:0:0:0:
448,192,199317,1,0,0:0:0:0:
192,192,199364,1,0,0:0:0:0:
320,192,199412,1,0,0:0:0:0:
64,192,199460,1,0,0:0:0:0:
448,192,199507,1,0,0:0:0:0:
192,192,199555,1,0,0:0:0:0:
448,192,199602,1,0,0:0:0:0:
64,192,199650,1,0,0:0:0:0:
320,192,199698,1,0,0:0:0:0:
64,192,199745,1,0,0:0:0:0:
448,192,199793,1,0,0:0:0:0:
192,192,199841,1,0,0:0:0:0:
448,192,199888,1,0,0:0:0:0:
64,192,199936,1,0,0:0:0:0:
320,192,199983,1,0,0:0:0:0:
64,192,200031,1,0,0:0:0:0:
448,192,200079,1,0,0:0:0:0:
192,192,200126,1,0,0:0:0:0:
448,192,200174,1,0,0:0:0:0:
64,192,200222,1,0,0:0:0:0:
192,192,200257,1,0,0:0:0:0:
448,192,200329,1,0,0:0:0:0:
192,192,200364,1,0,0:0:0:0:
320,192,200400,1,0,0:0:0:0:
64,192,200507,1,0,0:0:0:0:
448,192,200507,1,0,0:0:0:0:
192,192,200543,1,0,0:0:0:0:
320,192,200579,1,0,0:0:0:0:
448,192,200722,1,0,0:0:0:0:
192,192,200757,1,0,0:0:0:0:
64,192,200793,1,0,0:0:0:0:
448,192,200864,1,0,0:0:0:0:
320,192,200936,1,0,0:0:0:0:
64,192,200983,1,0,0:0:0:0:
64,192,201079,1,0,0:0:0:0:
192,192,201126,1,0,0:0:0:0:
448,192,201174,1,0,0:0:0:0:
320,192,201222,1,0,0:0:0:0:
64,192,201269,1,0,0:0:0:0:
448,192,201317,1,0,0:0:0:0:
192,192,201364,1,0,0:0:0:0:
64,192,201364,1,0,0:0:0:0:
320,192,201412,1,0,0:0:0:0:
192,192,201460,1,0,0:0:0:0:
448,192,201507,1,0,0:0:0:0:
64,192,201555,1,0,0:0:0:0:
320,192,201602,1,0,0:0:0:0:
192,192,201650,1,0,0:0:0:0:
448,192,201698,1,0,0:0:0:0:
64,192,201745,1,0,0:0:0:0:
320,192,201793,1,0,0:0:0:0:
192,192,201841,1,0,0:0:0:0:
448,192,201888,1,0,0:0:0:0:
320,192,201936,1,0,0:0:0:0:
192,192,201936,1,0,0:0:0:0:
320,192,202126,1,0,0:0:0:0:
192,192,202222,1,0,0:0:0:0:
64,192,202245,1,0,0:0:0:0:
192,192,202317,1,0,0:0:0:0:
320,192,202412,1,0,0:0:0:0:
448,192,202412,1,0,0:0:0:0:
64,192,202460,1,0,0:0:0:0:
448,192,202507,1,0,0:0:0:0:
320,192,202555,1,0,0:0:0:0:
192,192,202602,1,0,0:0:0:0:
448,192,202650,1,0,0:0:0:0:
320,192,202698,1,0,0:0:0:0:
64,192,202698,1,0,0:0:0:0:
64,192,202793,1,0,0:0:0:0:
192,192,202793,1,0,0:0:0:0:
320,192,202841,1,0,0:0:0:0:
448,192,202888,1,0,0:0:0:0:
192,192,202936,1,0,0:0:0:0:
320,192,202983,1,0,0:0:0:0:
64,192,203031,1,0,0:0:0:0:
192,192,203079,1,0,0:0:0:0:
448,192,203079,1,0,0:0:0:0:
320,192,203174,1,0,0:0:0:0:
64,192,203222,1,0,0:0:0:0:
448,192,203269,1,0,0:0:0:0:
320,192,203293,1,0,0:0:0:0:
192,192,203329,1,0,0:0:0:0:
64,192,203364,1,0,0:0:0:0:
320,192,203460,1,0,0:0:0:0:
448,192,203483,1,0,0:0:0:0:
64,192,203507,1,0,0:0:0:0:
192,192,203555,1,0,0:0:0:0:
448,192,203650,1,0,0:0:0:0:
320,192,203650,1,0,0:0:0:0:
192,192,203698,1,0,0:0:0:0:
320,192,203745,1,0,0:0:0:0:
64,192,203793,1,0,0:0:0:0:
448,192,203841,1,0,0:0:0:0:
192,192,203888,1,0,0:0:0:0:
320,192,203936,1,0,0:0:0:0:
192,192,203983,1,0,0:0:0:0:
64,192,204031,1,0,0:0:0:0:
448,192,204079,1,0,0:0:0:0:
192,192,204126,1,0,0:0:0:0:
448,192,204174,1,0,0:0:0:0:
64,192,204222,1,0,0:0:0:0:
320,192,204222,1,0,0:0:0:0:
64,192,204317,1,0,0:0:0:0:
192,192,204341,1,0,0:0:0:0:
320,192,204364,1,0,0:0:0:0:
448,192,204412,1,0,0:0:0:0:
192,192,204507,1,0,0:0:0:0:
64,192,204507,1,0,0:0:0:0:
64,192,204602,1,0,0:0:0:0:
320,192,204650,1,0,0:0:0:0:
192,192,204686,1,0,0:0:0:0:
448,192,204722,1,0,0:0:0:0:
320,192,204757,1,0,0:0:0:0:
64,192,204793,1,0,0:0:0:0:
192,192,204841,1,0,0:0:0:0:
320,192,204888,1,0,0:0:0:0:
64,192,204936,1,0,0:0:0:0:
448,192,205007,1,0,0:0:0:0:
320,192,205079,1,0,0:0:0:0:
192,192,205174,1,0,0:0:0:0:
320,192,205269,1,0,0:0:0:0:
448,192,205364,128,0,205650:0:0:0:0:
64,192,205650,1,0,0:0:0:0:
320,192,205650,1,0,0:0:0:0:
64,192,205841,1,0,0:0:0:0:
320,192,205841,1,0,0:0:0:0:
64,192,205936,1,0,0:0:0:0:
192,192,205936,1,0,0:0:0:0:
448,192,205983,1,0,0:0:0:0:
320,192,206031,1,0,0:0:0:0:
64,192,206079,1,0,0:0:0:0:
448,192,206126,1,0,0:0:0:0:
192,192,206174,1,0,0:0:0:0:
320,192,206222,1,0,0:0:0:0:
192,192,206269,1,0,0:0:0:0:
448,192,206317,1,0,0:0:0:0:
64,192,206364,1,0,0:0:0:0:
320,192,206412,1,0,0:0:0:0:
192,192,206460,1,0,0:0:0:0:
448,192,206507,1,0,0:0:0:0:
64,192,206507,1,0,0:0:0:0:
64,192,206698,1,0,0:0:0:0:
320,192,206745,1,0,0:0:0:0:
448,192,206793,1,0,0:0:0:0:
192,192,206817,1,0,0:0:0:0:
448,192,206888,1,0,0:0:0:0:
192,192,206983,1,0,0:0:0:0:
64,192,206983,1,0,0:0:0:0:
320,192,207031,1,0,0:0:0:0:
64,192,207079,1,0,0:0:0:0:
448,192,207126,1,0,0:0:0:0:
192,192,207174,1,0,0:0:0:0:
64,192,207269,1,0,0:0:0:0:
320,192,207269,1,0,0:0:0:0:
448,192,207364,1,0,0:0:0:0:
320,192,207364,1,0,0:0:0:0:
192,192,207412,1,0,0:0:0:0:
64,192,207460,1,0,0:0:0:0:
448,192,207507,1,0,0:0:0:0:
192,192,207555,1,0,0:0:0:0:
320,192,207602,1,0,0:0:0:0:
64,192,207650,1,0,0:0:0:0:
448,192,207650,1,0,0:0:0:0:
192,192,207745,1,0,0:0:0:0:
320,192,207793,1,0,0:0:0:0:
64,192,207841,1,0,0:0:0:0:
192,192,207888,1,0,0:0:0:0:
448,192,207936,1,0,0:0:0:0:
320,192,207972,1,0,0:0:0:0:
64,192,208007,1,0,0:0:0:0:
448,192,208043,1,0,0:0:0:0:
192,192,208079,1,0,0:0:0:0:
320,192,208126,1,0,0:0:0:0:
192,192,208222,1,0,0:0:0:0:
64,192,208222,1,0,0:0:0:0:
448,192,208222,1,0,0:0:0:0:
192,192,208317,1,0,0:0:0:0:
448,192,208364,1,0,0:0:0:0:
64,192,208412,1,0,0:0:0:0:
320,192,208460,1,0,0:0:0:0:
192,192,208507,1,0,0:0:0:0:
64,192,208543,1,0,0:0:0:0:
448,192,208579,1,0,0:0:0:0:
192,192,208650,1,0,0:0:0:0:
320,192,208698,1,0,0:0:0:0:
448,192,208745,1,0,0:0:0:0:
64,192,208793,1,0,0:0:0:0:
192,192,208888,1,0,0:0:0:0:
320,192,208936,1,0,0:0:0:0:
64,192,208983,1,0,0:0:0:0:
448,192,209031,1,0,0:0:0:0:
320,192,209079,1,0,0:0:0:0:
64,192,209150,1,0,0:0:0:0:
192,192,209222,1,0,0:0:0:0:
320,192,209293,1,0,0:0:0:0:
192,192,209364,1,0,0:0:0:0:
320,192,209460,1,0,0:0:0:0:
448,192,209555,1,0,0:0:0:0:
64,192,209650,1,0,0:0:0:0:
448,192,209841,1,0,0:0:0:0:
192,192,209888,1,0,0:0:0:0:
64,192,209936,1,0,0:0:0:0:
320,192,210031,1,0,0:0:0:0:
320,192,210126,1,0,0:0:0:0:
64,192,210222,1,0,0:0:0:0:
448,192,210317,1,0,0:0:0:0:
448,192,210412,1,0,0:0:0:0:
64,192,210507,1,0,0:0:0:0:
192,192,210507,1,0,0:0:0:0:
320,192,210507,1,0,0:0:0:0:
448,192,210555,1,0,0:0:0:0:
64,192,210602,1,0,0:0:0:0:
192,192,210650,1,0,0:0:0:0:
320,192,210698,1,0,0:0:0:0:
192,192,210745,1,0,0:0:0:0:
64,192,210793,1,0,0:0:0:0:
448,192,210829,1,0,0:0:0:0:
448,192,210983,1,0,0:0:0:0:
64,192,210983,1,0,0:0:0:0:
192,192,211031,1,0,0:0:0:0:
320,192,211079,1,0,0:0:0:0:
448,192,211079,1,0,0:0:0:0:
64,192,211269,1,0,0:0:0:0:
192,192,211293,1,0,0:0:0:0:
448,192,211317,1,0,0:0:0:0:
320,192,211364,1,0,0:0:0:0:
64,192,211364,1,0,0:0:0:0:
448,192,211460,1,0,0:0:0:0:
192,192,211483,1,0,0:0:0:0:
64,192,211507,1,0,0:0:0:0:
320,192,211555,1,0,0:0:0:0:
64,192,211650,1,0,0:0:0:0:
192,192,211650,1,0,0:0:0:0:
448,192,211698,1,0,0:0:0:0:
320,192,211745,1,0,0:0:0:0:
192,192,211793,1,0,0:0:0:0:
320,192,211841,1,0,0:0:0:0:
448,192,211888,1,0,0:0:0:0:
64,192,211936,1,0,0:0:0:0:
192,192,212031,1,0,0:0:0:0:
64,192,212126,1,0,0:0:0:0:
448,192,212126,1,0,0:0:0:0:
320,192,212174,1,0,0:0:0:0:
64,192,212222,1,0,0:0:0:0:
192,192,212222,1,0,0:0:0:0:
448,192,212412,1,0,0:0:0:0:
320,192,212436,1,0,0:0:0:0:
64,192,212460,1,0,0:0:0:0:
448,192,212507,1,0,0:0:0:0:
192,192,212507,1,0,0:0:0:0:
64,192,212602,1,0,0:0:0:0:
320,192,212626,1,0,0:0:0:0:
192,192,212650,1,0,0:0:0:0:
448,192,212698,1,0,0:0:0:0:
64,192,212793,1,0,0:0:0:0:
448,192,212793,1,0,0:0:0:0:
320,192,212793,1,0,0:0:0:0:
192,192,212841,1,0,0:0:0:0:
320,192,212888,1,0,0:0:0:0:
64,192,212936,1,0,0:0:0:0:
448,192,212983,1,0,0:0:0:0:
192,192,213031,1,0,0:0:0:0:
320,192,213079,1,0,0:0:0:0:
64,192,213126,1,0,0:0:0:0:
448,192,213174,1,0,0:0:0:0:
192,192,213222,1,0,0:0:0:0:
320,192,213269,1,0,0:0:0:0:
64,192,213269,1,0,0:0:0:0:
448,192,213317,1,0,0:0:0:0:
64,192,213364,1,0,0:0:0:0:
192,192,213364,1,0,0:0:0:0:
448,192,213507,1,0,0:0:0:0:
192,192,213555,1,0,0:0:0:0:
64,192,213579,1,0,0:0:0:0:
320,192,213602,1,0,0:0:0:0:
448,192,213650,1,0,0:0:0:0:
192,192,213650,1,0,0:0:0:0:
320,192,213745,1,0,0:0:0:0:
64,192,213769,1,0,0:0:0:0:
192,192,213793,1,0,0:0:0:0:
448,192,213841,1,0,0:0:0:0:
192,192,213936,1,0,0:0:0:0:
64,192,213936,1,0,0:0:0:0:
320,192,213983,1,0,0:0:0:0:
64,192,214031,1,0,0:0:0:0:
448,192,214079,1,0,0:0:0:0:
192,192,214126,1,0,0:0:0:0:
320,192,214174,1,0,0:0:0:0:
448,192,214222,1,0,0:0:0:0:
192,192,214269,1,0,0:0:0:0:
320,192,214317,1,0,0:0:0:0:
64,192,214364,1,0,0:0:0:0:
192,192,214412,1,0,0:0:0:0:
448,192,214412,1,0,0:0:0:0:
448,192,214507,1,0,0:0:0:0:
320,192,214507,1,0,0:0:0:0:
192,192,214555,1,0,0:0:0:0:
64,192,214602,1,0,0:0:0:0:
448,192,214650,1,0,0:0:0:0:
320,192,214698,1,0,0:0:0:0:
64,192,214745,1,0,0:0:0:0:
448,192,214793,1,0,0:0:0:0:
192,192,214793,1,0,0:0:0:0:
320,192,214841,1,0,0:0:0:0:
64,192,214888,1,0,0:0:0:0:
320,192,214983,1,0,0:0:0:0:
448,192,215079,1,0,0:0:0:0:
192,192,215079,1,0,0:0:0:0:
64,192,215079,1,0,0:0:0:0:
320,192,215126,1,0,0:0:0:0:
64,192,215174,1,0,0:0:0:0:
192,192,215222,1,0,0:0:0:0:
320,192,215269,1,0,0:0:0:0:
192,192,215317,1,0,0:0:0:0:
64,192,215364,1,0,0:0:0:0:
448,192,215400,1,0,0:0:0:0:
64,192,215555,1,0,0:0:0:0:
448,192,215555,1,0,0:0:0:0:
192,192,215602,1,0,0:0:0:0:
448,192,215650,1,0,0:0:0:0:
320,192,215650,1,0,0:0:0:0:
64,192,215841,1,0,0:0:0:0:
192,192,215864,1,0,0:0:0:0:
448,192,215888,1,0,0:0:0:0:
64,192,215936,1,0,0:0:0:0:
320,192,215936,1,0,0:0:0:0:
448,192,216031,1,0,0:0:0:0:
192,192,216055,1,0,0:0:0:0:
64,192,216079,1,0,0:0:0:0:
320,192,216126,1,0,0:0:0:0:
192,192,216222,1,0,0:0:0:0:
64,192,216222,1,0,0:0:0:0:
448,192,216269,1,0,0:0:0:0:
320,192,216317,1,0,0:0:0:0:
192,192,216364,1,0,0:0:0:0:
320,192,216412,1,0,0:0:0:0:
448,192,216460,1,0,0:0:0:0:
64,192,216507,1,0,0:0:0:0:
192,192,216543,1,0,0:0:0:0:
448,192,216698,1,0,0:0:0:0:
64,192,216698,1,0,0:0:0:0:
320,192,216745,1,0,0:0:0:0:
192,192,216793,1,0,0:0:0:0:
64,192,216793,1,0,0:0:0:0:
64,192,216983,1,0,0:0:0:0:
192,192,217007,1,0,0:0:0:0:
448,192,217031,1,0,0:0:0:0:
320,192,217079,1,0,0:0:0:0:
64,192,217079,1,0,0:0:0:0:
448,192,217174,1,0,0:0:0:0:
192,192,217198,1,0,0:0:0:0:
320,192,217222,1,0,0:0:0:0:
64,192,217269,1,0,0:0:0:0:
320,192,217364,1,0,0:0:0:0:
448,192,217364,1,0,0:0:0:0:
192,192,217364,1,0,0:0:0:0:
64,192,217412,1,0,0:0:0:0:
448,192,217460,1,0,0:0:0:0:
320,192,217507,1,0,0:0:0:0:
192,192,217555,1,0,0:0:0:0:
320,192,217602,1,0,0:0:0:0:
448,192,217650,1,0,0:0:0:0:
64,192,217686,1,0,0:0:0:0:
192,192,217841,1,0,0:0:0:0:
448,192,217841,1,0,0:0:0:0:
320,192,217888,1,0,0:0:0:0:
192,192,217936,1,0,0:0:0:0:
64,192,217936,1,0,0:0:0:0:
448,192,218031,1,0,0:0:0:0:
192,192,218126,1,0,0:0:0:0:
64,192,218150,1,0,0:0:0:0:
320,192,218174,1,0,0:0:0:0:
192,192,218222,1,0,0:0:0:0:
448,192,218222,1,0,0:0:0:0:
320,192,218317,1,0,0:0:0:0:
64,192,218341,1,0,0:0:0:0:
192,192,218364,1,0,0:0:0:0:
448,192,218412,1,0,0:0:0:0:
64,192,218507,1,0,0:0:0:0:
192,192,218507,1,0,0:0:0:0:
320,192,218555,1,0,0:0:0:0:
448,192,218579,1,0,0:0:0:0:
64,192,218602,1,0,0:0:0:0:
192,192,218650,1,0,0:0:0:0:
448,192,218793,1,0,0:0:0:0:
320,192,218817,1,0,0:0:0:0:
64,192,218841,1,0,0:0:0:0:
192,192,218888,1,0,0:0:0:0:
64,192,218983,1,0,0:0:0:0:
448,192,218983,1,0,0:0:0:0:
448,192,219079,1,0,0:0:0:0:
320,192,219079,1,0,0:0:0:0:
192,192,219126,1,0,0:0:0:0:
64,192,219150,1,0,0:0:0:0:
320,192,219174,1,0,0:0:0:0:
448,192,219222,1,0,0:0:0:0:
192,192,219269,1,0,0:0:0:0:
64,192,219364,1,0,0:0:0:0:
448,192,219364,1,0,0:0:0:0:
320,192,219412,1,0,0:0:0:0:
192,192,219436,1,0,0:0:0:0:
448,192,219460,1,0,0:0:0:0:
320,192,219555,1,0,0:0:0:0:
64,192,219650,1,0,0:0:0:0:
192,192,219650,1,0,0:0:0:0:
448,192,219650,1,0,0:0:0:0:
320,192,219698,1,0,0:0:0:0:
64,192,219745,1,0,0:0:0:0:
192,192,219793,1,0,0:0:0:0:
320,192,219841,1,0,0:0:0:0:
192,192,219888,1,0,0:0:0:0:
64,192,219936,1,0,0:0:0:0:
448,192,219972,1,0,0:0:0:0:
448,192,220126,1,0,0:0:0:0:
64,192,220126,1,0,0:0:0:0:
192,192,220174,1,0,0:0:0:0:
320,192,220222,1,0,0:0:0:0:
448,192,220222,1,0,0:0:0:0:
320,192,220317,1,0,0:0:0:0:
64,192,220412,1,0,0:0:0:0:
192,192,220436,1,0,0:0:0:0:
448,192,220460,1,0,0:0:0:0:
320,192,220507,1,0,0:0:0:0:
64,192,220507,1,0,0:0:0:0:
448,192,220602,1,0,0:0:0:0:
192,192,220626,1,0,0:0:0:0:
64,192,220650,1,0,0:0:0:0:
320,192,220698,1,0,0:0:0:0:
64,192,220793,1,0,0:0:0:0:
192,192,220793,1,0,0:0:0:0:
448,192,220841,1,0,0:0:0:0:
320,192,220888,1,0,0:0:0:0:
192,192,220936,1,0,0:0:0:0:
320,192,220983,1,0,0:0:0:0:
448,192,221031,1,0,0:0:0:0:
64,192,221079,1,0,0:0:0:0:
192,192,221174,1,0,0:0:0:0:
64,192,221269,1,0,0:0:0:0:
448,192,221269,1,0,0:0:0:0:
320,192,221317,1,0,0:0:0:0:
64,192,221364,1,0,0:0:0:0:
192,192,221364,1,0,0:0:0:0:
320,192,221460,1,0,0:0:0:0:
64,192,221555,1,0,0:0:0:0:
192,192,221579,1,0,0:0:0:0:
448,192,221602,1,0,0:0:0:0:
64,192,221650,1,0,0:0:0:0:
320,192,221650,1,0,0:0:0:0:
448,192,221745,1,0,0:0:0:0:
192,192,221769,1,0,0:0:0:0:
320,192,221793,1,0,0:0:0:0:
64,192,221936,1,0,0:0:0:0:
448,192,221936,1,0,0:0:0:0:
320,192,221936,1,0,0:0:0:0:
192,192,221983,1,0,0:0:0:0:
448,192,222031,1,0,0:0:0:0:
192,192,222079,1,0,0:0:0:0:
320,192,222126,1,0,0:0:0:0:
64,192,222174,1,0,0:0:0:0:
448,192,222222,1,0,0:0:0:0:
192,192,222257,1,0,0:0:0:0:
448,192,222412,1,0,0:0:0:0:
192,192,222412,1,0,0:0:0:0:
320,192,222460,1,0,0:0:0:0:
64,192,222507,1,0,0:0:0:0:
192,192,222507,1,0,0:0:0:0:
448,192,222602,1,0,0:0:0:0:
192,192,222698,1,0,0:0:0:0:
64,192,222722,1,0,0:0:0:0:
320,192,222745,1,0,0:0:0:0:
448,192,222793,1,0,0:0:0:0:
192,192,222793,1,0,0:0:0:0:
320,192,222888,1,0,0:0:0:0:
64,192,222912,1,0,0:0:0:0:
192,192,222936,1,0,0:0:0:0:
448,192,222983,1,0,0:0:0:0:
192,192,223079,1,0,0:0:0:0:
64,192,223079,1,0,0:0:0:0:
320,192,223126,1,0,0:0:0:0:
64,192,223174,1,0,0:0:0:0:
448,192,223198,1,0,0:0:0:0:
320,192,223269,1,0,0:0:0:0:
192,192,223341,1,0,0:0:0:0:
64,192,223364,1,0,0:0:0:0:
448,192,223412,1,0,0:0:0:0:
320,192,223460,1,0,0:0:0:0:
192,192,223531,1,0,0:0:0:0:
64,192,223555,1,0,0:0:0:0:
448,192,223555,1,0,0:0:0:0:
320,192,223602,1,0,0:0:0:0:
64,192,223650,1,0,0:0:0:0:
192,192,223650,1,0,0:0:0:0:
448,192,223745,1,0,0:0:0:0:
64,192,223769,1,0,0:0:0:0:
192,192,223793,1,0,0:0:0:0:
320,192,223841,1,0,0:0:0:0:
448,192,223936,1,0,0:0:0:0:
64,192,223936,1,0,0:0:0:0:
192,192,223983,1,0,0:0:0:0:
320,192,224031,1,0,0:0:0:0:
64,192,224126,1,0,0:0:0:0:
192,192,224174,1,0,0:0:0:0:
448,192,224222,1,0,0:0:0:0:
320,192,224222,1,0,0:0:0:0:
64,192,224222,1,0,0:0:0:0:
448,192,224317,1,0,0:0:0:0:
192,192,224412,1,0,0:0:0:0:
64,192,224412,1,0,0:0:0:0:
192,192,224507,1,0,0:0:0:0:
448,192,224555,1,0,0:0:0:0:
64,192,224602,1,0,0:0:0:0:
320,192,224602,1,0,0:0:0:0:
320,192,224698,1,0,0:0:0:0:
192,192,224745,1,0,0:0:0:0:
448,192,224793,1,0,0:0:0:0:
64,192,224793,1,0,0:0:0:0:
448,192,224888,1,0,0:0:0:0:
64,192,224983,1,0,0:0:0:0:
192,192,224983,1,0,0:0:0:0:
320,192,224983,1,0,0:0:0:0:
64,192,225079,1,0,0:0:0:0:
448,192,225174,1,0,0:0:0:0:
320,192,225174,1,0,0:0:0:0:
320,192,225269,1,0,0:0:0:0:
192,192,225364,1,0,0:0:0:0:
448,192,225364,1,0,0:0:0:0:
64,192,225412,1,0,0:0:0:0:
448,192,225460,1,0,0:0:0:0:
320,192,225507,1,0,0:0:0:0:
64,192,225555,1,0,0:0:0:0:
192,192,225555,1,0,0:0:0:0:
192,192,225650,1,0,0:0:0:0:
448,192,225745,1,0,0:0:0:0:
320,192,225745,1,0,0:0:0:0:
64,192,225745,1,0,0:0:0:0:
448,192,225841,1,0,0:0:0:0:
64,192,225936,1,0,0:0:0:0:
192,192,225936,1,0,0:0:0:0:
192,192,226031,1,0,0:0:0:0:
320,192,226126,1,0,0:0:0:0:
448,192,226126,1,0,0:0:0:0:
448,192,226222,1,0,0:0:0:0:
320,192,226317,1,0,0:0:0:0:
64,192,226317,1,0,0:0:0:0:
320,192,226412,1,0,0:0:0:0:
192,192,226507,1,0,0:0:0:0:
64,192,226507,1,0,0:0:0:0:
448,192,226571,1,0,0:0:0:0:
320,192,226602,1,0,0:0:0:0:
192,192,226634,1,0,0:0:0:0:
64,192,226698,1,0,0:0:0:0:
448,192,226698,1,0,0:0:0:0:
320,192,226761,1,0,0:0:0:0:
192,192,226825,1,0,0:0:0:0:
448,192,226888,1,0,0:0:0:0:
320,192,226888,1,0,0:0:0:0:
64,192,226952,1,0,0:0:0:0:
192,192,226983,1,0,0:0:0:0:
448,192,227015,1,0,0:0:0:0:
320,192,227079,1,0,0:0:0:0:
192,192,227079,1,0,0:0:0:0:
64,192,227142,1,0,0:0:0:0:
320,192,227206,1,0,0:0:0:0:
192,192,227269,1,0,0:0:0:0:
64,192,227269,1,0,0:0:0:0:
448,192,227333,1,0,0:0:0:0:
192,192,227396,1,0,0:0:0:0:
448,192,227460,1,0,0:0:0:0:
64,192,227460,1,0,0:0:0:0:
320,192,227523,1,0,0:0:0:0:
192,192,227587,1,0,0:0:0:0:
64,192,227650,1,0,0:0:0:0:
448,192,227650,1,0,0:0:0:0:
320,192,227698,1,0,0:0:0:0:
192,192,227745,1,0,0:0:0:0:
64,192,227793,1,0,0:0:0:0:
320,192,227841,1,0,0:0:0:0:
448,192,227841,1,0,0:0:0:0:
192,192,227904,1,0,0:0:0:0:
320,192,227968,1,0,0:0:0:0:
448,192,228031,1,0,0:0:0:0:
64,192,228031,1,0,0:0:0:0:
192,192,228126,1,0,0:0:0:0:
64,192,228126,1,0,0:0:0:0:
448,192,228190,1,0,0:0:0:0:
320,192,228253,1,0,0:0:0:0:
192,192,228317,1,0,0:0:0:0:
64,192,228317,1,0,0:0:0:0:
320,192,228380,1,0,0:0:0:0:
448,192,228444,1,0,0:0:0:0:
64,192,228507,1,0,0:0:0:0:
192,192,228507,1,0,0:0:0:0:
448,192,228602,1,0,0:0:0:0:
64,192,228602,1,0,0:0:0:0:
320,192,228793,5,0,0:0:0:0:
192,192,228793,1,0,0:0:0:0:
448,192,228793,1,0,0:0:0:0:
64,192,228888,1,0,0:0:0:0:
192,192,228936,1,0,0:0:0:0:
448,192,228983,1,0,0:0:0:0:
320,192,229031,1,0,0:0:0:0:
192,192,229079,1,0,0:0:0:0:
448,192,229126,1,0,0:0:0:0:
64,192,229174,1,0,0:0:0:0:
320,192,229222,1,0,0:0:0:0:
192,192,229269,1,0,0:0:0:0:
448,192,229317,1,0,0:0:0:0:
64,192,229364,1,0,0:0:0:0:
320,192,229364,1,0,0:0:0:0:
192,192,229436,1,0,0:0:0:0:
448,192,229507,1,0,0:0:0:0:
64,192,229579,1,0,0:0:0:0:
320,192,229650,1,0,0:0:0:0:
192,192,229745,1,0,0:0:0:0:
320,192,229841,1,0,0:0:0:0:
448,192,229841,128,0,229936:0:0:0:0:
64,192,229936,128,0,230079:0:0:0:0:
448,192,230126,1,0,0:0:0:0:
320,192,230126,1,0,0:0:0:0:
448,192,230222,1,0,0:0:0:0:
192,192,230222,128,0,230364:0:0:0:0:
64,192,230364,1,0,0:0:0:0:
320,192,230412,1,0,0:0:0:0:
192,192,230460,1,0,0:0:0:0:
64,192,230507,1,0,0:0:0:0:
448,192,230507,128,0,230650:0:0:0:0:
64,192,230793,1,0,0:0:0:0:
320,192,230793,128,0,230936:0:0:0:0:
192,192,231079,1,0,0:0:0:0:
320,192,231079,1,0,0:0:0:0:
64,192,231174,1,0,0:0:0:0:
448,192,231269,1,0,0:0:0:0:
192,192,231364,1,0,0:0:0:0:
320,192,231460,1,0,0:0:0:0:
64,192,231507,1,0,0:0:0:0:
192,192,231555,1,0,0:0:0:0:
448,192,231602,1,0,0:0:0:0:
64,192,231650,1,0,0:0:0:0:
320,192,231650,1,0,0:0:0:0:
320,192,231936,1,0,0:0:0:0:
192,192,232126,1,0,0:0:0:0:
64,192,232126,1,0,0:0:0:0:
448,192,232222,1,0,0:0:0:0:
320,192,232412,1,0,0:0:0:0:
64,192,232412,1,0,0:0:0:0:
64,192,232507,1,0,0:0:0:0:
192,192,232507,1,0,0:0:0:0:
448,192,232602,1,0,0:0:0:0:
64,192,232650,1,0,0:0:0:0:
192,192,232698,1,0,0:0:0:0:
320,192,232745,1,0,0:0:0:0:
448,192,232793,1,0,0:0:0:0:
64,192,232793,1,0,0:0:0:0:
448,192,232983,1,0,0:0:0:0:
64,192,232983,1,0,0:0:0:0:
320,192,233079,1,0,0:0:0:0:
192,192,233174,1,0,0:0:0:0:
448,192,233269,1,0,0:0:0:0:
320,192,233364,1,0,0:0:0:0:
192,192,233364,1,0,0:0:0:0:
64,192,233364,1,0,0:0:0:0:
192,192,233460,1,0,0:0:0:0:
448,192,233507,1,0,0:0:0:0:
320,192,233555,1,0,0:0:0:0:
64,192,233602,1,0,0:0:0:0:
448,192,233650,1,0,0:0:0:0:
192,192,233707,1,0,0:0:0:0:
320,192,233764,1,0,0:0:0:0:
64,192,233841,1,0,0:0:0:0:
320,192,233888,1,0,0:0:0:0:
448,192,233936,1,0,0:0:0:0:
192,192,233936,1,0,0:0:0:0:
64,192,233977,1,0,0:0:0:0:
320,192,234017,1,0,0:0:0:0:
192,192,234058,1,0,0:0:0:0:
320,192,234222,1,0,0:0:0:0:
448,192,234262,1,0,0:0:0:0:
192,192,234303,1,0,0:0:0:0:
320,192,234344,1,0,0:0:0:0:
192,192,234412,1,0,0:0:0:0:
64,192,234412,1,0,0:0:0:0:
320,192,234507,128,0,234650:0:0:0:0:
448,192,234698,1,0,0:0:0:0:
64,192,234698,1,0,0:0:0:0:
64,192,234793,1,0,0:0:0:0:
192,192,234793,128,0,234936:0:0:0:0:
448,192,234936,1,0,0:0:0:0:
192,192,234983,1,0,0:0:0:0:
320,192,235031,1,0,0:0:0:0:
64,192,235079,1,0,0:0:0:0:
448,192,235079,128,0,235222:0:0:0:0:
192,192,235364,1,0,0:0:0:0:
320,192,235364,128,0,235507:0:0:0:0:
448,192,235650,1,0,0:0:0:0:
320,192,235650,1,0,0:0:0:0:
64,192,235936,1,0,0:0:0:0:
448,192,236079,1,0,0:0:0:0:
320,192,236126,1,0,0:0:0:0:
192,192,236174,1,0,0:0:0:0:
448,192,236222,1,0,0:0:0:0:
64,192,236222,1,0,0:0:0:0:
192,192,236507,1,0,0:0:0:0:
448,192,236698,1,0,0:0:0:0:
320,192,236698,1,0,0:0:0:0:
448,192,236983,1,0,0:0:0:0:
64,192,236983,1,0,0:0:0:0:
448,192,237079,1,0,0:0:0:0:
320,192,237079,1,0,0:0:0:0:
64,192,237222,1,0,0:0:0:0:
192,192,237269,1,0,0:0:0:0:
320,192,237317,1,0,0:0:0:0:
448,192,237364,1,0,0:0:0:0:
64,192,237364,1,0,0:0:0:0:
64,192,237555,1,0,0:0:0:0:
448,192,237555,1,0,0:0:0:0:
64,192,237936,5,0,0:0:0:0:
448,192,237936,1,0,0:0:0:0:
192,192,237936,1,0,0:0:0:0:
320,192,237983,1,0,0:0:0:0:
192,192,238031,1,0,0:0:0:0:
64,192,238079,1,0,0:0:0:0:
448,192,238126,1,0,0:0:0:0:
320,192,238174,1,0,0:0:0:0:
192,192,238222,1,0,0:0:0:0:
448,192,238269,1,0,0:0:0:0:
64,192,238317,1,0,0:0:0:0:
320,192,238364,1,0,0:0:0:0:
192,192,238412,1,0,0:0:0:0:
64,192,238460,1,0,0:0:0:0:
448,192,238507,1,0,0:0:0:0:
320,192,238579,1,0,0:0:0:0:
448,192,238650,1,0,0:0:0:0:
192,192,238722,1,0,0:0:0:0:
320,192,238793,1,0,0:0:0:0:
64,192,238888,1,0,0:0:0:0:
320,192,238936,1,0,0:0:0:0:
448,192,238983,128,0,239079:0:0:0:0:
64,192,239079,128,0,239222:0:0:0:0:
192,192,239364,128,0,239507:0:0:0:0:
448,192,239507,1,0,0:0:0:0:
320,192,239555,1,0,0:0:0:0:
192,192,239602,1,0,0:0:0:0:
64,192,239650,1,0,0:0:0:0:
448,192,239650,128,0,239793:0:0:0:0:
320,192,239936,128,0,240079:0:0:0:0:
192,192,240222,1,0,0:0:0:0:
448,192,240222,1,0,0:0:0:0:
320,192,240317,1,0,0:0:0:0:
64,192,240412,1,0,0:0:0:0:
192,192,240507,1,0,0:0:0:0:
320,192,240602,1,0,0:0:0:0:
64,192,240650,1,0,0:0:0:0:
192,192,240698,1,0,0:0:0:0:
448,192,240745,1,0,0:0:0:0:
320,192,240793,1,0,0:0:0:0:
64,192,240793,1,0,0:0:0:0:
192,192,241079,1,0,0:0:0:0:
192,192,241364,1,0,0:0:0:0:
192,192,241650,1,0,0:0:0:0:
320,192,241793,1,0,0:0:0:0:
64,192,241841,1,0,0:0:0:0:
192,192,241888,1,0,0:0:0:0:
448,192,241936,128,0,242507:0:0:0:0:
320,192,241936,1,0,0:0:0:0:
64,192,242222,1,0,0:0:0:0:
320,192,242507,1,0,0:0:0:0:
192,192,242507,1,0,0:0:0:0:
64,192,242507,1,0,0:0:0:0:
64,192,242602,1,0,0:0:0:0:
448,192,242650,1,0,0:0:0:0:
320,192,242698,1,0,0:0:0:0:
192,192,242745,1,0,0:0:0:0:
448,192,242793,1,0,0:0:0:0:
64,192,242850,1,0,0:0:0:0:
320,192,242907,1,0,0:0:0:0:
192,192,242983,1,0,0:0:0:0:
448,192,243031,1,0,0:0:0:0:
320,192,243079,1,0,0:0:0:0:
64,192,243119,1,0,0:0:0:0:
192,192,243160,1,0,0:0:0:0:
320,192,243201,1,0,0:0:0:0:
192,192,243364,1,0,0:0:0:0:
448,192,243405,1,0,0:0:0:0:
320,192,243446,1,0,0:0:0:0:
192,192,243487,1,0,0:0:0:0:
64,192,243650,128,0,243793:0:0:0:0:
192,192,243936,128,0,244079:0:0:0:0:
448,192,244079,1,0,0:0:0:0:
320,192,244126,1,0,0:0:0:0:
192,192,244174,1,0,0:0:0:0:
64,192,244222,1,0,0:0:0:0:
448,192,244222,128,0,244364:0:0:0:0:
320,192,244507,128,0,244650:0:0:0:0:
320,192,244793,1,0,0:0:0:0:
64,192,244793,1,0,0:0:0:0:
192,192,244888,1,0,0:0:0:0:
448,192,244983,1,0,0:0:0:0:
320,192,245079,1,0,0:0:0:0:
192,192,245174,1,0,0:0:0:0:
448,192,245222,1,0,0:0:0:0:
320,192,245269,1,0,0:0:0:0:
64,192,245317,1,0,0:0:0:0:
448,192,245364,1,0,0:0:0:0:
192,192,245364,1,0,0:0:0:0:
320,192,245650,1,0,0:0:0:0:
320,192,245936,1,0,0:0:0:0:
320,192,246222,1,0,0:0:0:0:
64,192,246364,1,0,0:0:0:0:
448,192,246412,1,0,0:0:0:0:
320,192,246460,1,0,0:0:0:0:
192,192,246507,1,0,0:0:0:0:
192,192,246698,1,0,0:0:0:0:
