osu file format v14

[General]
AudioFilename: audio.mp3
AudioLeadIn: 0
PreviewTime: 26109
Countdown: 0
SampleSet: Normal
StackLeniency: 0.7
Mode: 1
LetterboxInBreaks: 0
WidescreenStoryboard: 1

[Editor]
DistanceSpacing: 2.6
BeatDivisor: 4
GridSize: 32
TimelineZoom: 1.7

[Metadata]
Title:World Collapse
TitleUnicode:World Collapse
Artist:Akira Complex
ArtistUnicode:Akira Complex
Creator:rubies87
Version:Muzukashii
Source:
Tags:Featured Artist FA Reality Distortion S2TB 0019 S2TB-0019 Comiket 91 C91 Electronic instrumental vs. Camellia Cametek かめりあ かめるかめりあ KamelCamellia Capu
BeatmapID:2225007
BeatmapSetID:1062488

[Difficulty]
HPDrainRate:8
CircleSize:2
OverallDifficulty:5
ApproachRate:10
SliderMultiplier:1.4
SliderTickRate:1

[Events]
//Background and Video events
0,0,"planet.jpg",0,0
//Break Periods
//Storyboard Layer 0 (Background)
//Storyboard Layer 1 (Fail)
//Storyboard Layer 2 (Pass)
//Storyboard Layer 3 (Foreground)
//Storyboard Layer 4 (Overlay)
//Storyboard Sound Samples

[TimingPoints]
3521,352.941176470588,4,1,0,30,1,0
14815,-100,4,1,0,40,0,0
20462,-100,4,1,0,50,0,0
26109,-80,4,1,0,70,0,0
48520,-80,4,1,0,60,0,0
50109,-80,4,1,0,55,0,0
51520,-80,4,1,0,50,0,0
52932,-80,4,1,0,45,0,0
54344,-80,4,1,0,40,0,0
55756,-80,4,1,0,45,0,0
57168,-80,4,1,0,50,0,0
58579,-80,4,1,0,55,0,0
59991,-80,4,1,0,60,0,0

[HitObjects]
256,192,3521,5,4,0:0:0:0:
256,192,4050,1,0,0:0:0:0:
256,192,4226,1,8,0:0:0:0:
256,192,4756,1,0,0:0:0:0:
256,192,5109,1,0,0:0:0:0:
256,192,5285,1,0,0:0:0:0:
256,192,5462,1,0,0:0:0:0:
256,192,5638,1,8,0:0:0:0:
256,192,6344,1,0,0:0:0:0:
256,192,6873,1,0,0:0:0:0:
256,192,7050,1,8,0:0:0:0:
256,192,7579,1,0,0:0:0:0:
256,192,7932,1,0,0:0:0:0:
256,192,8109,1,0,0:0:0:0:
256,192,8285,1,0,0:0:0:0:
256,192,8462,1,8,0:0:0:0:
256,192,9168,1,0,0:0:0:0:
256,192,9520,1,0,0:0:0:0:
256,192,9697,1,0,0:0:0:0:
256,192,9873,1,8,0:0:0:0:
256,192,10403,1,0,0:0:0:0:
256,192,10668,1,0,0:0:0:0:
256,192,10932,1,0,0:0:0:0:
256,192,11109,1,0,0:0:0:0:
256,192,11285,1,8,0:0:0:0:
256,192,11991,1,0,0:0:0:0:
256,192,12520,1,0,0:0:0:0:
256,192,12697,1,8,0:0:0:0:
256,192,13403,1,0,0:0:0:0:
256,192,13668,1,0,0:0:0:0:
256,192,13932,1,8,0:0:0:0:
256,192,14109,1,0,0:0:0:0:
256,192,14285,1,8,0:0:0:0:
256,192,14462,1,8,0:0:0:0:
256,192,14815,1,4,0:0:0:0:
256,192,15168,1,8,0:0:0:0:
256,192,15344,1,0,0:0:0:0:
256,192,15520,1,8,0:0:0:0:
256,192,16050,1,0,0:0:0:0:
256,192,16315,1,0,0:0:0:0:
256,192,16579,1,0,0:0:0:0:
256,192,16756,1,0,0:0:0:0:
256,192,16932,1,8,0:0:0:0:
256,192,17109,1,0,0:0:0:0:
256,192,17285,1,8,0:0:0:0:
256,192,17638,1,0,0:0:0:0:
256,192,18168,1,0,0:0:0:0:
256,192,18344,1,8,0:0:0:0:
256,192,18697,1,8,0:0:0:0:
256,192,18873,1,0,0:0:0:0:
256,192,19226,1,0,0:0:0:0:
256,192,19403,1,0,0:0:0:0:
256,192,19579,1,0,0:0:0:0:
256,192,19668,1,0,0:0:0:0:
256,192,19756,1,8,0:0:0:0:
256,192,20109,1,8,0:0:0:0:
256,192,20462,1,0,0:0:0:0:
256,192,20815,1,0,0:0:0:0:
256,192,20991,1,0,0:0:0:0:
256,192,21168,1,8,0:0:0:0:
256,192,21697,1,0,0:0:0:0:
256,192,21962,1,0,0:0:0:0:
256,192,22226,1,0,0:0:0:0:
256,192,22403,1,0,0:0:0:0:
256,192,22579,1,8,0:0:0:0:
256,192,22756,1,0,0:0:0:0:
256,192,22932,1,8,0:0:0:0:
256,192,23285,1,0,0:0:0:0:
256,192,23638,1,0,0:0:0:0:
256,192,23815,1,0,0:0:0:0:
256,192,23991,1,8,0:0:0:0:
256,192,24168,1,0,0:0:0:0:
256,192,24344,1,8,0:0:0:0:
256,192,24697,1,8,0:0:0:0:
256,192,24873,1,8,0:0:0:0:
256,192,25050,1,8,0:0:0:0:
256,192,25138,1,8,0:0:0:0:
256,192,25226,1,8,0:0:0:0:
256,192,25403,1,8,0:0:0:0:
256,192,26109,1,12,0:0:0:0:
256,192,26462,1,4,0:0:0:0:
256,192,26815,1,8,0:0:0:0:
256,192,26991,1,0,0:0:0:0:
256,192,27168,1,8,0:0:0:0:
256,192,27344,1,4,0:0:0:0:
256,192,27609,1,4,0:0:0:0:
256,192,27873,1,0,0:0:0:0:
256,192,28050,1,0,0:0:0:0:
256,192,28138,1,0,0:0:0:0:
256,192,28226,1,8,0:0:0:0:
256,192,28932,1,12,0:0:0:0:
256,192,29638,1,8,0:0:0:0:
256,192,29815,1,0,0:0:0:0:
256,192,29991,1,8,0:0:0:0:
256,192,30168,1,4,0:0:0:0:
256,192,30520,1,0,0:0:0:0:
256,192,30609,1,0,0:0:0:0:
256,192,30697,1,0,0:0:0:0:
256,192,30873,1,0,0:0:0:0:
256,192,31050,1,8,0:0:0:0:
256,192,31756,1,12,0:0:0:0:
256,192,32109,1,4,0:0:0:0:
256,192,32462,1,8,0:0:0:0:
256,192,32638,1,0,0:0:0:0:
256,192,32815,1,8,0:0:0:0:
256,192,32991,1,4,0:0:0:0:
256,192,33256,1,4,0:0:0:0:
256,192,33520,1,0,0:0:0:0:
256,192,33697,1,0,0:0:0:0:
256,192,33785,1,0,0:0:0:0:
256,192,33873,1,8,0:0:0:0:
256,192,34579,1,12,0:0:0:0:
256,192,35285,1,8,0:0:0:0:
256,192,35462,1,0,0:0:0:0:
256,192,35638,1,8,0:0:0:0:
256,192,35815,1,0,0:0:0:0:
256,192,36168,1,0,0:0:0:0:
256,192,36256,1,0,0:0:0:0:
256,192,36344,1,0,0:0:0:0:
256,192,36520,1,0,0:0:0:0:
256,192,36697,1,8,0:0:0:0:
256,192,37403,1,12,0:0:0:0:
256,192,37756,1,4,0:0:0:0:
256,192,38109,1,8,0:0:0:0:
256,192,38285,1,0,0:0:0:0:
256,192,38462,1,8,0:0:0:0:
256,192,38638,1,4,0:0:0:0:
256,192,38903,1,4,0:0:0:0:
256,192,39167,1,0,0:0:0:0:
256,192,39344,1,0,0:0:0:0:
256,192,39432,1,0,0:0:0:0:
256,192,39520,1,8,0:0:0:0:
256,192,39697,1,0,0:0:0:0:
256,192,39873,1,8,0:0:0:0:
256,192,40226,1,12,0:0:0:0:
256,192,40932,1,8,0:0:0:0:
256,192,41109,1,0,0:0:0:0:
256,192,41285,1,8,0:0:0:0:
256,192,41462,1,4,0:0:0:0:
256,192,41814,1,0,0:0:0:0:
256,192,41903,1,0,0:0:0:0:
256,192,41991,1,0,0:0:0:0:
256,192,42167,1,0,0:0:0:0:
256,192,42344,1,8,0:0:0:0:
256,192,42520,1,0,0:0:0:0:
256,192,42697,1,8,0:0:0:0:
256,192,43050,1,12,0:0:0:0:
256,192,43403,1,4,0:0:0:0:
256,192,43756,1,8,0:0:0:0:
256,192,43932,1,0,0:0:0:0:
256,192,44109,1,8,0:0:0:0:
256,192,44285,1,4,0:0:0:0:
256,192,44550,1,4,0:0:0:0:
256,192,44814,1,0,0:0:0:0:
256,192,44991,1,0,0:0:0:0:
256,192,45079,1,0,0:0:0:0:
256,192,45167,1,8,0:0:0:0:
256,192,45344,1,8,0:0:0:0:
256,192,45520,1,0,0:0:0:0:
256,192,45873,1,12,0:0:0:0:
256,192,46579,1,8,0:0:0:0:
256,192,46756,1,0,0:0:0:0:
256,192,46932,1,8,0:0:0:0:
256,192,47109,1,0,0:0:0:0:
256,192,47462,1,0,0:0:0:0:
256,192,47550,1,0,0:0:0:0:
256,192,47638,1,0,0:0:0:0:
256,192,47814,1,0,0:0:0:0:
256,192,47991,1,8,0:0:0:0:
256,192,48697,12,0,59991,0:0:0:0:
