osu file format v14

[General]
AudioFilename: audio.mp3
AudioLeadIn: 0
PreviewTime: 26109
Countdown: 0
SampleSet: Normal
StackLeniency: 0.7
Mode: 1
LetterboxInBreaks: 0
WidescreenStoryboard: 0

[Editor]
DistanceSpacing: 2.6
BeatDivisor: 16
GridSize: 32
TimelineZoom: 2.4

[Metadata]
Title:World Collapse
TitleUnicode:World Collapse
Artist:Akira Complex
ArtistUnicode:Akira Complex
Creator:rubies87
Version:Inner Oni
Source:
Tags:Featured Artist FA Reality Distortion S2TB 0019 S2TB-0019 Comiket 91 C91 Electronic instrumental vs. Camellia Cametek かめりあ かめるかめりあ KamelCamellia Capu
BeatmapID:2224993
BeatmapSetID:1062488

[Difficulty]
HPDrainRate:6
CircleSize:2
OverallDifficulty:6
ApproachRate:10
SliderMultiplier:1.4
SliderTickRate:1

[Events]
//Background and Video events
0,0,"planet.jpg",0,0
//Break Periods
//Storyboard Layer 0 (Background)
//Storyboard Layer 1 (Fail)
//Storyboard Layer 2 (Pass)
//Storyboard Layer 3 (Foreground)
//Storyboard Layer 4 (Overlay)
//Storyboard Sound Samples

[TimingPoints]
3521,352.941176470588,4,1,0,30,1,0
14815,-100,4,1,0,40,0,0
14991,-99.009900990099,4,1,0,40,0,0
15168,-98.0392156862745,4,1,0,40,0,0
15344,-97.0873786407767,4,1,0,40,0,0
15432,-96.6183574879227,4,1,0,40,0,0
15520,-96.1538461538461,4,1,0,40,0,0
15697,-97.0873786407767,4,1,0,40,0,0
15873,-98.0392156862745,4,1,0,40,0,0
16050,-99.009900990099,4,1,0,40,0,0
16204,-100,4,1,0,40,0,0
16315,-99.502487562189,4,1,0,40,0,0
16380,-99.009900990099,4,1,0,40,0,0
16557,-98.0392156862745,4,1,0,40,0,0
16668,-97.323600973236,4,1,0,40,0,0
16733,-97.0873786407767,4,1,0,40,0,0
16844,-96.6183574879227,4,1,0,40,0,0
16909,-96.1538461538461,4,1,0,40,0,0
17086,-97.0873786407767,4,1,0,40,0,0
17262,-98.0392156862745,4,1,0,40,0,0
17373,-98.5221674876847,4,1,0,40,0,0
17439,-99.009900990099,4,1,0,40,0,0
17550,-99.502487562189,4,1,0,40,0,0
17616,-100,4,1,0,40,0,0
17792,-99.009900990099,4,1,0,40,0,0
17969,-98.0392156862745,4,1,0,40,0,0
18145,-97.0873786407767,4,1,0,40,0,0
18256,-96.6183574879227,4,1,0,40,0,0
18321,-96.1538461538461,4,1,0,40,0,0
18498,-97.0873786407767,4,1,0,40,0,0
18674,-98.0392156862745,4,1,0,40,0,0
18851,-99.009900990099,4,1,0,40,0,0
19028,-100,4,1,0,40,0,0
19204,-99.009900990099,4,1,0,40,0,0
19315,-98.5221674876847,4,1,0,40,0,0
19381,-98.0392156862745,4,1,0,40,0,0
19491,-97.5609756097561,4,1,0,40,0,0
19535,-97.323600973236,4,1,0,40,0,0
19557,-97.0873786407767,4,1,0,40,0,0
19668,-96.6183574879227,4,1,0,40,0,0
19733,-96.1538461538461,4,1,0,40,0,0
19910,-97.0873786407767,4,1,0,40,0,0
20020,-97.5609756097561,4,1,0,40,0,0
20086,-98.0392156862745,4,1,0,40,0,0
20197,-98.5221674876847,4,1,0,40,0,0
20263,-99.009900990099,4,1,0,40,0,0
20462,-100,4,1,0,50,0,0
20638,-98.0392156862745,4,1,0,50,0,0
20815,-96.1538461538461,4,1,0,50,0,0
20991,-94.3396226415094,4,1,0,50,0,0
21079,-93.4579439252336,4,1,0,50,0,0
21168,-92.5925925925926,4,1,0,50,0,0
21344,-94.3396226415094,4,1,0,50,0,0
21520,-96.1538461538461,4,1,0,50,0,0
21697,-98.0392156862745,4,1,0,50,0,0
21851,-100,4,1,0,50,0,0
21962,-99.009900990099,4,1,0,50,0,0
22027,-98.0392156862745,4,1,0,50,0,0
22204,-96.1538461538461,4,1,0,50,0,0
22315,-94.7867298578199,4,1,0,50,0,0
22380,-94.3396226415094,4,1,0,50,0,0
22491,-93.4579439252336,4,1,0,50,0,0
22557,-92.5925925925926,4,1,0,50,0,0
22733,-94.3396226415094,4,1,0,50,0,0
22909,-96.1538461538461,4,1,0,50,0,0
23086,-98.0392156862745,4,1,0,50,0,0
23263,-100,4,1,0,50,0,0
23439,-98.0392156862745,4,1,0,50,0,0
23616,-96.1538461538461,4,1,0,50,0,0
23792,-94.3396226415094,4,1,0,50,0,0
23903,-93.4579439252336,4,1,0,50,0,0
23969,-92.5925925925926,4,1,0,50,0,0
24145,-94.3396226415094,4,1,0,50,0,0
24256,-95.2380952380952,4,1,0,50,0,0
24321,-96.1538461538461,4,1,0,50,0,0
24432,-97.0873786407767,4,1,0,50,0,0
24498,-98.0392156862745,4,1,0,50,0,0
24609,-96.1538461538461,4,1,0,50,0,0
24697,-94.3396226415094,4,1,0,50,0,0
24785,-92.5925925925926,4,1,0,50,0,0
24873,-90.9090909090909,4,1,0,50,0,0
24962,-89.2857142857143,4,1,0,50,0,0
25050,-87.719298245614,4,1,0,50,0,0
25138,-86.2068965517241,4,1,0,50,0,0
25226,-84.7457627118644,4,1,0,50,0,0
25403,-50,4,1,0,50,0,0
26109,-52.6315789473684,4,1,0,70,0,0
26462,-71.4285714285714,4,1,0,70,0,0
26638,-76.9230769230769,4,1,0,70,0,0
26726,-74.0740740740741,4,1,0,70,0,0
26815,-71.4285714285714,4,1,0,70,0,0
26859,-72.463768115942,4,1,0,70,0,0
26991,-76.9230769230769,4,1,0,70,0,0
27035,-78.125,4,1,0,70,0,0
27168,-83.3333333333333,4,1,0,70,0,0
27226,-78.945290913397,4,1,0,70,0,0
27285,-75.0018750468762,4,1,0,70,0,0
27344,-71.4285714285714,4,1,0,70,0,0
27520,-83.3333333333333,4,1,0,70,0,0
27609,-71.4285714285714,4,1,0,70,0,0
27873,-83.3333333333333,4,1,0,70,0,0
27962,-76.9230769230769,4,1,0,70,0,0
28006,-74.0740740740741,4,1,0,70,0,0
28050,-71.4285714285714,4,1,0,70,0,0
28138,-66.6666666666667,4,1,0,70,0,0
28226,-62.5,4,1,0,70,0,0
28403,-71.4285714285714,4,1,0,70,0,0
28462,-70.9219858156028,4,1,0,70,0,0
28520,-70.4225352112676,4,1,0,70,0,0
28579,-69.9300699300699,4,1,0,70,0,0
28638,-70.4225352112676,4,1,0,70,0,0
28697,-70.9219858156028,4,1,0,70,0,0
28756,-71.4285714285714,4,1,0,70,0,0
28932,-52.6315789473684,4,1,0,70,0,0
29550,-74.0740740740741,4,1,0,70,0,0
29638,-71.4285714285714,4,1,0,70,0,0
29682,-72.463768115942,4,1,0,70,0,0
29815,-76.9230769230769,4,1,0,70,0,0
29859,-78.125,4,1,0,70,0,0
29991,-83.3333333333333,4,1,0,70,0,0
30050,-78.945290913397,4,1,0,70,0,0
30109,-75.0018750468762,4,1,0,70,0,0
30168,-71.4285714285714,4,1,0,70,0,0
30344,-100,4,1,0,70,0,0
30520,-100,4,1,0,70,0,0
30609,-90.9090909090909,4,1,0,70,0,0
30697,-83.3333333333333,4,1,0,70,0,0
30785,-76.9230769230769,4,1,0,70,0,0
30829,-74.0740740740741,4,1,0,70,0,0
30873,-71.4285714285714,4,1,0,70,0,0
30962,-66.6666666666667,4,1,0,70,0,0
31050,-62.5,4,1,0,70,0,0
31094,-61.7283950617284,4,1,0,70,0,0
31226,-60.6060606060606,4,1,0,70,0,0
31270,-59.1715976331361,4,1,0,70,0,0
31403,-58.8235294117647,4,1,0,70,0,0
31447,-56.8181818181818,4,1,0,70,0,0
31579,-57.1428571428571,4,1,0,70,0,0
31623,-54.6448087431694,4,1,0,70,0,0
31734,-52.6315789473684,4,1,0,70,0,0
32087,-71.4285714285714,4,1,0,70,0,0
32263,-76.9230769230769,4,1,0,70,0,0
32351,-74.0740740740741,4,1,0,70,0,0
32440,-71.4285714285714,4,1,0,70,0,0
32484,-72.463768115942,4,1,0,70,0,0
32616,-76.9230769230769,4,1,0,70,0,0
32660,-78.125,4,1,0,70,0,0
32793,-83.3333333333333,4,1,0,70,0,0
32851,-78.945290913397,4,1,0,70,0,0
32910,-75.0018750468762,4,1,0,70,0,0
32969,-71.4285714285714,4,1,0,70,0,0
33145,-83.3333333333333,4,1,0,70,0,0
33234,-71.4285714285714,4,1,0,70,0,0
33498,-83.3333333333333,4,1,0,70,0,0
33587,-76.9230769230769,4,1,0,70,0,0
33631,-74.0740740740741,4,1,0,70,0,0
33675,-71.4285714285714,4,1,0,70,0,0
33763,-66.6666666666667,4,1,0,70,0,0
33851,-62.5,4,1,0,70,0,0
34028,-71.4285714285714,4,1,0,70,0,0
34087,-70.9219858156028,4,1,0,70,0,0
34145,-70.4225352112676,4,1,0,70,0,0
34204,-69.9300699300699,4,1,0,70,0,0
34263,-70.4225352112676,4,1,0,70,0,0
34322,-70.9219858156028,4,1,0,70,0,0
34381,-71.4285714285714,4,1,0,70,0,0
34557,-52.6315789473684,4,1,0,70,0,0
35175,-74.0740740740741,4,1,0,70,0,0
35263,-71.4285714285714,4,1,0,70,0,0
35307,-72.463768115942,4,1,0,70,0,0
35440,-76.9230769230769,4,1,0,70,0,0
35484,-78.125,4,1,0,70,0,0
35616,-66.6666666666667,4,1,0,70,0,0
35675,-68.1802686302584,4,1,0,70,0,0
35734,-69.7690643968464,4,1,0,70,0,0
35793,-71.4285714285714,4,1,0,70,0,0
35881,-74.0740740740741,4,1,0,70,0,0
35969,-66.6666666666667,4,1,0,70,0,0
36057,-68.9655172413793,4,1,0,70,0,0
36145,-71.4285714285714,4,1,0,70,0,0
36234,-74.0740740740741,4,1,0,70,0,0
36322,-66.6666666666667,4,1,0,70,0,0
36410,-68.9655172413793,4,1,0,70,0,0
36498,-71.4285714285714,4,1,0,70,0,0
36675,-62.5,4,1,0,70,0,0
37381,-52.6315789473684,4,1,0,70,0,0
37734,-71.4285714285714,4,1,0,70,0,0
37910,-76.9230769230769,4,1,0,70,0,0
37998,-74.0740740740741,4,1,0,70,0,0
38087,-71.4285714285714,4,1,0,70,0,0
38131,-72.463768115942,4,1,0,70,0,0
38263,-76.9230769230769,4,1,0,70,0,0
38307,-78.125,4,1,0,70,0,0
38440,-83.3333333333333,4,1,0,70,0,0
38498,-78.945290913397,4,1,0,70,0,0
38557,-75.0018750468762,4,1,0,70,0,0
38616,-71.4285714285714,4,1,0,70,0,0
38792,-83.3333333333333,4,1,0,70,0,0
38881,-71.4285714285714,4,1,0,70,0,0
39145,-83.3333333333333,4,1,0,70,0,0
39234,-76.9230769230769,4,1,0,70,0,0
39278,-74.0740740740741,4,1,0,70,0,0
39322,-71.4285714285714,4,1,0,70,0,0
39410,-66.6666666666667,4,1,0,70,0,0
39498,-62.5,4,1,0,70,0,0
39675,-71.4285714285714,4,1,0,70,0,0
39734,-70.9219858156028,4,1,0,70,0,0
39792,-70.4225352112676,4,1,0,70,0,0
39851,-69.9300699300699,4,1,0,70,0,0
39910,-70.4225352112676,4,1,0,70,0,0
39969,-70.9219858156028,4,1,0,70,0,0
40028,-71.4285714285714,4,1,0,70,0,0
40204,-52.6315789473684,4,1,0,70,0,0
40822,-74.0740740740741,4,1,0,70,0,0
40910,-71.4285714285714,4,1,0,70,0,0
40954,-72.463768115942,4,1,0,70,0,0
41087,-76.9230769230769,4,1,0,70,0,0
41131,-78.125,4,1,0,70,0,0
41263,-83.3333333333333,4,1,0,70,0,0
41322,-78.945290913397,4,1,0,70,0,0
41381,-75.0018750468762,4,1,0,70,0,0
41440,-71.4285714285714,4,1,0,70,0,0
41616,-100,4,1,0,70,0,0
41792,-100,4,1,0,70,0,0
41881,-90.9090909090909,4,1,0,70,0,0
41969,-83.3333333333333,4,1,0,70,0,0
42057,-76.9230769230769,4,1,0,70,0,0
42101,-74.0740740740741,4,1,0,70,0,0
42145,-71.4285714285714,4,1,0,70,0,0
42234,-66.6666666666667,4,1,0,70,0,0
42322,-62.5,4,1,0,70,0,0
42366,-61.7283950617284,4,1,0,70,0,0
42498,-60.6060606060606,4,1,0,70,0,0
42542,-59.1715976331361,4,1,0,70,0,0
42675,-58.8235294117647,4,1,0,70,0,0
42719,-56.8181818181818,4,1,0,70,0,0
42851,-57.1428571428571,4,1,0,70,0,0
42895,-54.6448087431694,4,1,0,70,0,0
43028,-52.6315789473684,4,1,0,70,0,0
43381,-71.4285714285714,4,1,0,70,0,0
43557,-76.9230769230769,4,1,0,70,0,0
43645,-74.0740740740741,4,1,0,70,0,0
43734,-71.4285714285714,4,1,0,70,0,0
43778,-72.463768115942,4,1,0,70,0,0
43910,-76.9230769230769,4,1,0,70,0,0
43954,-78.125,4,1,0,70,0,0
44087,-83.3333333333333,4,1,0,70,0,0
44145,-78.945290913397,4,1,0,70,0,0
44204,-75.0018750468762,4,1,0,70,0,0
44263,-71.4285714285714,4,1,0,70,0,0
44439,-83.3333333333333,4,1,0,70,0,0
44528,-71.4285714285714,4,1,0,70,0,0
44792,-83.3333333333333,4,1,0,70,0,0
44881,-76.9230769230769,4,1,0,70,0,0
44925,-74.0740740740741,4,1,0,70,0,0
44969,-71.4285714285714,4,1,0,70,0,0
45057,-66.6666666666667,4,1,0,70,0,0
45145,-62.5,4,1,0,70,0,0
45322,-71.4285714285714,4,1,0,70,0,0
45381,-70.9219858156028,4,1,0,70,0,0
45439,-70.4225352112676,4,1,0,70,0,0
45498,-69.9300699300699,4,1,0,70,0,0
45557,-70.4225352112676,4,1,0,70,0,0
45616,-70.9219858156028,4,1,0,70,0,0
45675,-71.4285714285714,4,1,0,70,0,0
45851,-52.6315789473684,4,1,0,70,0,0
46469,-74.0740740740741,4,1,0,70,0,0
46557,-71.4285714285714,4,1,0,70,0,0
46601,-72.463768115942,4,1,0,70,0,0
46734,-76.9230769230769,4,1,0,70,0,0
46778,-78.125,4,1,0,70,0,0
46910,-66.6666666666667,4,1,0,70,0,0
46969,-68.1802686302584,4,1,0,70,0,0
47028,-69.7690643968464,4,1,0,70,0,0
47087,-71.4285714285714,4,1,0,70,0,0
47175,-74.0740740740741,4,1,0,70,0,0
47263,-66.6666666666667,4,1,0,70,0,0
47351,-68.9655172413793,4,1,0,70,0,0
47439,-71.4285714285714,4,1,0,70,0,0
47528,-74.0740740740741,4,1,0,70,0,0
47616,-66.6666666666667,4,1,0,70,0,0
47704,-68.9655172413793,4,1,0,70,0,0
47792,-71.4285714285714,4,1,0,70,0,0
47969,-62.5,4,1,0,70,0,0
48520,-66.6666666666667,4,1,0,60,0,0
50109,-66.6666666666667,4,1,0,55,0,0
51520,-66.6666666666667,4,1,0,50,0,0
52932,-66.6666666666667,4,1,0,45,0,0
54344,-66.6666666666667,4,1,0,40,0,0
55756,-66.6666666666667,4,1,0,45,0,0
57168,-66.6666666666667,4,1,0,50,0,0
58579,-66.6666666666667,4,1,0,55,0,0
59991,-66.6666666666667,4,1,0,60,0,0

[HitObjects]
256,192,3521,5,4,0:0:0:0:
256,192,3697,1,0,0:0:0:0:
256,192,3873,1,0,0:0:0:0:
256,192,4050,1,0,0:0:0:0:
256,192,4226,1,8,0:0:0:0:
256,192,4756,1,0,0:0:0:0:
256,192,5021,1,0,0:0:0:0:
256,192,5109,1,0,0:0:0:0:
256,192,5285,1,0,0:0:0:0:
256,192,5418,1,0,0:0:0:0:
256,192,5462,1,0,0:0:0:0:
256,192,5550,1,0,0:0:0:0:
256,192,5638,1,8,0:0:0:0:
256,192,6344,1,0,0:0:0:0:
256,192,6873,1,0,0:0:0:0:
256,192,6962,1,0,0:0:0:0:
256,192,7050,1,8,0:0:0:0:
256,192,7579,1,0,0:0:0:0:
256,192,7932,1,0,0:0:0:0:
256,192,8020,1,0,0:0:0:0:
256,192,8109,1,0,0:0:0:0:
256,192,8197,1,8,0:0:0:0:
256,192,8241,1,0,0:0:0:0:
256,192,8285,1,0,0:0:0:0:
256,192,8373,1,0,0:0:0:0:
256,192,8462,1,8,0:0:0:0:
256,192,9168,1,0,0:0:0:0:
256,192,9520,1,0,0:0:0:0:
256,192,9697,1,0,0:0:0:0:
256,192,9785,1,0,0:0:0:0:
256,192,9873,1,8,0:0:0:0:
256,192,10403,1,0,0:0:0:0:
256,192,10668,1,0,0:0:0:0:
256,192,10932,1,0,0:0:0:0:
256,192,11065,1,8,0:0:0:0:
256,192,11109,1,0,0:0:0:0:
256,192,11197,1,0,0:0:0:0:
256,192,11285,1,8,0:0:0:0:
256,192,11991,1,0,0:0:0:0:
256,192,12520,1,0,0:0:0:0:
256,192,12609,1,0,0:0:0:0:
256,192,12697,1,8,0:0:0:0:
256,192,13226,1,8,0:0:0:0:
256,192,13315,1,8,0:0:0:0:
256,192,13403,1,0,0:0:0:0:
256,192,13447,1,0,0:0:0:0:
256,192,13491,1,0,0:0:0:0:
256,192,13579,1,8,0:0:0:0:
256,192,13668,1,8,0:0:0:0:
256,192,13756,1,0,0:0:0:0:
256,192,13844,1,8,0:0:0:0:
256,192,13932,1,8,0:0:0:0:
256,192,14109,1,0,0:0:0:0:
256,192,14285,1,8,0:0:0:0:
256,192,14462,1,8,0:0:0:0:
256,192,14638,1,8,0:0:0:0:
256,192,14815,1,4,0:0:0:0:
256,192,14991,1,0,0:0:0:0:
256,192,15168,1,8,0:0:0:0:
256,192,15344,1,0,0:0:0:0:
256,192,15432,1,0,0:0:0:0:
256,192,15520,1,8,0:0:0:0:
256,192,15697,1,0,0:0:0:0:
256,192,15873,1,8,0:0:0:0:
256,192,16050,1,0,0:0:0:0:
256,192,16315,1,0,0:0:0:0:
256,192,16579,1,0,0:0:0:0:
256,192,16712,1,8,0:0:0:0:
256,192,16756,1,0,0:0:0:0:
256,192,16844,1,0,0:0:0:0:
256,192,16932,1,8,0:0:0:0:
256,192,17109,1,0,0:0:0:0:
256,192,17285,1,8,0:0:0:0:
256,192,17373,1,0,0:0:0:0:
256,192,17462,1,8,0:0:0:0:
256,192,17550,1,8,0:0:0:0:
256,192,17638,1,0,0:0:0:0:
256,192,18168,1,0,0:0:0:0:
256,192,18256,1,0,0:0:0:0:
256,192,18344,1,8,0:0:0:0:
256,192,18520,1,0,0:0:0:0:
256,192,18697,1,8,0:0:0:0:
256,192,18873,1,0,0:0:0:0:
256,192,19226,1,0,0:0:0:0:
256,192,19315,1,0,0:0:0:0:
256,192,19403,1,0,0:0:0:0:
256,192,19491,1,8,0:0:0:0:
256,192,19535,1,0,0:0:0:0:
256,192,19579,1,0,0:0:0:0:
256,192,19668,1,0,0:0:0:0:
256,192,19756,1,8,0:0:0:0:
256,192,19932,1,0,0:0:0:0:
256,192,20020,1,0,0:0:0:0:
256,192,20109,1,8,0:0:0:0:
256,192,20197,1,8,0:0:0:0:
256,192,20285,1,0,0:0:0:0:
256,192,20462,1,0,0:0:0:0:
256,192,20638,1,8,0:0:0:0:
256,192,20815,1,0,0:0:0:0:
256,192,20991,1,0,0:0:0:0:
256,192,21079,1,0,0:0:0:0:
256,192,21168,1,8,0:0:0:0:
256,192,21344,1,0,0:0:0:0:
256,192,21520,1,8,0:0:0:0:
256,192,21697,1,0,0:0:0:0:
256,192,21962,1,0,0:0:0:0:
256,192,22226,1,0,0:0:0:0:
256,192,22359,1,8,0:0:0:0:
256,192,22403,1,0,0:0:0:0:
256,192,22491,1,0,0:0:0:0:
256,192,22579,1,8,0:0:0:0:
256,192,22756,1,0,0:0:0:0:
256,192,22932,1,8,0:0:0:0:
256,192,23285,1,0,0:0:0:0:
256,192,23462,1,8,0:0:0:0:
256,192,23638,1,0,0:0:0:0:
256,192,23815,1,0,0:0:0:0:
256,192,23903,1,0,0:0:0:0:
256,192,23991,1,8,0:0:0:0:
256,192,24168,1,0,0:0:0:0:
256,192,24256,1,0,0:0:0:0:
256,192,24344,1,0,0:0:0:0:
256,192,24432,1,0,0:0:0:0:
256,192,24520,1,8,0:0:0:0:
256,192,24609,1,8,0:0:0:0:
256,192,24697,1,8,0:0:0:0:
256,192,24785,1,8,0:0:0:0:
256,192,24873,1,8,0:0:0:0:
256,192,24962,1,8,0:0:0:0:
256,192,25050,1,8,0:0:0:0:
256,192,25138,1,8,0:0:0:0:
256,192,25226,1,0,0:0:0:0:
256,192,25403,1,8,0:0:0:0:
256,192,26109,1,12,0:0:0:0:
256,192,26462,1,4,0:0:0:0:
256,192,26638,1,8,0:0:0:0:
256,192,26726,1,0,0:0:0:0:
256,192,26815,1,8,0:0:0:0:
256,192,26859,1,8,0:0:0:0:
256,192,26991,1,0,0:0:0:0:
256,192,27035,1,0,0:0:0:0:
256,192,27168,1,8,0:0:0:0:
256,192,27226,1,8,0:0:0:0:
256,192,27285,1,8,0:0:0:0:
256,192,27344,1,4,0:0:0:0:
256,192,27609,1,4,0:0:0:0:
256,192,27873,1,0,0:0:0:0:
256,192,27962,1,8,0:0:0:0:
256,192,28006,1,8,0:0:0:0:
256,192,28050,1,8,0:0:0:0:
256,192,28138,1,0,0:0:0:0:
256,192,28226,1,8,0:0:0:0:
256,192,28403,1,8,0:0:0:0:
256,192,28462,1,0,0:0:0:0:
256,192,28520,1,0,0:0:0:0:
256,192,28579,1,8,0:0:0:0:
256,192,28638,1,8,0:0:0:0:
256,192,28697,1,8,0:0:0:0:
256,192,28756,1,0,0:0:0:0:
256,192,28932,1,12,0:0:0:0:
256,192,29550,1,0,0:0:0:0:
256,192,29638,1,8,0:0:0:0:
256,192,29682,1,8,0:0:0:0:
256,192,29815,1,0,0:0:0:0:
256,192,29859,1,0,0:0:0:0:
256,192,29991,1,8,0:0:0:0:
256,192,30050,1,8,0:0:0:0:
256,192,30109,1,8,0:0:0:0:
256,192,30168,1,4,0:0:0:0:
256,192,30520,1,0,0:0:0:0:
256,192,30609,1,8,0:0:0:0:
256,192,30697,1,0,0:0:0:0:
256,192,30785,1,8,0:0:0:0:
256,192,30829,1,8,0:0:0:0:
256,192,30873,1,8,0:0:0:0:
256,192,30962,1,0,0:0:0:0:
256,192,31050,1,8,0:0:0:0:
256,192,31094,1,8,0:0:0:0:
256,192,31226,1,0,0:0:0:0:
256,192,31270,1,0,0:0:0:0:
256,192,31403,1,8,0:0:0:0:
256,192,31447,1,8,0:0:0:0:
256,192,31579,1,0,0:0:0:0:
256,192,31623,1,0,0:0:0:0:
256,192,31756,1,12,0:0:0:0:
256,192,32109,1,4,0:0:0:0:
256,192,32285,1,8,0:0:0:0:
256,192,32373,1,0,0:0:0:0:
256,192,32462,1,8,0:0:0:0:
256,192,32506,1,8,0:0:0:0:
256,192,32638,1,0,0:0:0:0:
256,192,32682,1,0,0:0:0:0:
256,192,32815,1,8,0:0:0:0:
256,192,32873,1,8,0:0:0:0:
256,192,32932,1,8,0:0:0:0:
256,192,32991,1,4,0:0:0:0:
256,192,33256,1,4,0:0:0:0:
256,192,33520,1,0,0:0:0:0:
256,192,33609,1,8,0:0:0:0:
256,192,33653,1,8,0:0:0:0:
256,192,33697,1,8,0:0:0:0:
256,192,33785,1,0,0:0:0:0:
256,192,33873,1,8,0:0:0:0:
256,192,34050,1,8,0:0:0:0:
256,192,34109,1,0,0:0:0:0:
256,192,34168,1,0,0:0:0:0:
256,192,34226,1,8,0:0:0:0:
256,192,34285,1,8,0:0:0:0:
256,192,34344,1,8,0:0:0:0:
256,192,34403,1,0,0:0:0:0:
256,192,34579,1,12,0:0:0:0:
256,192,35197,1,0,0:0:0:0:
256,192,35285,1,8,0:0:0:0:
256,192,35329,1,8,0:0:0:0:
256,192,35462,1,0,0:0:0:0:
256,192,35506,1,0,0:0:0:0:
256,192,35638,1,8,0:0:0:0:
256,192,35697,1,8,0:0:0:0:
256,192,35756,1,8,0:0:0:0:
256,192,35815,1,0,0:0:0:0:
256,192,35903,1,0,0:0:0:0:
256,192,35991,1,8,0:0:0:0:
256,192,36079,1,0,0:0:0:0:
256,192,36168,1,0,0:0:0:0:
256,192,36256,1,0,0:0:0:0:
256,192,36344,1,8,0:0:0:0:
256,192,36432,1,8,0:0:0:0:
256,192,36520,1,0,0:0:0:0:
256,192,36697,1,8,0:0:0:0:
256,192,37403,1,12,0:0:0:0:
256,192,37756,1,4,0:0:0:0:
256,192,37932,1,8,0:0:0:0:
256,192,38020,1,0,0:0:0:0:
256,192,38109,1,8,0:0:0:0:
256,192,38153,1,8,0:0:0:0:
256,192,38285,1,0,0:0:0:0:
256,192,38329,1,0,0:0:0:0:
256,192,38462,1,8,0:0:0:0:
256,192,38520,1,8,0:0:0:0:
256,192,38579,1,8,0:0:0:0:
256,192,38638,1,4,0:0:0:0:
256,192,38903,1,4,0:0:0:0:
256,192,39167,1,0,0:0:0:0:
256,192,39256,1,8,0:0:0:0:
256,192,39300,1,8,0:0:0:0:
256,192,39344,1,8,0:0:0:0:
256,192,39432,1,0,0:0:0:0:
256,192,39520,1,8,0:0:0:0:
256,192,39697,1,8,0:0:0:0:
256,192,39756,1,0,0:0:0:0:
256,192,39814,1,0,0:0:0:0:
256,192,39873,1,8,0:0:0:0:
256,192,39932,1,8,0:0:0:0:
256,192,39991,1,8,0:0:0:0:
256,192,40050,1,0,0:0:0:0:
256,192,40226,1,12,0:0:0:0:
256,192,40844,1,0,0:0:0:0:
256,192,40932,1,8,0:0:0:0:
256,192,40976,1,8,0:0:0:0:
256,192,41109,1,0,0:0:0:0:
256,192,41153,1,0,0:0:0:0:
256,192,41285,1,8,0:0:0:0:
256,192,41344,1,8,0:0:0:0:
256,192,41403,1,8,0:0:0:0:
256,192,41462,1,4,0:0:0:0:
256,192,41814,1,0,0:0:0:0:
256,192,41903,1,8,0:0:0:0:
256,192,41991,1,0,0:0:0:0:
256,192,42079,1,8,0:0:0:0:
256,192,42123,1,8,0:0:0:0:
256,192,42167,1,8,0:0:0:0:
256,192,42256,1,0,0:0:0:0:
256,192,42344,1,8,0:0:0:0:
256,192,42388,1,8,0:0:0:0:
256,192,42520,1,0,0:0:0:0:
256,192,42564,1,0,0:0:0:0:
256,192,42697,1,8,0:0:0:0:
256,192,42741,1,8,0:0:0:0:
256,192,42873,1,0,0:0:0:0:
256,192,42917,1,0,0:0:0:0:
256,192,43050,1,12,0:0:0:0:
256,192,43403,1,4,0:0:0:0:
256,192,43579,1,8,0:0:0:0:
256,192,43667,1,0,0:0:0:0:
256,192,43756,1,8,0:0:0:0:
256,192,43800,1,8,0:0:0:0:
256,192,43932,1,0,0:0:0:0:
256,192,43976,1,0,0:0:0:0:
256,192,44109,1,8,0:0:0:0:
256,192,44167,1,8,0:0:0:0:
256,192,44226,1,8,0:0:0:0:
256,192,44285,1,4,0:0:0:0:
256,192,44550,1,4,0:0:0:0:
256,192,44814,1,0,0:0:0:0:
256,192,44903,1,8,0:0:0:0:
256,192,44947,1,8,0:0:0:0:
256,192,44991,1,8,0:0:0:0:
256,192,45079,1,0,0:0:0:0:
256,192,45167,1,8,0:0:0:0:
256,192,45344,1,8,0:0:0:0:
256,192,45403,1,0,0:0:0:0:
256,192,45462,1,0,0:0:0:0:
256,192,45520,1,8,0:0:0:0:
256,192,45579,1,8,0:0:0:0:
256,192,45638,1,8,0:0:0:0:
256,192,45697,1,0,0:0:0:0:
256,192,45873,1,12,0:0:0:0:
256,192,46491,1,0,0:0:0:0:
256,192,46579,1,8,0:0:0:0:
256,192,46623,1,8,0:0:0:0:
256,192,46756,1,0,0:0:0:0:
256,192,46800,1,0,0:0:0:0:
256,192,46932,1,8,0:0:0:0:
256,192,46991,1,8,0:0:0:0:
256,192,47050,1,8,0:0:0:0:
256,192,47109,1,0,0:0:0:0:
256,192,47197,1,0,0:0:0:0:
256,192,47285,1,8,0:0:0:0:
256,192,47373,1,0,0:0:0:0:
256,192,47462,1,0,0:0:0:0:
256,192,47550,1,0,0:0:0:0:
256,192,47638,1,8,0:0:0:0:
256,192,47726,1,8,0:0:0:0:
256,192,47814,1,0,0:0:0:0:
256,192,47991,1,8,0:0:0:0:
256,192,48697,12,0,59991,0:0:0:0:
