osu file format v14

[General]
AudioFilename: audio.mp3
AudioLeadIn: 0
PreviewTime: -1
Countdown: 0
SampleSet: None
StackLeniency: 0.2
Mode: 0
LetterboxInBreaks: 0
WidescreenStoryboard: 1
SamplesMatchPlaybackRate: 1

[Editor]
Bookmarks: 11822,14646,31839,47810
DistanceSpacing: 1.2
BeatDivisor: 4
GridSize: 4
TimelineZoom: 3.399999

[Metadata]
Title:World Collapse
TitleUnicode:World Collapse
Artist:Akira Complex
ArtistUnicode:Akira Complex
Creator:lxyn
Version:Reality Distortion
Source:
Tags:
BeatmapID:1468416
BeatmapSetID:680370

[Difficulty]
HPDrainRate:5
CircleSize:4.4
OverallDifficulty:8
ApproachRate:9.4
SliderMultiplier:3.1
SliderTickRate:2

[Events]
//Background and Video events
0,0,"the_good_die_young_by_nanomortis-d9ua12s.png",0,0
//Break Periods
//Storyboard Layer 0 (Background)
//Storyboard Layer 1 (Fail)
//Storyboard Layer 2 (Pass)
//Storyboard Layer 3 (Foreground)
//Storyboard Sound Samples

[TimingPoints]
3352,352.941176470588,4,3,0,40,1,0
3352,-200,4,3,0,40,0,0
25928,352.941176470588,4,3,0,40,1,0
25928,-100,4,3,0,40,0,1
26280,-50,4,3,0,40,0,1
26633,-200,4,3,0,40,0,1
26810,-133.333333333333,4,3,0,40,0,1
26986,-66.6666666666667,4,3,0,40,0,1
27428,-100,4,3,0,40,0,1
27692,-100,4,3,0,40,0,1
28045,-133.333333333333,4,3,0,40,0,1
28222,-66.6666666666667,4,3,0,40,0,1
28751,-133.333333333333,4,3,0,40,0,1
29457,-200,4,3,0,40,0,1
29633,-133.333333333333,4,3,0,40,0,1
29810,-66.6666666666667,4,3,0,40,0,1
29986,-76.9230769230769,4,3,0,40,0,1
30339,-50,4,3,0,40,0,1
30869,-133.333333333333,4,3,0,40,0,1
31045,-100,4,3,0,40,0,1
31575,-100,4,3,0,40,0,1
31839,-50,4,3,0,40,0,1
32280,-133.333333333333,4,3,0,40,0,1
32457,-200,4,3,0,40,0,1
32633,-66.6666666666667,4,3,0,40,0,1
33075,-100,4,3,0,40,0,1
33339,-100,4,3,0,40,0,1
34045,-50,4,3,0,40,0,1
34398,-100,4,3,0,40,0,1
35016,-200,4,3,0,40,0,1
35192,-133.333333333333,4,3,0,40,0,1
35457,-66.6666666666667,4,3,0,40,0,1
35633,-100,4,3,0,40,0,1
36516,-100,4,3,0,40,0,0

[Colours]
Combo1 : 240,240,240
Combo2 : 194,88,91
Combo3 : 159,215,208

[HitObjects]
256,192,21704,12,0,25234,0:0:0:0:
16,320,25928,6,0,B|11:269|11:269|3:265|3:265|10:261|10:261|4:189|4:189|15:198,1,155
91,233,26280,2,0,B|107:252|107:252|115:160|115:160|117:140|117:140|125:141|125:141|117:140|117:140|118:120|118:120|126:121|126:121|118:120|118:120|120:100|120:100|128:101|128:101|120:100|120:100|125:41|125:41|99:62,1,310
32,16,26545,5,0,0:0:0:0:
32,16,26633,2,0,B|22:33|22:33|20:56,1,38.75
176,304,26810,2,0,B|193:274|193:274|190:251,1,58.1250022172929
424,0,26986,2,0,P|364:12|328:52,1,116.250004434586
380,164,27163,2,0,P|432:188|372:132,1,232.500008869171
296,131,27428,6,0,B|289:211|289:211|281:210|281:210|289:211|289:211|284:256|284:256|320:284,1,155
384,344,27692,6,0,B|378:274|378:274|388:268,1,77.5
424,136,27869,1,0,0:0:0:0:
424,136,27957,1,0,0:0:0:0:
424,136,28045,1,0,0:0:0:0:
88,44,28222,6,0,B|125:122|125:122|153:132,1,116.250004434586
224,217,28398,2,0,B|136:209|136:209|116:227,1,116.250004434586
6,248,28574,2,0,B|56:176|56:176|49:148,1,116.250004434586
401,195,28751,6,0,B|381:193|381:193|365:200|365:200|277:192|277:192|261:182|261:182|206:177|206:177|205:189|205:189|206:177|206:177|182:175|182:175|181:188|181:188|182:175|182:175|94:168,1,348.750013303757
132,292,29369,5,0,0:0:0:0:
132,292,29457,2,0,B|122:275|122:275|120:252,1,38.75
316,56,29634,2,0,B|333:86|333:86|330:109,1,58.1250022172929
376,320,29810,2,0,P|314:312|275:276,1,116.250004434586
268,170,29987,2,0,P|375:113|352:232,1,302.249986164094
351,232,30339,5,0,0:0:0:0:
161,232,30516,5,0,0:0:0:0:
161,232,30604,1,0,0:0:0:0:
161,232,30692,1,0,0:0:0:0:
161,232,30780,1,0,0:0:0:0:
161,232,30869,1,0,0:0:0:0:
247,273,31045,6,0,B|256:235|256:235|250:197,1,77.5
155,134,31222,2,0,B|118:144|118:144|88:169,1,77.5
81,283,31398,2,0,B|108:310|108:310|144:323,1,77.5
485,369,31575,6,0,B|476:361|476:361|469:286|469:286|465:286|465:286|469:286|469:286|465:234|465:234|457:242,1,155
376,44,31927,2,0,B|390:61|390:61|385:117|385:117|397:118|397:118|385:117|385:117|383:141|383:141|395:142|395:142|383:141|383:141|378:196|378:196|372:216|372:216|371:236|371:236|371:236|371:236|366:285|366:285|384:269,1,310
460,240,32192,5,0,0:0:0:0:
460,240,32280,2,0,B|495:236|495:236|512:221,1,58.1250022172929
296,96,32457,2,0,B|276:95|276:95|259:103,1,38.75
156,360,32633,2,0,P|201:319|213:266,1,116.250004434586
112,195,32810,2,0,P|54:200|134:218,1,232.500008869171
201,182,33075,6,0,B|167:109|167:109|174:106|174:106|167:109|167:109|148:67|148:67|103:61,1,155
175,106,33339,5,0,0:0:0:0:
406,197,33516,1,0,0:0:0:0:
406,197,33604,1,0,0:0:0:0:
406,197,33692,1,0,0:0:0:0:
414,75,33869,6,0,P|371:78|334:99,1,77.5
373,288,34045,2,0,P|483:143|310:199,1,465
71,226,34398,6,0,B|90:224|90:224|106:214|106:214|149:211|149:211|149:203|149:203|149:211|149:211|189:207|189:207|206:214|206:214|266:208|266:208|266:216|266:216|266:208|266:208|290:206|290:206|290:214|290:214|290:206|290:206|429:194,1,387.5
336,80,34927,5,0,0:0:0:0:
336,80,35016,1,0,0:0:0:0:
336,80,35105,2,0,B|346:97|346:97|348:120,1,38.75
168,352,35281,2,0,B|151:322|151:322|154:299,1,58.1250022172929
128,72,35457,2,0,P|188:84|224:124,1,116.250004434586
256,304,35633,1,0,0:0:0:0:
256,304,35722,1,0,0:0:0:0:
256,304,35810,2,0,L|335:297,1,77.5
480,284,35986,1,0,0:0:0:0:
504,192,36163,1,0,0:0:0:0:
504,192,36251,1,0,0:0:0:0:
504,192,36339,2,0,B|460:187|460:187|459:190|459:190|460:187|460:187|424:184,1,77.5
130,158,36516,1,0,0:0:0:0:
