osu file format v14

[General]
AudioFilename: audio.mp3
AudioLeadIn: 0
PreviewTime: 24514
Countdown: 0
SampleSet: Soft
StackLeniency: 0.2
Mode: 0
LetterboxInBreaks: 0
WidescreenStoryboard: 1

[Editor]
DistanceSpacing: 0.1
BeatDivisor: 8
GridSize: 16
TimelineZoom: 2.799999

[Metadata]
Title:World Collapse
TitleUnicode:World Collapse
Artist:Akira Complex
ArtistUnicode:Akira Complex
Creator:faygo
Version:NiNo's EX
Source:
Tags:S2TB Recording Reality Distortion KuranteMelodii Oiso [Crz]Sword Emilia Firis Mistlud sammish Mentai Yugu Ethan Deppyforce - Frontier - -_frontier_- shockolatte [Crz]Makii den0saur SnowNiNo_ -Tochi - Matha - Suzuki_1112 wubs
BeatmapID:1491350
BeatmapSetID:664228

[Difficulty]
HPDrainRate:5
CircleSize:4
OverallDifficulty:8
ApproachRate:9.5
SliderMultiplier:2.4
SliderTickRate:1

[Events]
//Background and Video events
0,0,"unnamed.png",0,0
//Break Periods
//Storyboard Layer 0 (Background)
//Storyboard Layer 1 (Fail)
//Storyboard Layer 2 (Pass)
//Storyboard Layer 3 (Foreground)
//Storyboard Sound Samples

[TimingPoints]
3338,352.941176470588,4,2,1,10,1,0
3338,-200,4,2,1,10,0,0
6690,-133.333333333333,4,2,1,10,0,0
24514,-100,4,2,1,10,0,0
25926,-50,4,2,1,70,0,0
27161,-33.3333333333333,4,2,1,70,0,0
27690,-66.6666666666667,4,2,1,70,0,0
28220,-33.3333333333333,4,2,1,70,0,0
28749,-50,4,2,1,70,0,0
29985,-33.3333333333333,4,2,1,70,0,0
30867,-66.6666666666667,4,2,1,70,0,0
31043,-33.3333333333333,4,2,1,70,0,0
32279,-50,4,2,1,70,0,0
32808,-33.3333333333333,4,2,1,70,0,0
33690,-66.6666666666667,4,2,1,70,0,0
33867,-33.3333333333333,4,2,1,70,0,0
34396,-50,4,2,1,70,0,0
36514,-100,4,2,1,70,0,0
37220,-33.3333333333333,4,2,1,70,0,0
37926,-50,4,2,1,70,0,0
38455,-33.3333333333333,4,2,1,70,0,0
38985,-66.6666666666667,4,2,1,70,0,0
39514,-33.3333333333333,4,2,1,70,0,0
40043,-50,4,2,1,70,0,0
41279,-33.3333333333333,4,2,1,70,0,0
42161,-66.6666666666667,4,2,1,70,0,0
42337,-33.3333333333333,4,2,1,70,0,0
43573,-50,4,2,1,70,0,0
44102,-33.3333333333333,4,2,1,70,0,0
44985,-66.6666666666667,4,2,1,70,0,0
45161,-33.3333333333333,4,2,1,70,0,0
45690,-50,4,2,1,70,0,0
46396,-33.3333333333333,4,2,1,70,0,0
47808,-100,4,2,1,70,0,0

[Colours]
Combo1 : 122,122,122
Combo2 : 255,34,34
Combo3 : 255,135,77
Combo4 : 255,255,57
SliderBorder : 215,0,0
SliderTrackOverride : 90,90,90

[HitObjects]
257,173,3338,6,0,B|202:162|174:182|174:182|175:101|227:77|263:70|332:69|373:133|362:210|336:234|288:278|221:250|221:250|242:302|209:334|209:334|317:335|359:291|359:291|340:334|363:370,1,840,4|0,1:3|0:0,0:0:0:0:
130,337,6161,5,0,0:0:0:0:
132,314,6690,1,0,0:0:0:0:
134,291,6778,1,0,0:0:0:0:
137,269,6866,1,0,0:0:0:0:
140,247,7396,1,0,0:0:0:0:
142,224,7749,1,0,0:0:0:0:
144,201,7837,1,0,0:0:0:0:
147,179,7925,1,0,0:0:0:0:
150,157,8014,1,0,0:0:0:0:
153,135,8102,1,0,0:0:0:0:
156,113,8190,1,0,0:0:0:0:
159,91,8278,1,0,0:0:0:0:
296,60,8985,5,0,0:0:0:0:
299,82,9337,1,0,0:0:0:0:
302,104,9514,1,0,0:0:0:0:
305,126,9602,1,0,0:0:0:0:
308,148,9691,1,0,0:0:0:0:
311,170,10220,1,0,0:0:0:0:
314,192,10485,1,0,0:0:0:0:
317,214,10749,1,0,0:0:0:0:
320,236,10926,1,0,0:0:0:0:
323,258,11015,1,0,0:0:0:0:
326,280,11102,1,0,0:0:0:0:
134,321,11808,5,0,0:0:0:0:
156,319,12337,1,0,0:0:0:0:
178,317,12425,1,0,0:0:0:0:
200,315,12513,1,0,0:0:0:0:
222,313,13043,1,0,0:0:0:0:
244,311,13396,1,0,0:0:0:0:
266,309,13484,1,0,0:0:0:0:
288,307,13572,1,0,0:0:0:0:
310,305,13661,1,0,0:0:0:0:
332,303,13749,2,0,L|424:294,2,90.0000034332277,0|0|0,0:0|0:0|0:0,0:0:0:0:
66,316,14632,5,0,1:0:0:0:
69,293,14808,1,0,0:0:0:0:
73,271,14985,1,0,3:0:0:0:
76,248,15160,1,0,0:0:0:0:
80,226,15249,1,0,3:0:0:0:
83,203,15337,1,8,0:0:0:0:
87,181,15514,1,0,0:0:0:0:
90,158,15690,1,0,0:0:0:0:
94,136,15867,6,0,L|106:42,1,90.0000034332277,0|0,3:0|0:0,0:0:0:0:
175,157,16132,2,0,L|187:63,1,90.0000034332277,0|0,0:0|0:0,0:0:0:0:
256,178,16396,1,0,3:0:0:0:
259,155,16573,1,0,3:0:0:0:
262,132,16661,1,0,3:0:0:0:
265,109,16749,1,8,0:0:0:0:
268,86,16926,1,0,0:0:0:0:
271,63,17102,1,0,3:0:0:0:
274,40,17279,1,0,3:0:0:0:
360,68,17455,5,0,0:0:0:0:
363,91,17985,1,0,3:0:0:0:
366,114,18073,1,0,3:0:0:0:
369,137,18161,1,8,0:0:0:0:
372,160,18337,1,0,0:0:0:0:
375,183,18513,1,0,0:0:0:0:
378,206,18690,1,0,3:0:0:0:
290,353,19043,5,0,3:0:0:0:
293,330,19131,1,0,0:0:0:0:
296,307,19220,1,0,3:0:0:0:
299,284,19308,1,0,3:0:0:0:
302,261,19396,1,0,3:0:0:0:
305,238,19485,1,0,3:0:0:0:
308,215,19573,1,8,0:0:0:0:
102,76,20279,5,0,3:0:0:0:
125,79,20631,1,0,0:0:0:0:
148,82,20808,1,0,3:0:0:0:
171,85,20896,1,0,3:0:0:0:
194,88,20984,1,8,0:0:0:0:
217,91,21514,1,0,3:0:0:0:
240,94,21779,1,0,3:0:0:0:
263,97,22043,1,0,3:0:0:0:
286,100,22220,1,0,3:0:0:0:
309,103,22308,1,0,0:0:0:0:
332,106,22396,1,8,0:0:0:0:
264,318,23102,5,0,3:0:0:0:
272,353,23632,1,0,3:0:0:0:
275,330,23720,1,0,3:0:0:0:
278,307,23808,1,8,0:0:0:0:
281,284,23985,1,0,0:0:0:0:
284,261,24161,1,0,0:0:0:0:
287,238,24337,1,0,0:0:0:0:
290,215,24514,5,0,0:0:0:0:
293,192,24602,1,0,0:0:0:0:
296,169,24690,1,0,0:0:0:0:
299,146,24779,1,0,0:0:0:0:
302,123,24867,5,0,0:0:0:0:
243,135,24955,1,0,0:0:0:0:
184,148,25043,1,0,0:0:0:0:
126,161,25131,1,0,0:0:0:0:
67,175,25220,6,0,B|35:194|-3:199|-3:199|64:205|117:239|117:239|157:245|201:218|201:218|140:262|126:347,1,420,8|0,0:0|0:0,0:0:0:0:
266,269,25926,6,0,B|215:301|204:358|204:358|256:330|304:342|304:342|325:311|358:303|358:303|379:343|445:353,1,360,4|0,1:3|0:0,0:0:0:0:
428,265,26279,2,0,B|456:212|456:212|443:132,1,120,0|0,1:0|0:0,0:0:0:0:
331,92,26455,5,0,3:0:0:0:
329,103,26543,1,0,0:0:0:0:
249,145,26632,6,0,B|211:148|211:148|191:136|191:136|173:151|173:151|138:154,1,120,8|0,0:0|0:0,0:0:0:0:
138,154,26808,2,0,B|175:150|175:150|195:162|195:162|213:147|213:147|248:144,1,120,0|0,0:0|0:0,0:0:0:0:
251,225,26985,2,0,B|203:254|203:254|135:229,1,120,2|0,0:1|0:0,0:0:0:0:
65,205,27161,6,0,B|45:223|39:267|39:267|39:198|8:160|8:160|45:126|46:53|46:53|65:91|110:98,1,360.000013732911,2|0,1:0|0:0,0:0:0:0:
161,50,27426,2,0,B|189:60|216:52|216:52|242:69|278:61|278:61|372:120|413:75|410:2|352:-11|298:6|306:76|338:107,1,360.000013732911,2|0,1:0|0:0,0:0:0:0:
249,144,27690,6,0,B|231:182|231:182|259:242,1,90.0000034332277,0|0,1:0|3:0,0:0:0:0:
357,249,27867,1,0,3:0:0:0:
356,240,27955,1,0,3:0:0:0:
418,172,28043,6,0,B|381:146|381:146|322:148,1,90.0000034332277,8|0,0:0|0:0,0:0:0:0:
203,283,28220,6,0,B|278:335|278:335|371:310,1,180.000006866455,0|0,0:0|0:0,0:0:0:0:
363,311,28396,2,0,B|288:259|288:259|195:285,1,180.000006866455,2|2,1:0|1:0,0:0:0:0:
203,283,28573,2,0,B|278:335|278:335|371:310,1,180.000006866455,0|0,0:0|0:0,0:0:0:0:
433,271,28749,6,0,B|462:287|454:366|454:366|474:266|507:217|507:217|448:196|420:140|420:140|461:92|477:18|477:18|471:74|500:128,1,600,2|0,1:0|0:0,0:0:0:0:
346,42,29279,5,0,3:0:0:0:
348,53,29367,1,0,3:0:0:0:
337,143,29455,6,0,B|299:140|299:140|279:152|279:152|261:137|261:137|226:134,1,120,8|0,0:0|0:0,0:0:0:0:
226,134,29631,2,0,B|263:138|263:138|283:126|283:126|301:141|301:141|336:144,1,120,0|0,0:0|0:0,0:0:0:0:
328,223,29808,2,0,B|270:247|270:247|209:205,1,120,2|0,0:1|0:0,0:0:0:0:
74,164,29985,6,0,B|125:116|96:41|96:41|139:112|143:210|143:210|93:256|89:343|89:343|104:298|159:273,1,540.000020599366,2|0,1:0|0:0,0:0:0:0:
178,364,30337,2,0,B|226:337|287:343|287:343|243:325|224:290,1,180.000006866455,2|0,1:0|3:0,0:0:0:0:
222,214,30514,5,0,3:0:0:0:
273,197,30602,1,0,3:0:0:0:
273,141,30690,1,0,3:0:0:0:
222,126,30779,1,0,3:0:0:0:
190,170,30867,6,0,B|147:186|147:186|96:157,1,90.0000034332277,8|0,0:0|0:0,0:0:0:0:
265,59,31043,6,0,B|312:74|342:67|342:67|360:97|360:97|395:90|441:110,1,180.000006866455,0|0,0:0|0:0,0:0:0:0:
453,197,31220,2,0,B|416:203|386:171|386:171|423:221|389:304,1,180.000006866455,0|0,0:0|0:0,0:0:0:0:
313,266,31396,2,0,P|306:199|284:276,1,180.000006866455,0|0,0:0|3:0,0:0:0:0:
152,358,31573,6,0,B|168:313|151:274|151:274|177:234|156:186|156:186|205:152|207:74|167:41|92:27|37:64|33:140|59:182|123:191,1,540.000020599366,2|0,1:0|0:0,0:0:0:0:
253,183,31926,2,0,B|275:132|256:72|256:72|276:113|339:118,1,180.000006866455,0|0,1:0|0:0,0:0:0:0:
396,163,32102,5,0,3:0:0:0:
399,180,32190,1,0,0:0:0:0:
379,265,32279,6,0,B|323:292|323:292|251:283,1,120,8|0,0:0|0:0,0:0:0:0:
265,284,32455,2,0,B|321:257|321:257|393:266,1,120,0|0,0:0|0:0,0:0:0:0:
201,354,32632,2,0,B|174:329|174:329|163:286|163:286|184:237,1,120,2|0,0:1|0:0,0:0:0:0:
216,156,32808,6,0,B|177:142|130:151|104:184|104:184|168:96|235:79|306:111,1,360.000013732911,2|0,1:0|0:0,0:0:0:0:
378,264,33073,2,0,B|363:301|380:351|380:351|351:267|328:234|294:210|294:210|346:217|385:184|392:156,1,360.000013732911,0|0,1:0|0:0,0:0:0:0:
470,60,33337,2,0,B|429:73|400:67|400:67|362:102|362:102|336:99|305:110,1,180.000006866455,0|0,1:0|3:0,0:0:0:0:
216,156,33514,5,0,3:0:0:0:
216,138,33602,1,0,3:0:0:0:
150,70,33690,6,0,B|126:114|126:114|129:170,1,90.0000034332277,8|0,0:0|0:0,0:0:0:0:
190,309,33867,6,0,B|227:220|227:220|209:100,1,180.000006866455,0|0,0:0|0:0,0:0:0:0:
215,137,34043,2,0,B|177:225|177:225|189:308|189:308|246:263|297:265|297:265|311:281|337:295|337:295|390:266|461:283|461:283|417:284|381:308,1,540.000020599366,0|0,0:0|0:0,0:0:0:0:
334,369,34396,6,0,B|280:319|293:245|334:198|391:198|417:203|417:203|313:183|252:73|252:73|323:130|394:130,1,600,2|0,1:0|0:0,0:0:0:0:
460,61,34926,5,0,3:0:0:0:
464,71,35014,1,0,3:0:0:0:
483,158,35102,6,0,B|475:198|475:198|482:220|482:220|468:239|468:239|461:279,1,120,8|0,0:0|0:0,0:0:0:0:
463,271,35279,2,0,B|470:230|470:230|463:208|463:208|477:189|477:189|484:149,1,120,0|0,0:0|0:0,0:0:0:0:
405,142,35455,2,0,B|374:189|374:189|384:258,1,120,2|0,0:1|0:0,0:0:0:0:
372,342,35632,5,2,3:1:0:0:
360,337,35720,1,0,3:0:0:0:
304,287,35808,1,0,0:0:0:0:
292,292,35896,1,0,3:0:0:0:
236,343,35985,1,2,0:0:0:0:
224,338,36073,1,0,0:0:0:0:
168,288,36161,1,0,3:0:0:0:
156,293,36249,1,0,3:0:0:0:
100,344,36338,1,0,1:0:0:0:
88,339,36426,1,0,0:0:0:0:
32,289,36514,6,0,B|63:231|20:147|20:147|49:183|88:197|88:197|76:145|111:75|111:75|99:108|109:143,1,420,8|0,0:0|0:0,0:0:0:0:
194,112,37220,6,0,B|261:124|306:101|306:101|341:132|341:132|419:92|502:106|502:106|480:163|402:199|402:199|441:182|489:188,1,540.000020599366,4|0,1:3|0:0,0:0:0:0:
452,278,37573,2,0,B|397:286|358:273|358:273|312:237|323:189,1,180.000006866455,0|0,1:0|0:0,0:0:0:0:
228,201,37749,5,0,3:0:0:0:
225,218,37837,1,0,0:0:0:0:
200,297,37926,6,0,B|152:260|152:260|81:266,1,120,8|0,0:0|0:0,0:0:0:0:
92,265,38102,2,0,B|140:302|140:302|210:295,1,120,0|0,0:0|0:0,0:0:0:0:
228,201,38279,2,0,B|180:164|180:164|109:170,1,120,2|0,0:1|0:0,0:0:0:0:
302,277,38455,6,2,B|369:243|356:162|356:162|443:124|449:38|449:38|439:72|390:99,1,360.000013732911,2|0,1:1|0:0,0:0:0:0:
306,69,38720,2,0,B|262:89|218:48|218:48|173:88|173:88|111:54|43:81|43:81|89:60|112:8,1,360.000013732911,2|0,1:0|0:0,0:0:0:0:
121,23,38985,6,0,B|133:74|133:74|119:134,1,90.0000034332277,0|0,1:0|3:0,0:0:0:0:
31,211,39161,1,0,3:0:0:0:
33,219,39249,1,0,0:0:0:0:
92,265,39337,2,0,B|131:242|131:242|189:245,1,90.0000034332277,8|0,0:0|0:0,0:0:0:0:
307,286,39514,6,0,B|264:228|264:228|289:99,1,180.000006866455,0|0,0:0|0:0,0:0:0:0:
284,122,39690,2,0,B|327:180|327:180|302:309,1,180.000006866455,0|0,0:0|0:0,0:0:0:0:
175,244,39867,2,0,B|215:45,1,180.000006866455,0|0,0:0|0:0,0:0:0:0:
372,118,40043,6,0,B|339:107|284:122|284:122|355:101|388:62|388:62|428:114|480:129|480:129|426:193|440:303|440:303|426:251|387:228,1,600,2|0,1:0|0:0,0:0:0:0:
351,311,40573,5,0,3:0:0:0:
352,322,40661,1,0,3:0:0:0:
277,349,40749,6,0,B|228:317|228:317|157:321,1,120,8|0,0:0|0:0,0:0:0:0:
166,320,40926,2,0,B|215:352|215:352|286:348,1,120,0|0,0:0|0:0,0:0:0:0:
231,226,41102,2,0,L|89:238,1,120,2|0,0:1|0:0,0:0:0:0:
38,359,41279,6,0,B|53:292|112:236|112:236|57:272|11:253|11:253|72:184|32:65|32:65|57:115|115:134,1,540.000020599366,2|0,1:0|0:0,0:0:0:0:
124,37,41632,2,0,B|190:32|190:32|227:60|227:60|300:55,1,180.000006866455,2|0,1:0|3:0,0:0:0:0:
382,211,41808,5,0,3:0:0:0:
433,194,41896,1,0,3:0:0:0:
433,138,41984,1,0,3:0:0:0:
382,123,42073,1,0,3:0:0:0:
350,167,42161,6,0,B|253:175,1,90.0000034332277,8|0,0:0|0:0,0:0:0:0:
198,240,42337,6,0,B|165:200|163:129|163:129|156:172|132:204,1,180.000006866455,0|0,0:0|0:0,0:0:0:0:
56,255,42514,2,0,B|89:295|91:366|91:366|98:323|122:291,1,180.000006866455,0|0,0:0|0:0,0:0:0:0:
208,337,42690,2,0,B|259:332|279:290|279:290|312:331|388:313,1,180.000006866455,0|0,0:0|3:0,0:0:0:0:
427,243,42867,6,0,B|461:273|466:313|458:347|458:347|499:262|493:184|493:184|460:143|408:146|377:167|377:167|342:139|292:139|252:183,1,540.000020599366,2|0,1:0|0:0,0:0:0:0:
208,337,43220,2,0,B|296:320|296:320|323:233,1,180.000006866455,2|0,1:0|0:0,0:0:0:0:
138,170,43396,5,0,3:0:0:0:
141,187,43485,1,0,0:0:0:0:
85,253,43573,6,0,B|49:210|49:210|55:127,1,120,8|0,0:0|0:0,0:0:0:0:
53,146,43749,2,0,B|89:189|89:189|83:272,1,120,0|0,0:0|0:0,0:0:0:0:
115,359,43926,2,0,B|79:316|79:316|85:233,1,120,2|0,0:1|0:0,0:0:0:0:
234,213,44102,6,0,B|218:261|166:287|166:287|253:261|375:294|375:294|351:283|331:248,1,360.000013732911,2|0,1:1|0:0,0:0:0:0:
429,219,44367,2,0,B|476:269|454:331|454:331|498:217|485:149|436:98,1,360.000013732911,2|0,1:0|0:0,0:0:0:0:
331,116,44632,2,0,B|294:107|262:125|262:125|225:104|225:104|195:116|141:115,1,180.000006866455,0|0,1:0|3:0,0:0:0:0:
60,157,44808,5,0,3:0:0:0:
57,175,44896,1,0,3:0:0:0:
72,258,44985,6,0,B|119:245|119:245|158:203,1,90.0000034332277,8|0,0:0|0:0,0:0:0:0:
268,199,45161,6,0,B|246:300|246:300|315:364,1,180.000006866455,0|0,0:0|0:0,0:0:0:0:
302,352,45337,2,0,B|324:251|324:251|268:199|268:199|359:236|457:203|494:122|494:122|458:160|382:157,1,540.000020599366,0|0,0:0|0:0,0:0:0:0:
415,59,45690,6,0,B|355:49|316:20|316:20|331:54|329:98|329:98|264:52|203:41|122:46|122:46|145:88|198:137|198:137|165:116|113:126,1,600,2|0,1:0|0:0,0:0:0:0:
147,214,46220,5,0,3:0:0:0:
149,225,46308,1,0,0:0:0:0:
145,309,46396,6,0,B|249:276|249:276|339:301,1,180.000006866455,8|0,0:0|0:0,0:0:0:0:
317,294,46573,2,0,B|213:327|213:327|123:302,1,180.000006866455,0|0,0:0|0:0,0:0:0:0:
225,198,46749,2,0,B|329:165|329:165|419:190,1,180.000006866455,2|0,1:0|0:0,0:0:0:0:
481,360,46926,5,2,3:1:0:0:
484,342,47014,1,0,0:0:0:0:
426,290,47102,1,0,0:0:0:0:
423,272,47190,1,0,0:0:0:0:
484,223,47279,1,2,0:0:0:0:
487,205,47367,1,0,0:0:0:0:
429,153,47455,1,0,3:0:0:0:
426,135,47543,1,0,3:0:0:0:
487,86,47632,1,0,1:0:0:0:
490,68,47720,1,0,0:0:0:0:
426,16,47808,6,0,B|384:65|303:50|303:50|346:115|286:207|286:207|188:159|208:53,1,480,8|0,0:0|0:0,0:0:0:0:
