osu file format v14

[General]
AudioFilename: audio.mp3
AudioLeadIn: 0
PreviewTime: 24514
Countdown: 0
SampleSet: Soft
StackLeniency: 0.7
Mode: 0
LetterboxInBreaks: 0
WidescreenStoryboard: 0

[Editor]
Bookmarks: 47808
DistanceSpacing: 1.4
BeatDivisor: 4
GridSize: 16
TimelineZoom: 2.899999

[Metadata]
Title:World Collapse
TitleUnicode:World Collapse
Artist:Akira Complex
ArtistUnicode:Akira Complex
Creator:faygo
Version:Makii's Normal
Source:
Tags:S2TB Recording Reality Distortion KuranteMelodii Oiso [Crz]Sword Emilia Firis Mistlud sammish Mentai Yugu Ethan Deppyforce - Frontier - -_frontier_- shockolatte [Crz]Makii den0saur SnowNiNo_ -Tochi - Matha - Suzuki_1112 wubs
BeatmapID:1451462
BeatmapSetID:664228

[Difficulty]
HPDrainRate:4
CircleSize:3.5
OverallDifficulty:4
ApproachRate:5
SliderMultiplier:1.1
SliderTickRate:1

[Events]
//Background and Video events
0,0,"unnamed.png",0,0
//Break Periods
//Storyboard Layer 0 (Background)
//Storyboard Layer 1 (Fail)
//Storyboard Layer 2 (Pass)
//Storyboard Layer 3 (Foreground)
//Storyboard Sound Samples

[TimingPoints]
3338,352.941176470588,4,2,1,25,1,0

[Colours]
Combo1 : 122,122,122
Combo2 : 255,34,34
Combo3 : 255,135,77
Combo4 : 255,255,57
SliderBorder : 215,0,0
SliderTrackOverride : 90,90,90

[HitObjects]
182,47,3338,6,0,P|254:59|410:35,2,220,4|0|0,1:3|0:0|0:0,0:0:0:0:
39,214,5455,2,0,P|28:267|51:381,1,165,0|0,0:0|0:0,0:0:0:0:
118,344,6161,2,0,L|214:347,1,55,0|0,0:0|0:0,0:0:0:0:
205,275,6514,2,0,L|275:281,1,55,0|0,0:0|0:0,0:0:0:0:
269,356,6867,2,0,P|314:336|317:230,1,165,0|0,0:0|0:0,0:0:0:0:
286,162,7573,6,0,L|287:90,2,55,0|0|0,0:0|0:0|0:0,0:0:0:0:
226,210,8102,1,0,0:0:0:0:
226,210,8279,2,0,P|158:204|135:115,1,165,0|0,0:0|0:0,0:0:0:0:
168,52,8985,6,0,L|246:54,1,55,0|0,0:0|0:0,0:0:0:0:
292,20,9337,2,0,L|358:23,1,55,0|0,0:0|0:0,0:0:0:0:
417,54,9690,2,0,P|438:95|409:173,1,110,0|0,0:0|0:0,0:0:0:0:
366,206,10220,1,0,0:0:0:0:
366,206,10396,6,0,L|372:324,1,110,0|0,0:0|0:0,0:0:0:0:
303,352,10926,2,0,L|232:352,1,55,0|0,0:0|0:0,0:0:0:0:
160,224,11455,1,0,0:0:0:0:
62,343,11808,6,0,P|40:277|42:231,1,110,0|0,0:0|0:0,0:0:0:0:
47,160,12337,1,0,0:0:0:0:
47,160,12514,2,0,B|48:107|48:107|46:94|46:94|50:41,1,110,0|0,0:0|0:0,0:0:0:0:
202,29,13220,6,0,L|270:32,1,55,0|0,0:0|0:0,0:0:0:0:
300,94,13573,2,0,L|366:92,1,55,0|0,0:0|0:0,0:0:0:0:
400,30,13926,2,0,P|431:83|403:151,1,110,0|0,0:0|0:0,0:0:0:0:
298,220,14632,5,0,1:0:0:0:
256,192,14720,12,0,17455,0:0:0:0:
54,43,18867,6,0,L|52:122,1,55,0|0,0:0|3:0,0:0:0:0:
97,160,19220,2,0,L|92:239,1,55,0|0,3:0|3:0,0:0:0:0:
26,253,19573,2,0,P|70:291|161:254,1,165,8|0,0:0|0:0,0:0:0:0:
207,193,20279,6,0,L|330:190,1,110,0|0,3:0|0:0,0:0:0:0:
345,38,20985,2,0,P|387:64|461:49,1,110,8|0,0:0|0:0,0:0:0:0:
402,206,21690,6,0,L|404:287,1,55,0|0,0:0|0:0,0:0:0:0:
468,301,22043,2,0,L|464:368,1,55,0|0,3:0|3:0,0:0:0:0:
387,350,22396,2,0,P|328:335|229:369,1,165,8|0,0:0|0:0,0:0:0:0:
174,315,23102,6,0,L|58:316,1,110,0|0,3:0|0:0,0:0:0:0:
38,163,23808,2,0,P|29:96|63:50,1,110,8|0,0:0|0:0,0:0:0:0:
202,44,24514,6,0,L|269:52,1,55,0|0,0:0|0:0,0:0:0:0:
301,113,24867,2,0,L|363:111,1,55,0|0,0:0|0:0,0:0:0:0:
397,45,25220,1,8,0:0:0:0:
108,154,25926,6,0,L|112:241,1,55,4|0,1:3|0:0,0:0:0:0:
51,258,26279,2,0,L|58:329,1,55,0|0,1:0|3:0,0:0:0:0:
131,330,26632,2,0,P|179:333|241:348,1,110,8|2,0:0|0:1,0:0:0:0:
302,303,27161,1,2,1:0:0:0:
357,356,27337,6,0,P|414:338|439:279,1,110,0|0,0:0|1:0,0:0:0:0:
427,219,27867,2,0,L|429:158,1,55,0|8,3:0|0:0,0:0:0:0:
480,106,28220,1,0,0:0:0:0:
480,106,28396,2,0,L|477:43,1,55,2|0,1:0|0:0,0:0:0:0:
404,25,28749,6,0,B|336:22|336:22|307:33|307:33|230:25,1,165,2|0,1:0|3:0,0:0:0:0:
175,66,29455,2,0,L|176:137,1,55,8|0,0:0|0:0,0:0:0:0:
245,154,29808,2,0,L|240:224,1,55,2|2,0:1|1:0,0:0:0:0:
163,209,30161,2,0,P|171:257|234:284,1,110,0|0,0:0|3:0,0:0:0:0:
296,265,30690,1,0,3:0:0:0:
296,265,30867,2,0,L|363:267,1,55,8|0,0:0|0:0,0:0:0:0:
393,202,31220,2,0,L|456:206,1,55,0|0,0:0|0:0,0:0:0:0:
480,275,31573,6,0,P|477:309|404:337,1,110,2|0,1:0|1:0,0:0:0:0:
343,359,32102,2,0,L|269:362,1,55,0|8,3:0|0:0,0:0:0:0:
241,299,32455,2,0,L|171:304,1,55,0|2,0:0|0:1,0:0:0:0:
134,245,32808,2,0,P|123:195|139:142,2,82.5,2|0|0,1:0|1:0|1:0,0:0:0:0:
107,317,33514,2,0,L|33:321,2,55,0|8|0,3:0|0:0|0:0,0:0:0:0:
52,262,34043,1,0,0:0:0:0:
62,108,34396,6,0,B|92:84|92:84|140:87|184:85|184:85|209:112,1,165,2|0,1:0|3:0,0:0:0:0:
259,167,35102,2,0,L|258:245,1,55,8|0,0:0|0:0,0:0:0:0:
311,286,35455,1,2,0:1:0:0:
311,286,35632,2,0,P|379:301|417:286,1,110,2|2,3:1|0:0,0:0:0:0:
462,226,36161,2,0,L|464:107,1,110,0|8,3:0|0:0,0:0:0:0:
165,35,37220,6,0,L|170:111,1,55,4|0,1:3|0:0,0:0:0:0:
239,121,37573,2,0,L|233:193,1,55,0|0,1:0|3:0,0:0:0:0:
170,218,37926,2,0,L|102:221,1,55,8|0,0:0|0:0,0:0:0:0:
64,161,38279,2,0,P|56:112|72:60,2,82.5,2|0|0,0:1|0:0|0:0,0:0:0:0:
115,220,38985,2,0,B|114:237|114:237|117:255|117:255|113:270|113:270|118:283|118:283|114:297|114:297|117:313|117:313|113:329,1,110,0|8,1:0|0:0,0:0:0:0:
179,367,39514,1,0,0:0:0:0:
224,305,39690,2,0,L|298:306,1,55,0|0,0:0|0:0,0:0:0:0:
351,280,40043,6,0,P|385:339|468:302,1,165,2|0,1:0|3:0,0:0:0:0:
488,237,40749,2,0,L|491:168,1,55,8|0,0:0|0:0,0:0:0:0:
469,107,41102,2,0,P|460:55|468:9,2,82.5,2|0|2,0:1|0:0|1:0,0:0:0:0:
398,139,41808,2,0,L|342:143,1,55,0|0,3:0|3:0,0:0:0:0:
308,74,42161,2,0,L|235:77,1,55,8|0,0:0|0:0,0:0:0:0:
216,144,42514,2,0,L|147:141,1,55,0|0,0:0|0:0,0:0:0:0:
129,70,42867,6,0,P|69:89|51:194,1,165,2|0,1:0|3:0,0:0:0:0:
113,214,43573,2,0,L|107:271,1,55,8|0,0:0|0:0,0:0:0:0:
41,309,43926,2,0,L|49:372,1,55,2|2,0:1|1:1,0:0:0:0:
122,344,44279,2,0,B|186:341|186:341|206:345,2,82.5,0|0|0,0:0|0:0|3:0,0:0:0:0:
107,268,44985,2,0,L|105:214,1,55,8|0,0:0|0:0,0:0:0:0:
148,149,45337,2,0,L|224:149,1,55,0|0,0:0|0:0,0:0:0:0:
274,178,45690,6,0,P|269:238|358:236,1,165,2|0,1:0|3:0,0:0:0:0:
401,180,46396,2,0,L|467:181,1,55,8|0,0:0|0:0,0:0:0:0:
481,253,46749,2,0,L|482:321,1,55,2|2,1:0|3:1,0:0:0:0:
422,356,47102,2,0,B|382:352|382:352|315:357|315:357|243:352,1,165,0|0,0:0|1:0,0:0:0:0:
188,317,47808,5,8,0:0:0:0:
