osu file format v14

[General]
AudioFilename: audio.mp3
AudioLeadIn: 0
PreviewTime: 24514
Countdown: 0
SampleSet: Soft
StackLeniency: 0.2
Mode: 0
LetterboxInBreaks: 0
WidescreenStoryboard: 1

[Editor]
DistanceSpacing: 1
BeatDivisor: 8
GridSize: 4
TimelineZoom: 2.799999

[Metadata]
Title:World Collapse
TitleUnicode:World Collapse
Artist:Akira Complex
ArtistUnicode:Akira Complex
Creator:faygo
Version:Light Extra
Source:
Tags:S2TB Recording Reality Distortion KuranteMelodii Oiso [Crz]Sword Emilia Firis Mistlud sammish Mentai Yugu Ethan Deppyforce - Frontier - -_frontier_- shockolatte [Crz]Makii den0saur SnowNiNo_ -Tochi - Matha - Suzuki_1112 wubs
BeatmapID:1686415
BeatmapSetID:664228

[Difficulty]
HPDrainRate:5
CircleSize:4.5
OverallDifficulty:7.5
ApproachRate:9
SliderMultiplier:1.6
SliderTickRate:1

[Events]
//Background and Video events
0,0,"unnamed.png",0,0
//Break Periods
2,6361,13326
//Storyboard Layer 0 (Background)
//Storyboard Layer 1 (Fail)
//Storyboard Layer 2 (Pass)
//Storyboard Layer 3 (Foreground)
//Storyboard Sound Samples

[TimingPoints]
3338,352.941176470588,4,2,1,75,1,0
14985,-133.333333333333,4,2,1,75,0,0
23102,-80,4,2,1,75,0,0
24690,-66.6666666666667,4,2,1,75,0,0
24867,-57.1428571428571,4,2,1,75,0,0
25043,-50,4,2,1,75,0,0
25220,-200,4,2,1,75,0,0
25926,-50,4,2,1,75,0,1
26279,-66.6666666666667,4,2,1,75,0,1
26632,-57.1428571428571,4,2,1,75,0,1
26985,-66.6666666666667,4,2,1,75,0,1
28043,-33.3333333333333,4,2,1,75,0,1
28220,-50,4,2,1,75,0,1
28749,-66.6666666666667,4,2,1,75,0,1
29455,-57.1428571428571,4,2,1,75,0,1
29808,-66.6666666666667,4,2,1,75,0,1
29985,-50,4,2,1,75,0,1
30337,-66.6666666666667,4,2,1,75,0,1
30867,-33.3333333333333,4,2,1,75,0,1
31043,-50,4,2,1,75,0,1
31573,-44.4444444444445,4,2,1,75,0,1
31926,-57.1428571428571,4,2,1,75,0,1
32632,-66.6666666666667,4,2,1,75,0,1
33690,-33.3333333333333,4,2,1,75,0,1
33867,-50,4,2,1,75,0,1
34396,-66.6666666666667,4,2,1,75,0,1
35102,-57.1428571428571,4,2,1,75,0,1
36161,-44.4444444444445,4,2,1,75,0,1
36514,-400,4,2,1,75,0,0
37220,-50,4,2,1,75,0,1
37573,-66.6666666666667,4,2,1,75,0,1
37926,-57.1428571428571,4,2,1,75,0,1
38279,-66.6666666666667,4,2,1,75,0,1
39337,-33.3333333333333,4,2,1,75,0,1
39514,-50,4,2,1,75,0,1
40043,-66.6666666666667,4,2,1,75,0,1
40749,-57.1428571428571,4,2,1,75,0,1
41102,-66.6666666666667,4,2,1,75,0,1
41279,-50,4,2,1,75,0,1
41632,-66.6666666666667,4,2,1,75,0,1
42161,-33.3333333333333,4,2,1,75,0,1
42337,-50,4,2,1,75,0,1
42867,-44.4444444444445,4,2,1,75,0,1
43220,-57.1428571428571,4,2,1,75,0,1
43926,-66.6666666666667,4,2,1,75,0,1
44985,-33.3333333333333,4,2,1,75,0,1
45161,-50,4,2,1,75,0,1
45690,-66.6666666666667,4,2,1,75,0,1
46396,-57.1428571428571,4,2,1,75,0,1
47455,-80,4,2,1,75,0,0

[Colours]
Combo1 : 122,122,122
Combo2 : 255,34,34
Combo3 : 255,135,77
Combo4 : 255,255,57
SliderBorder : 215,0,0
SliderTrackOverride : 90,90,90

[HitObjects]
256,192,3338,12,0,6161,0:0:0:0:
256,192,13926,12,0,14632,1:0:0:0:
220,127,14985,5,0,3:0:0:0:
315,173,15161,2,0,L|324:134,1,30.0000011444092,0|0,3:0|3:0,0:0:0:0:
393,109,15337,1,8,0:0:0:0:
393,109,15867,6,0,L|381:6,2,90.0000034332277,0|0|0,3:0|0:0|3:0,0:0:0:0:
453,147,16485,1,0,0:0:0:0:
457,155,16573,1,0,3:0:0:0:
461,162,16661,1,0,3:0:0:0:
465,169,16749,1,8,0:0:0:0:
465,169,17455,5,0,0:0:0:0:
333,299,17985,2,0,L|328:264,1,30.0000011444092,0|0,3:0|3:0,0:0:0:0:
400,322,18161,1,8,0:0:0:0:
400,322,18690,5,0,3:0:0:0:
255,365,19043,1,0,3:0:0:0:
255,356,19131,1,0,0:0:0:0:
256,347,19219,1,0,0:0:0:0:
257,339,19307,1,0,0:0:0:0:
257,330,19395,1,0,0:0:0:0:
258,322,19484,1,0,3:0:0:0:
259,313,19572,1,8,0:0:0:0:
259,313,20279,5,0,3:0:0:0:
89,334,20632,1,0,0:0:0:0:
154,250,20808,2,0,L|123:243,1,30.0000011444092,0|0,3:0|3:0,0:0:0:0:
124,164,20985,1,8,0:0:0:0:
124,164,21514,6,0,L|112:61,2,90.0000034332277,0|0|0,3:0|3:0|3:0,0:0:0:0:
55,177,22132,1,0,0:0:0:0:
51,184,22220,1,0,3:0:0:0:
47,191,22308,1,0,0:0:0:0:
43,198,22396,1,8,0:0:0:0:
43,198,23102,6,0,P|41:131|194:95,1,250,0|0,3:0|0:0,0:0:0:0:
256,68,23632,1,0,3:0:0:0:
258,75,23720,1,0,3:0:0:0:
261,81,23808,6,0,L|265:31,3,50,8|0|0|0,0:0|0:0|0:0|0:0,0:0:0:0:
285,199,24161,2,0,L|291:132,3,50
253,291,24514,6,0,P|285:291|323:281,1,50
372,308,24690,2,0,P|406:280|415:250,1,60.0000022888184
478,231,24867,2,0,P|487:193|477:150,1,70.000000667572
512,95,25043,2,0,P|493:56|464:35,1,80
388,0,25220,6,0,P|387:39|409:141,1,140,8|0,0:0|0:0,0:0:0:0:
222,0,25926,6,0,P|162:64|145:211,1,240,4|0,1:3|0:0,0:0:0:0:
59,167,26279,2,0,B|38:267|119:239|98:346,1,180.000006866455,0|0,1:0|3:0,0:0:0:0:
28,384,26632,6,0,L|13:296,1,70.000000667572,8|0,0:0|0:0,0:0:0:0:
250,226,26808,2,0,L|241:314,1,70.000000667572,0|0,0:0|0:0,0:0:0:0:
489,376,26985,2,0,P|478:347|433:328,1,60.0000022888184,2|0,0:1|0:0,0:0:0:0:
431,252,27161,6,0,P|418:198|439:122,1,120.000004577637,2|0,1:0|0:0,0:0:0:0:
250,226,27426,2,0,P|282:256|377:273,1,120.000004577637,2|0,1:0|0:0,0:0:0:0:
429,33,27690,5,0,1:0:0:0:
428,22,27779,1,0,3:0:0:0:
415,34,27867,1,0,3:0:0:0:
414,23,27956,1,0,3:0:0:0:
397,51,28043,6,0,L|388:154,1,60.0000022888184,8|0,0:0|0:0,0:0:0:0:
287,356,28220,6,0,P|244:327|199:341,1,80,0|0,0:0|0:0,0:0:0:0:
201,223,28396,2,0,P|161:257|163:304,1,80,2|2,1:0|1:0,0:0:0:0:
30,259,28573,2,0,P|52:305|98:315,1,80,0|0,0:0|0:0,0:0:0:0:
119,379,28749,6,0,P|95:312|92:189,1,180.000006866455,2|0,1:0|0:0,0:0:0:0:
53,138,29102,2,0,P|88:100|113:104,1,60.0000022888184,0|0,0:0|0:0,0:0:0:0:
105,29,29279,2,0,P|156:35|167:58,1,60.0000022888184,0|0,3:0|3:0,0:0:0:0:
249,14,29455,6,0,P|235:49|243:80,1,70.000000667572,8|0,0:0|0:0,0:0:0:0:
435,245,29632,2,0,P|452:204|427:161,1,70.000000667572,0|0,0:0|0:0,0:0:0:0:
203,274,29808,2,0,L|275:277,1,60.0000022888184,2|0,0:1|0:0,0:0:0:0:
290,302,29985,6,0,B|163:258|205:434|50:358,1,240,2|0,1:0|0:0,0:0:0:0:
0,295,30337,2,0,L|65:282,1,60.0000022888184,2|0,1:0|3:0,0:0:0:0:
158,43,30514,5,0,3:0:0:0:
159,32,30603,1,0,3:0:0:0:
172,44,30691,1,0,3:0:0:0:
173,33,30780,1,0,3:0:0:0:
200,15,30867,6,0,P|198:84|219:153,1,120.000004577637,8|0,0:0|0:0,0:0:0:0:
295,131,31043,2,0,P|332:111|382:114,1,80
449,108,31220,2,0,P|469:145|466:195,1,80,0|0,0:0|0:0,0:0:0:0:
472,255,31396,2,0,P|435:275|385:272,1,80,0|0,0:0|3:0,0:0:0:0:
244,292,31573,6,0,P|353:262|406:393,1,270.000010299683,2|0,1:0|0:0,0:0:0:0:
296,348,31926,2,0,P|208:323|81:365,1,210.000002002716,0|0,1:0|3:0,0:0:0:0:
25,362,32279,6,0,L|30:291,1,70.000000667572,8|0,0:0|0:0,0:0:0:0:
105,50,32455,2,0,L|111:137,1,70.000000667572,0|0,0:0|0:0,0:0:0:0:
299,306,32632,2,0,P|287:271|240:260,1,60.0000022888184,2|0,0:1|0:0,0:0:0:0:
214,205,32808,6,0,L|230:67,1,120.000004577637,2|0,1:0|0:0,0:0:0:0:
404,0,33073,2,0,L|412:142,1,120.000004577637,0|0,1:0|0:0,0:0:0:0:
301,347,33337,5,0,1:0:0:0:
302,358,33426,1,0,3:0:0:0:
315,346,33514,1,0,3:0:0:0:
316,357,33603,1,0,3:0:0:0:
347,371,33690,6,0,L|431:377,1,60.0000022888184,8|0,0:0|0:0,0:0:0:0:
489,108,33867,6,0,P|485:160|462:195,1,80,0|0,0:0|0:0,0:0:0:0:
445,252,34043,2,0,P|379:234|226:321,1,240,0|0,0:0|0:0,0:0:0:0:
173,384,34396,6,0,L|149:200,1,180.000006866455,2|0,1:0|0:0,0:0:0:0:
73,206,34749,2,0,L|63:124,1,60.0000022888184,0|0,0:0|0:0,0:0:0:0:
113,80,34926,2,0,L|103:-2,1,60.0000022888184,0|0,3:0|3:0,0:0:0:0:
194,19,35102,6,0,P|222:49|268:58,1,70.000000667572,8|0,0:0|0:0,0:0:0:0:
478,154,35279,2,0,P|435:162|403:192,1,70.000000667572,0|0,0:0|0:0,0:0:0:0:
395,273,35455,2,0,P|341:239|179:251,1,210.000002002716,2|0,0:1|3:0,0:0:0:0:
137,300,35808,5,0,0:0:0:0:
93,277,35896,1,0,0:0:0:0:
79,230,35985,1,2,0:0:0:0:
95,185,36073,1,0,0:0:0:0:
131,119,36161,6,0,L|124:21,3,90.0000034332277,0|0|0|0,3:0|3:0|1:0|0:0,0:0:0:0:
284,359,36514,6,0,L|356:369,1,70,8|0,0:0|0:0,0:0:0:0:
390,384,37220,6,0,P|379:319|421:129,1,240,4|0,1:3|0:0,0:0:0:0:
512,184,37573,2,0,P|524:109|439:63,1,180.000006866455,0|0,1:0|3:0,0:0:0:0:
373,13,37926,6,0,L|380:95,1,70.000000667572,8|0,0:0|0:0,0:0:0:0:
192,245,38102,2,0,L|194:162,1,70.000000667572,0|0,0:0|0:0,0:0:0:0:
6,15,38279,2,0,P|45:28|50:56,1,60.0000022888184,2|0,0:1|0:0,0:0:0:0:
43,122,38455,6,0,P|0:176|10:243,1,120.000004577637,2|0,1:1|0:0,0:0:0:0:
194,175,38720,2,0,P|165:124|86:108,1,120.000004577637,2|0,1:0|0:0,0:0:0:0:
30,348,38985,5,0,1:0:0:0:
31,359,39074,1,0,3:0:0:0:
44,347,39162,1,0,3:0:0:0:
45,358,39249,1,0,0:0:0:0:
69,380,39337,6,0,L|75:313,1,60.0000022888184,8|0,0:0|0:0,0:0:0:0:
292,163,39514,6,0,P|309:216|296:259,1,80,0|0,0:0|0:0,0:0:0:0:
416,225,39690,2,0,P|390:274|350:295,1,80,0|0,0:0|0:0,0:0:0:0:
461,354,39867,2,0,P|408:370|365:358,1,80,0|0,0:0|0:0,0:0:0:0:
315,337,40043,6,0,P|248:297|133:309,1,180.000006866455,2|0,0:0|0:0,0:0:0:0:
98,252,40396,2,0,P|127:214|130:185,1,60.0000022888184,0|0,0:0|0:0,0:0:0:0:
203,165,40573,2,0,P|188:119|166:100,1,60.0000022888184,0|0,3:0|3:0,0:0:0:0:
96,52,40749,6,0,P|82:86|92:127,1,70.000000667572,8|0,0:0|0:0,0:0:0:0:
305,238,40926,2,0,P|319:204|309:163,1,70.000000667572,0|0,0:0|0:0,0:0:0:0:
507,7,41102,2,0,L|442:14,1,60.0000022888184,2|0,0:1|0:0,0:0:0:0:
385,51,41279,6,0,P|461:44|488:187,1,240,2|0,1:0|0:0,0:0:0:0:
431,265,41632,2,0,L|424:188,1,60.0000022888184,2|0,1:0|3:0,0:0:0:0:
241,24,41808,5,0,3:0:0:0:
240,13,41897,1,0,3:0:0:0:
227,25,41985,1,0,3:0:0:0:
226,14,42074,1,0,3:0:0:0:
194,13,42161,6,0,P|205:87|198:154,1,120.000004577637,8|0,0:0|0:0,0:0:0:0:
211,218,42337,2,0,P|177:207|120:206,1,80,0|0,0:0|0:0,0:0:0:0:
67,149,42514,2,0,P|56:183|55:240,1,80,0|0,0:0|0:0,0:0:0:0:
0,293,42690,2,0,P|34:304|91:305,1,80,0|0,0:0|3:0,0:0:0:0:
215,383,42867,6,0,P|272:308|427:339,1,270.000010299683,0|0,0:0|0:0,0:0:0:0:
413,220,43220,2,0,P|412:287|519:376,1,210.000002002716,2|0,1:0|0:0,0:0:0:0:
512,296,43573,6,0,L|508:210,1,70.000000667572,8|0,0:0|0:0,0:0:0:0:
286,110,43749,2,0,L|281:193,1,70.000000667572,0|0,0:0|0:0,0:0:0:0:
58,325,43926,2,0,P|43:291|51:253,1,60.0000022888184,2|0,0:1|0:0,0:0:0:0:
24,201,44102,6,0,P|46:150|38:78,1,120.000004577637,2|0,1:1|0:0,0:0:0:0:
146,254,44367,2,0,P|158:215|151:129,1,120.000004577637,2|0,1:0|0:0,0:0:0:0:
377,12,44632,5,0,1:0:0:0:
376,23,44721,1,0,3:0:0:0:
363,11,44809,1,0,3:0:0:0:
362,22,44896,1,0,3:0:0:0:
333,42,44985,6,0,L|337:123,1,60.0000022888184,8|0,0:0|0:0,0:0:0:0:
255,365,45161,6,0,P|298:349|351:356,1,80,0|0,0:0|0:0,0:0:0:0:
391,382,45337,2,0,P|370:333|400:144,1,240,0|0,0:0|0:0,0:0:0:0:
452,87,45690,6,0,P|376:68|300:136,1,180.000006866455,0|0,0:0|0:0,0:0:0:0:
238,202,46043,2,0,P|217:182|202:156,1,60.0000022888184,0|0,0:0|0:0,0:0:0:0:
127,113,46220,2,0,P|118:142|119:171,1,60.0000022888184,0|0,3:0|3:0,0:0:0:0:
58,233,46396,6,0,L|140:244,1,70.000000667572,8|0,0:0|0:0,0:0:0:0:
378,277,46573,2,0,L|308:286,1,70.000000667572,0|0,0:0|0:0,0:0:0:0:
260,374,46749,2,0,P|248:333|234:160,1,210.000002002716,2|0,1:0|0:0,0:0:0:0:
244,76,47102,5,0,0:0:0:0:
304,42,47190,1,0,0:0:0:0:
369,64,47279,1,2,0:0:0:0:
410,118,47367,1,0,0:0:0:0:
406,185,47455,2,0,P|419:159|426:123,1,50,0|0,3:0|3:0,0:0:0:0:
363,0,47632,2,0,P|369:23|381:45,1,50,0|0,1:0|0:0,0:0:0:0:
512,0,47808,5,8,0:0:0:0:
