osu file format v14

[General]
AudioFilename: audio.mp3
AudioLeadIn: 0
PreviewTime: 24962
Countdown: 0
SampleSet: Soft
StackLeniency: 0.4
Mode: 0
LetterboxInBreaks: 0
WidescreenStoryboard: 0

[Editor]
Bookmarks: 3521,26109,47991
DistanceSpacing: 0.1
BeatDivisor: 4
GridSize: 32
TimelineZoom: 2

[Metadata]
Title:World Collapse
TitleUnicode:World Collapse
Artist:Akira Complex
ArtistUnicode:Akira Complex
Creator:Realazy
Version:Psychotomimetic
Source:
Tags:altai undeadphoneguy naotoshi nao tomori lasse icekalt かめりあ cametek camellia electronic instrumental mpg mapper's guild featured artist fa osu! reality distortion introduction S2TB-0019
BeatmapID:2329587
BeatmapSetID:1115140

[Difficulty]
HPDrainRate:5
CircleSize:4
OverallDifficulty:9
ApproachRate:9.2
SliderMultiplier:2.12
SliderTickRate:1

[Events]
//Background and Video events
0,0,"worldcollapse.jpg",0,0
//Break Periods
//Storyboard Layer 0 (Background)
//Storyboard Layer 1 (Fail)
//Storyboard Layer 2 (Pass)
//Storyboard Layer 3 (Foreground)
//Storyboard Layer 4 (Overlay)
//Storyboard Sound Samples

[TimingPoints]
3521,352.941176470588,4,2,0,20,1,0
3521,-133.333333333333,4,2,0,20,0,0
4226,-200,4,2,0,20,0,0
6344,-117.647058823529,4,2,0,20,0,0
7932,-200,4,2,0,20,0,0
8726,-133.333333333333,4,2,0,20,0,0
10403,-200,4,2,0,20,0,0
12520,-133.333333333333,4,2,0,20,0,0
14109,-117.647058823529,4,2,0,20,0,0
14197,-117.647058823529,4,2,1,22,0,0
14285,-117.647058823529,4,2,0,24,0,0
14373,-117.647058823529,4,2,1,26,0,0
14462,-117.647058823529,4,2,0,28,0,0
14550,-117.647058823529,4,2,1,30,0,0
14638,-117.647058823529,4,2,0,32,0,0
14726,-117.647058823529,4,2,1,36,0,0
14815,-133.333333333333,4,2,0,40,0,0
15520,-166.666666666667,4,2,0,40,0,0
16050,-200,4,2,0,40,0,0
16756,-133.333333333333,4,2,0,40,0,0
18873,-100,4,2,0,40,0,0
19491,-133.333333333333,4,2,0,40,0,0
19932,-200,4,2,0,40,0,0
20109,-100,4,2,0,40,0,0
20638,-153.846153846154,4,2,0,40,0,0
20991,-117.647058823529,4,2,0,40,0,0
21697,-100,4,2,0,40,0,0
23285,-133.333333333333,4,2,0,40,0,0
23991,-133.333333333333,4,2,0,40,0,0
24168,-133.333333333333,4,2,0,45,0,0
24344,-133.333333333333,4,2,0,50,0,0
24520,-133.333333333333,4,2,0,55,0,0
24697,-133.333333333333,4,2,0,60,0,0
24873,-133.333333333333,4,2,0,65,0,0
25050,-133.333333333333,4,2,0,70,0,0
25226,-133.333333333333,4,2,0,75,0,0
25403,-133.333333333333,4,2,1,80,0,0
26109,-50,4,2,1,80,0,0
26462,-100,4,2,1,80,0,0
26815,-57.1428571428571,4,2,1,80,0,0
27168,-200,4,2,1,80,0,0
27432,-57.1428571428571,4,2,1,80,0,0
27962,-66.6666666666667,4,2,1,80,0,0
28403,-100,4,2,1,80,0,0
28932,-50,4,2,1,80,0,0
29638,-57.1428571428571,4,2,1,80,0,0
29991,-200,4,2,1,80,0,0
30256,-44.4444444444445,4,2,1,80,0,0
30520,-133.333333333333,4,2,1,80,0,0
31050,-100,4,2,1,80,0,0
31403,-66.6666666666667,4,2,1,80,0,0
31579,-100,4,2,1,80,0,0
31756,-50,4,2,1,80,0,0
32065,-50,4,2,1,5,0,0
32109,-66.6666666666667,4,2,1,80,0,0
32462,-57.1428571428571,4,2,1,80,0,0
32815,-200,4,2,1,80,0,0
32991,-57.1428571428571,4,2,1,80,0,0
33609,-66.6666666666667,4,2,1,80,0,0
34050,-133.333333333333,4,2,1,80,0,0
34182,-133.333333333333,4,2,1,5,0,0
34226,-57.1428571428571,4,2,1,80,0,0
34579,-50,4,2,1,80,0,0
35285,-57.1428571428571,4,2,1,80,0,0
35638,-200,4,2,1,80,0,0
36697,-400,4,2,1,80,0,0
36873,-400,4,2,1,40,0,0
37403,-50,4,2,1,80,0,0
37756,-100,4,2,1,80,0,0
38109,-57.1428571428571,4,2,1,80,0,0
38462,-200,4,2,1,80,0,0
38726,-57.1428571428571,4,2,1,80,0,0
39344,-66.6666666666667,4,2,1,80,0,0
39697,-100,4,2,1,80,0,0
40226,-50,4,2,1,80,0,0
41285,-200,4,2,1,80,0,0
41550,-44.4444444444445,4,2,1,80,0,0
41815,-133.333333333333,4,2,1,80,0,0
42344,-100,4,2,1,80,0,0
42697,-66.6666666666667,4,2,1,80,0,0
43050,-50,4,2,1,80,0,0
43359,-50,4,2,1,5,0,0
43403,-66.6666666666667,4,2,1,80,0,0
43756,-57.1428571428571,4,2,1,80,0,0
44109,-200,4,2,1,80,0,0
44373,-57.1428571428571,4,2,1,80,0,0
44991,-66.6666666666667,4,2,1,80,0,0
45344,-133.333333333333,4,2,1,80,0,0
45476,-133.333333333333,4,2,1,5,0,0
45520,-57.1428571428571,4,2,1,80,0,0
45873,-50,4,2,1,80,0,0
46579,-66.6666666666667,4,2,1,80,0,0
46932,-200,4,2,1,80,0,0
47109,-66.6666666666667,4,2,1,80,0,0
47991,-66.6666666666667,4,2,1,60,0,0
48697,-66.6666666666667,4,2,1,10,0,0
50109,-66.6666666666667,4,2,1,15,0,0
51520,-66.6666666666667,4,2,1,20,0,0
52932,-66.6666666666667,4,2,1,25,0,0
54344,-66.6666666666667,4,2,1,30,0,0
55050,-66.6666666666667,4,2,1,35,0,0
55756,-66.6666666666667,4,2,1,40,0,0
56462,-66.6666666666667,4,2,1,45,0,0
57168,-66.6666666666667,4,2,1,50,0,0
57873,-66.6666666666667,4,2,1,55,0,0
58579,-66.6666666666667,4,2,1,60,0,0
59285,-66.6666666666667,4,2,1,65,0,0
59991,-66.6666666666667,4,2,1,5,0,0

[Colours]
Combo1 : 215,233,255
Combo2 : 178,187,209
Combo3 : 255,217,106
Combo4 : 255,119,56

[HitObjects]
123,276,3521,54,0,L|115:355,1,79.5000030326844,4|0,1:0|0:0,0:0:0:0:
115,355,3785,1,0,3:0:0:0:
115,355,3873,1,2,3:0:0:0:
102,257,4050,1,0,3:0:0:0:
196,211,4226,2,0,B|237:198|271:224|271:224|306:249|347:237,1,159,2|0,3:0|0:0,0:0:0:0:
82,241,4932,1,2,3:0:0:0:
82,241,5462,5,0,3:0:0:0:
72,233,5550,1,0,3:0:0:0:
62,225,5638,2,0,L|66:198,1,26.5,2|0,3:0|0:0,0:0:0:0:
79,123,5815,1,0,3:0:0:0:
79,123,5903,2,0,L|81:109,8,13.25,2|0|0|0|0|0|0|0|0,3:0|3:0|3:0|3:0|3:0|3:0|3:0|3:0|3:0,0:0:0:0:
95,20,6344,37,2,3:0:0:0:
95,19,6520,2,0,B|142:2|176:40|176:40|209:78|257:62,1,180.200003437042
257,62,6962,1,0,3:0:0:0:
257,62,7050,1,2,3:0:0:0:
380,11,7579,1,2,0:3:0:0:
504,37,7932,5,2,3:0:0:0:
512,63,8020,1,0,3:0:0:0:
511,90,8108,1,0,3:0:0:0:
500,115,8197,2,0,L|507:125,1,13.25,2|0,3:0|3:0,3:0:0:0:
489,139,8285,1,0,3:0:0:0:
488,166,8373,1,0,3:0:0:0:
495,192,8461,1,2,3:0:0:0:
454,368,8726,38,0,P|418:350|379:347,2,79.5000030326844
494,301,9168,1,2,3:0:0:0:
494,301,9256,2,0,P|440:275|381:270,1,119.250004549027,0|2,0:0|0:3,0:0:0:0:
306,205,9697,1,0,3:0:0:0:
306,193,9785,1,0,3:0:0:0:
316,199,9873,1,0,3:0:0:0:
254,262,10403,5,2,0:3:0:0:
165,246,10668,1,0,3:0:0:0:
98,306,10932,1,0,3:0:0:0:
78,303,11020,1,0,3:0:0:0:
58,305,11109,2,0,L|53:292,1,13.25,0|0,3:0|3:0,3:0:0:0:
40,313,11196,1,0,3:0:0:0:
25,325,11284,1,2,3:0:0:0:
215,180,11638,37,2,0:0:0:0:
277,141,11815,1,2,0:0:0:0:
280,213,11991,1,2,3:0:0:0:
116,67,12520,5,0,3:0:0:0:
116,67,12608,1,0,3:0:0:0:
116,67,12697,1,2,3:0:0:0:
50,136,12873,1,0,3:0:0:0:
50,136,12962,2,0,L|62:254,1,119.250004549027,0|0,3:0|0:0,0:0:0:0:
78,265,13315,1,0,3:0:0:0:
93,279,13403,1,0,3:0:0:0:
104,295,13491,1,0,3:0:0:0:
114,313,13579,37,2,3:0:0:0:
148,334,13668,1,0,3:0:0:0:
169,303,13756,1,2,3:0:0:0:
203,324,13845,1,0,3:0:0:0:
224,293,13932,1,2,3:0:0:0:
291,350,14109,6,0,B|245:376|208:342|200:288|222:255|309:221|379:264|346:309|390:339|460:315,1,360.400006874085,0|4,3:0|1:0,1:0:0:0:
511,199,14991,1,0,0:0:0:0:
407,124,15168,2,0,L|418:202,1,79.5000030326844,0|0,3:0|3:0,0:0:0:0:
422,217,15432,1,0,3:0:0:0:
359,262,15520,2,0,P|329:250|298:251,1,63.5999980590821,8|0,0:0|3:0,0:0:0:0:
299,251,15785,1,0,3:0:0:0:
299,251,15873,1,0,3:0:0:0:
226,186,16050,38,0,B|202:203|202:203|152:200,2,79.5,0|0|0,3:0|3:0|3:0,0:0:0:0:
321,125,16756,1,0,3:0:0:0:
321,125,16844,1,0,3:0:0:0:
321,125,16932,2,0,B|354:124|354:124|365:131|365:131|398:130,2,79.5000030326844,8|2|2,3:2|0:0|0:0,0:0:0:0:
239,59,17462,1,0,0:0:0:0:
151,108,17638,6,0,B|90:115|101:78|33:86,2,119.250004549027,0|0|0,1:0|0:0|3:0,0:0:0:0:
162,105,18256,1,0,3:0:0:0:
215,161,18344,2,0,P|187:231|112:233,1,159.000006065369,8|0,3:2|0:0,0:0:0:0:
66,334,18873,38,0,B|49:272|49:272|126:254|178:321,1,212,0|0,3:0|3:0,0:0:0:0:
190,339,19315,1,0,3:0:0:0:
198,358,19403,1,0,3:0:0:0:
233,371,19491,2,0,L|251:364,1,19.8750007581711
272,371,19579,1,0,3:0:0:0:
304,349,19667,1,0,3:0:0:0:
320,313,19755,1,8,3:2:0:0:
395,147,19932,6,0,L|421:142,1,26.5,2|0,0:0|0:0,0:0:0:0:
467,204,20109,2,0,B|421:233|421:233|371:221,2,106,2|2|0,0:0|0:0|1:0,0:0:0:0:
307,51,20638,38,0,P|307:68|310:84,1,34.4499984230042
330,98,20815,2,0,P|330:80|327:64,1,34.4499984230042,2|0,3:2|0:0,0:0:0:0:
237,12,20991,5,0,3:0:0:0:
223,13,21079,1,0,3:0:0:0:
209,14,21168,2,0,L|164:21,1,45.0500008592606,8|0,3:2|0:0,0:0:0:0:
137,6,21344,2,0,L|102:34,1,45.0500008592606,0|0,3:0|0:0,0:0:0:0:
70,35,21520,2,0,L|53:77,1,45.0500008592606,0|0,3:0|0:0,0:0:0:0:
8,144,21697,38,0,P|81:134|109:203,2,159,0|0|0,3:0|3:0|3:0,0:0:0:0:
12,170,22315,2,0,L|34:187,1,26.5,0|0,3:0|3:0,0:0:0:0:
16,196,22403,1,0,3:0:0:0:
20,222,22491,1,0,3:0:0:0:
25,248,22579,1,8,3:2:0:0:
55,337,22756,6,0,P|78:326|104:322,1,53,2|0,0:0|0:0,0:0:0:0:
173,254,22932,1,2,0:0:0:0:
163,267,23020,2,0,P|199:303|251:305,1,106,2|0,0:0|0:0,0:0:0:0:
324,240,23285,38,0,B|356:210|356:210|431:219,2,119.250004549027,0|0|0,3:0|0:0|3:0,0:0:0:0:
313,254,23903,1,0,3:0:0:0:
371,342,23991,5,8,3:2:0:0:
372,339,24079,1,0,3:0:0:0:
373,336,24168,1,0,3:0:0:0:
374,333,24256,1,0,3:0:0:0:
375,330,24343,1,0,3:0:0:0:
365,336,24432,1,0,3:0:0:0:
351,344,24520,1,0,3:0:0:0:
332,349,24609,1,0,3:0:0:0:
308,351,24697,1,0,3:0:0:0:
281,345,24785,1,0,3:0:0:0:
253,328,24873,1,0,3:0:0:0:
231,299,24962,1,0,3:0:0:0:
221,261,25050,1,0,3:0:0:0:
200,222,25138,1,0,3:0:0:0:
160,195,25226,1,0,3:0:0:0:
107,194,25315,1,0,3:0:0:0:
133,281,25403,21,10,0:0:0:0:
133,281,26109,38,2,B|76:241|76:241|195:257|195:257|222:281|222:281|312:295,1,318,6|0,1:0|0:0,0:1:0:0:
498,137,26462,6,0,B|516:183|516:183|487:231,1,106,2|0,1:2|3:0,0:0:0:0:
313,295,26726,1,0,3:0:0:0:
399,264,26815,38,0,L|410:171,1,92.7500008845329,8|0,1:2|0:0,0:0:0:0:
422,80,26991,2,0,L|410:172,1,92.7500008845329,0|0,0:0|0:0,0:0:0:0:
133,281,27168,6,0,L|129:254,1,26.5,2|0,0:1|0:0,0:0:0:0:
227,326,27344,1,0,1:0:0:0:
145,285,27432,38,2,B|136:217|136:217|164:182|164:182|155:110,1,185.500001769066,2|0,0:1|1:0,0:1:0:0:
167,114,27697,2,0,B|175:186|175:186|148:221|148:221|156:289,1,185.500001769066,2|0,0:0|1:0,0:0:0:0:
359,335,27962,5,0,3:0:0:0:
359,335,28006,1,0,3:0:0:0:
359,335,28050,2,0,B|365:296|365:296|382:332,2,79.5000030326844,0|0|8,3:0|3:0|3:2,0:0:0:0:
460,193,28403,38,0,B|449:201|435:197|435:197|447:188|460:193,1,53,2|0,0:0|0:0,0:0:0:0:
243,224,28579,2,0,B|254:216|268:220|268:220|256:229|243:224,1,53,2|0,0:0|0:0,0:0:0:0:
340,116,28756,2,0,B|347:127|343:141|343:141|334:129|340:116,1,53,2|0,0:0|0:0,0:0:0:0:
242,15,28932,6,2,B|177:-19|98:59|153:183|335:196|374:50|288:71|363:-52|488:-88|599:71|516:175|389:142|408:51,1,636,2|0,1:0|3:0,0:1:0:0:
412,36,29550,1,0,3:0:0:0:
511,168,29638,38,0,P|469:185|423:182,1,92.7500008845329,10|0,1:2|0:0,0:0:0:0:
251,130,29815,2,0,P|294:113|340:116,1,92.7500008845329
446,340,29991,6,0,P|431:340|418:339,1,26.5,2|0,0:1|0:0,0:0:0:0:
512,277,30168,1,0,1:0:0:0:
457,347,30256,38,2,B|391:362|351:308|351:308|312:255|247:270,1,238.500009098053,2|0,0:1|0:0,0:1:0:0:
278,353,30520,5,0,1:0:0:0:
308,349,30608,1,0,3:0:0:0:
334,333,30696,1,0,3:0:0:0:
352,308,30785,2,0,L|364:323,1,19.8750007581711,0|0,3:0|3:0,3:0:0:0:
369,284,30872,1,0,3:0:0:0:
395,268,30961,1,0,3:0:0:0:
425,264,31050,38,0,P|412:241|393:223,1,53,10|0,1:2|0:0,0:0:0:0:
322,187,31226,2,0,P|296:186|271:194,1,53,2|0,0:0|0:0,0:0:0:0:
451,93,31403,6,0,P|429:125|394:143,1,79.5000030326844,2|0,0:0|0:0,0:0:0:0:
192,237,31579,38,0,P|166:237|141:229,1,53,2|0,0:0|0:0,0:0:0:0:
24,165,31756,6,2,B|-6:106|35:65|104:73|121:123|108:184|50:207|23:180|-15:217|-27:279|0:323,1,371,2|0,1:0|0:0,0:1:0:0:
0,322,32109,38,0,B|22:359|61:365|61:365|91:334|75:289,1,159.000006065369,0|0,1:0|3:0,0:0:0:0:
254,166,32373,1,0,3:0:0:0:
338,207,32462,6,0,P|358:247|355:293,1,92.7500008845329,10|0,1:2|0:0,0:0:0:0:
209,324,32638,2,0,P|188:282|192:237,1,92.7500008845329,2|0,0:0|0:0,0:0:0:0:
129,125,32815,38,0,P|143:124|156:121,1,26.5,2|0,0:1|0:0,0:0:0:0:
22,77,32991,1,0,1:0:0:0:
122,137,33079,6,2,P|203:102|215:14,1,185.500001769066,2|0,0:1|1:0,0:1:0:0:
338,207,33344,2,0,P|257:172|246:84,1,185.500001769066,2|0,0:0|1:0,0:0:0:0:
421,31,33609,37,0,3:0:0:0:
421,31,33653,1,0,3:0:0:0:
421,31,33697,2,0,B|415:70|415:70|395:36,2,79.5000030326844,0|0|8,3:0|3:0|3:2,3:0:0:0:
366,309,34050,6,0,L|425:318,1,59.6250022745133,2|0,0:0|0:0,0:0:0:0:
512,271,34226,38,2,B|435:241|393:311|393:311|350:381|274:352,1,278.250002653599,2|0,0:0|0:0,0:1:0:0:
98,203,34579,6,2,B|-1:119|-1:119|151:64|151:64|122:223|122:223|130:231|130:231|122:223|122:223|94:382,1,636,2|0,1:0|3:0,0:1:0:0:
306,168,35197,1,0,3:0:0:0:
235,108,35285,38,0,B|218:199,1,92.7500008845329,10|0,1:2|0:0,0:0:0:0:
186,383,35462,2,0,B|201:291,1,92.7500008845329,2|0,0:0|0:0,0:0:0:0:
384,142,35638,6,0,B|388:168,1,26.5,2|0,0:1|0:0,0:0:0:0:
446,348,35815,37,2,3:1:0:0:
464,357,35903,1,0,3:0:0:0:
495,353,35992,1,0,3:0:0:0:
508,318,36080,1,0,3:0:0:0:
484,283,36168,1,2,3:0:0:0:
437,272,36256,1,0,3:0:0:0:
391,299,36344,1,0,3:0:0:0:
353,344,36433,1,0,3:0:0:0:
294,366,36520,1,0,3:0:0:0:
227,345,36609,1,0,3:0:0:0:
286,234,36697,38,0,L|290:260,3,26.5,8|0|0|0,0:0|0:0|0:0|0:0,0:0:0:0:
66,160,37403,6,2,B|137:216|122:299|122:299|137:216|223:187,1,318,6|0,1:0|0:0,0:1:0:0:
175,0,37756,6,0,B|154:21|166:49|166:49|186:26|175:1,1,106,0|0,1:0|3:0,0:0:0:0:
152,131,38020,1,0,3:0:0:0:
4,104,38109,38,0,P|49:105|87:79,1,92.7500008845329,10|0,1:2|0:0,0:0:0:0:
300,156,38285,2,0,P|256:141|229:104,1,92.7500008845329,2|0,0:0|0:0,0:0:0:0:
16,252,38462,6,0,L|20:278,1,26.5,2|0,0:1|0:0,0:0:0:0:
62,149,38638,1,0,1:0:0:0:
28,252,38726,38,2,B|44:346|44:346|112:287,1,185.500001769066,2|0,0:1|1:0,0:1:0:0:
150,194,38991,2,0,B|134:100|134:100|66:159,1,185.500001769066,2|0,0:0|1:0,0:0:0:0:
218,280,39256,5,0,3:0:0:0:
218,280,39300,1,0,3:0:0:0:
218,280,39344,2,0,B|234:292|234:292|253:286|253:286|237:274|237:274|218:280,2,79.5000030326844,0|0|8,3:0|3:0|3:2,0:0:0:0:
484,316,39697,38,0,B|473:308|459:312|459:312|471:321|484:316,1,53,2|0,0:0|0:0,0:0:0:0:
342,205,39873,2,0,B|339:218|351:228|351:228|352:213|342:205,1,53,2|0,0:0|0:0,0:0:0:0:
317,384,40050,2,0,B|329:378|332:364|332:364|319:370|317:384,1,53,2|0,0:0|0:0,0:0:0:0:
472,163,40226,6,2,B|524:97|524:97|436:90|436:90|380:161|380:161|220:148|220:148|277:75|277:75|351:82|351:82|304:140,1,636,2|0,1:0|0:0,0:1:0:0:
315,131,40844,1,0,0:0:0:0:
267,226,40932,38,0,B|162:217,1,106,10|0,1:2|0:0,0:0:0:0:
267,0,41109,2,0,B|372:9,1,106,2|0,0:0|0:0,0:0:0:0:
375,349,41285,6,0,L|401:350,1,26.5,2|0,0:1|0:0,0:0:0:0:
503,283,41462,1,0,1:0:0:0:
411,367,41550,38,2,B|329:359|329:359|280:301|280:301|200:294,1,238.500009098053,2|0,0:1|0:0,0:1:0:0:
3,299,41815,5,0,1:0:0:0:
24,327,41903,1,0,3:0:0:0:
48,356,41991,1,0,3:0:0:0:
70,384,42079,2,0,L|65:364,1,19.8750007581711,0|0,3:0|3:0,3:0:0:0:
79,349,42167,1,0,3:0:0:0:
90,313,42256,1,0,3:0:0:0:
98,275,42344,38,0,P|95:248|85:224,1,53,10|0,1:2|0:0,0:0:0:0:
280,272,42520,2,0,P|301:256|317:235,1,53,2|0,0:0|0:0,0:0:0:0:
188,250,42697,6,0,P|202:213|200:173,1,79.5000030326844,2|0,0:0|0:0,0:0:0:0:
346,336,42873,2,0,P|384:329|416:305,1,79.5000030326844,2|0,0:0|0:0,0:0:0:0:
502,128,43050,38,2,B|545:188|497:257|408:257|344:164|372:68|436:29,1,371,2|0,1:0|0:0,0:1:0:0:
436,29,43403,6,0,P|389:91|312:103,1,159.000006065369,0|0,1:0|3:0,0:0:0:0:
124,71,43668,1,0,3:0:0:0:
191,0,43756,38,0,P|215:39|219:84,1,92.7500008845329,10|0,1:2|0:0,0:0:0:0:
57,142,43932,2,0,P|32:102|28:57,1,92.7500008845329,2|0,0:0|0:0,0:0:0:0:
179,202,44109,6,0,P|191:199|205:199,1,26.5,2|0,0:1|0:0,0:0:0:0:
83,256,44285,1,0,1:0:0:0:
185,190,44373,38,2,B|234:173|268:212|268:212|302:251|352:234,1,185.500001769066,2|0,0:1|1:0,0:1:0:0:
501,128,44638,2,0,P|430:95|427:174,1,185.500001769066,2|0,0:0|1:0,0:0:0:0:
512,296,44903,5,0,3:0:0:0:
512,296,44947,1,0,3:0:0:0:
512,296,44991,2,0,B|487:264|487:264|487:302,2,79.5000030326844,0|0|8,3:0|3:0|3:2,3:0:0:0:
185,281,45344,38,0,B|156:291|156:291|182:307,1,59.6250022745133,2|0,0:0|0:0,0:0:0:0:
242,235,45520,6,2,B|360:308|360:308|233:360,1,278.250002653599,2|0,0:0|0:0,0:1:0:0:
126,121,45873,38,2,P|-3:138|80:238,1,636,2|0,1:0|3:0,0:1:0:0:
412,193,46491,1,0,3:0:0:0:
312,79,46579,6,0,B|304:119|304:119|322:154,1,79.5000030326844,10|0,1:2|0:0,0:0:0:0:
346,329,46756,2,0,B|327:292|327:292|335:253,1,79.5000030326844,2|0,0:0|0:0,0:0:0:0:
486,182,46932,38,0,L|512:178,1,26.5,2|0,0:1|0:0,0:0:0:0:
255,213,47109,5,2,3:1:0:0:
211,213,47197,1,0,3:0:0:0:
173,192,47285,1,0,3:0:0:0:
149,156,47373,1,0,3:0:0:0:
144,113,47462,1,2,3:0:0:0:
160,73,47550,1,0,3:0:0:0:
193,45,47638,1,0,3:0:0:0:
235,35,47726,1,0,3:0:0:0:
277,46,47814,1,0,3:0:0:0:
309,75,47903,1,0,3:0:0:0:
234,126,47991,21,12,1:0:0:0:
256,192,48079,12,0,59991,0:0:0:0:
