osu file format v14

[General]
AudioFilename: audio.mp3
AudioLeadIn: 0
PreviewTime: 24962
Countdown: 0
SampleSet: Soft
StackLeniency: 0.4
Mode: 0
LetterboxInBreaks: 0
WidescreenStoryboard: 1

[Editor]
Bookmarks: 3521,26109,47991
DistanceSpacing: 0.7
BeatDivisor: 4
GridSize: 32
TimelineZoom: 1.7

[Metadata]
Title:World Collapse
TitleUnicode:World Collapse
Artist:Akira Complex
ArtistUnicode:Akira Complex
Creator:Realazy
Version:Hard
Source:
Tags:altai undeadphoneguy naotoshi nao tomori lasse icekalt かめりあ cametek camellia electronic instrumental mpg mapper's guild featured artist fa osu! reality distortion introduction S2TB-0019
BeatmapID:2329584
BeatmapSetID:1115140

[Difficulty]
HPDrainRate:4
CircleSize:4
OverallDifficulty:7
ApproachRate:8
SliderMultiplier:1.4
SliderTickRate:1

[Events]
//Background and Video events
0,0,"worldcollapse.jpg",0,0
//Break Periods
//Storyboard Layer 0 (Background)
//Storyboard Layer 1 (Fail)
//Storyboard Layer 2 (Pass)
//Storyboard Layer 3 (Foreground)
//Storyboard Layer 4 (Overlay)
//Storyboard Sound Samples

[TimingPoints]
3521,352.941176470588,4,2,0,20,1,0
3521,-133.333333333333,4,2,0,20,0,0
5285,-133.333333333333,4,2,0,30,0,0
5462,-133.333333333333,4,2,0,20,0,0
5637,-133.333333333333,4,2,0,20,0,0
14197,-133.333333333333,4,2,1,22,0,0
14285,-133.333333333333,4,2,0,24,0,0
14373,-133.333333333333,4,2,1,26,0,0
14462,-133.333333333333,4,2,0,28,0,0
14550,-133.333333333333,4,2,1,30,0,0
14638,-133.333333333333,4,2,0,30,0,0
14815,-117.647058823529,4,2,0,40,0,0
16517,-117.647058823529,4,2,0,30,0,0
16755,-117.647058823529,4,2,0,40,0,0
22402,-117.647058823529,4,2,0,40,0,0
23991,-117.647058823529,4,2,0,40,0,0
24168,-117.647058823529,4,2,0,45,0,0
24344,-117.647058823529,4,2,0,50,0,0
24520,-117.647058823529,4,2,0,55,0,0
24697,-117.647058823529,4,2,0,60,0,0
24873,-117.647058823529,4,2,0,65,0,0
25050,-117.647058823529,4,2,0,70,0,0
25226,-117.647058823529,4,2,0,75,0,0
25402,-100,4,2,1,80,0,0
34579,-100,4,2,1,80,0,0
37226,-100,4,2,1,40,0,0
37403,-100,4,2,1,80,0,0
40932,-100,4,2,1,80,0,0
45873,-100,4,2,1,80,0,0
47991,-100,4,2,1,60,0,0
48697,-100,4,2,1,10,0,0
50109,-100,4,2,1,15,0,0
51520,-100,4,2,1,20,0,0
52932,-100,4,2,1,25,0,0
54344,-100,4,2,1,30,0,0
55050,-100,4,2,1,35,0,0
55756,-100,4,2,1,40,0,0
56462,-100,4,2,1,45,0,0
57168,-100,4,2,1,50,0,0
57873,-100,4,2,1,55,0,0
58579,-100,4,2,1,60,0,0
59285,-100,4,2,1,65,0,0
59991,-100,4,2,1,5,0,0

[Colours]
Combo1 : 215,233,255
Combo2 : 178,187,209
Combo3 : 255,217,106
Combo4 : 255,119,56

[HitObjects]
12,279,3521,54,0,B|54:276|54:276|68:261|68:261|110:259,1,105.000004005432,4|2,1:0|3:0,0:0:0:0:
177,217,4050,1,0,3:0:0:0:
177,217,4138,1,0,0:0:0:0:
177,217,4226,1,2,3:0:0:0:
166,54,4756,5,0,0:0:0:0:
169,69,5021,1,0,0:0:0:0:
172,84,5285,1,0,0:0:0:0:
108,126,5462,2,0,L|81:122,2,26.2500010013581,0|0|2,3:0|3:0|3:0,0:0:0:0:
265,140,6344,37,2,3:0:0:0:
371,46,6873,1,0,0:0:0:0:
371,46,6962,1,0,3:0:0:0:
371,46,7050,1,2,3:0:0:0:
470,103,7579,5,2,0:3:0:0:
470,103,7932,1,2,3:0:0:0:
480,115,8020,1,0,3:0:0:0:
486,128,8109,2,0,P|490:140|493:153,4,26.2500010013581,0|2|0|0|2,3:0|3:0|3:0|3:0|3:0,0:0:0:0:
458,283,9168,38,0,P|409:263|357:264,1,105.000004005432,2|2,3:0|0:3,0:0:0:0:
300,311,9697,1,0,3:0:0:0:
300,311,9785,1,0,3:0:0:0:
300,311,9873,1,0,3:0:0:0:
172,163,10403,5,2,0:3:0:0:
177,177,10668,1,0,3:0:0:0:
183,191,10932,2,0,L|208:197,4,26.2500010013581,0|0|0|0|2,3:0|3:0|3:0|3:0|3:0,0:0:0:0:
142,51,11991,37,2,3:0:0:0:
0,16,12520,1,0,3:0:0:0:
0,16,12608,1,0,3:0:0:0:
0,16,12696,1,2,3:0:0:0:
116,72,13226,5,0,0:0:0:0:
116,72,13315,1,0,3:0:0:0:
116,72,13403,2,0,L|141:68,3,26.2500010013581,0|0|2|0,3:0|3:0|3:0|3:0,0:0:0:0:
179,62,13756,2,0,L|204:58,3,26.2500010013581,2|0|2|0,3:0|3:0|3:0|0:0,0:0:0:0:
241,49,14109,2,0,B|294:77|294:77|285:174,1,157.500006008148,0|0,3:0|0:0,1:0:0:0:
360,253,14815,38,0,P|419:192|503:212,1,178.500003404617,4|0,1:0|3:0,0:0:0:0:
503,212,15432,1,0,3:0:0:0:
503,212,15520,1,8,0:0:0:0:
412,360,15873,5,0,3:0:0:0:
404,346,16050,2,0,L|316:329,2,89.2500017023087,0|0|0,3:0|0:0|0:0,0:0:0:0:
437,275,16756,1,0,3:0:0:0:
437,275,16844,1,0,3:0:0:0:
437,275,16932,2,0,L|320:252,1,119.000002269745,8|0,3:2|0:0,0:0:0:0:
235,37,17638,38,0,P|202:115|117:123,1,178.500003404617,0|0,1:0|3:0,0:0:0:0:
106,127,18256,1,0,3:0:0:0:
94,130,18344,2,0,L|88:189,1,59.5000011348725,8|0,3:2|0:0,0:0:0:0:
129,256,18697,1,0,0:0:0:0:
84,319,18873,6,0,P|138:294|197:292,1,119.000002269745,0|0,3:0|3:0,0:0:0:0:
197,292,19315,1,0,3:0:0:0:
197,292,19403,1,0,3:0:0:0:
292,245,19579,2,0,L|262:250,2,29.7500005674362,0|0|8,3:0|3:0|3:2,0:0:0:0:
348,298,19932,2,0,P|341:326|340:356,1,59.5000011348725,2|2,0:0|0:0,0:0:0:0:
476,213,20462,38,0,P|449:159|447:100,1,119.000002269745,0|2,1:0|3:2,0:0:0:0:
395,40,20991,1,0,3:0:0:0:
395,40,21079,1,0,3:0:0:0:
395,40,21168,1,8,3:2:0:0:
330,88,21344,2,0,P|340:115|347:144,1,59.5000011348725,0|0,3:0|3:0,0:0:0:0:
226,18,21697,6,0,P|270:18|310:0,2,89.2500017023087,0|0|0,3:0|3:0|3:0,0:0:0:0:
175,80,22403,1,0,3:0:0:0:
175,80,22491,1,0,3:0:0:0:
175,80,22579,1,8,3:2:0:0:
97,43,22756,2,0,P|54:51|17:76,1,89.2500017023087,2|2,0:0|0:0,0:0:0:0:
7,197,23285,37,0,3:0:0:0:
1,182,23462,2,0,P|55:156|113:162,1,119.000002269745,0|0,0:0|3:0,0:0:0:0:
112,161,23903,1,0,3:0:0:0:
112,161,23991,1,8,3:2:0:0:
71,247,24168,1,0,3:0:0:0:
140,303,24344,2,0,L|169:296,3,29.7500005674362,0|0|0|0,3:0|3:0|3:0|3:0,0:0:0:0:
188,250,24697,2,0,L|179:278,3,29.7500005674362,0|0|0|0,3:0|3:0|3:0|3:0,0:0:0:0:
209,318,25050,2,0,L|188:296,3,29.7500005674362,0|0|0|0,3:0|3:0|3:0|3:0,0:0:0:0:
265,266,25403,37,10,0:0:0:0:
265,265,26109,38,2,P|309:237|360:227,1,105,6|0,1:0|0:0,0:1:0:0:
379,212,26462,2,0,L|373:142,1,70,2|0,1:2|3:0,0:0:0:0:
369,118,26726,1,0,3:0:0:0:
365,93,26815,1,8,1:2:0:0:
416,15,26991,1,0,0:0:0:0:
314,0,27168,6,0,P|279:3|248:19,1,70,2|0,0:1|1:0,0:0:0:0:
232,32,27432,1,2,0:1:0:0:
142,7,27609,1,0,1:0:0:0:
142,7,27697,1,2,0:0:0:0:
86,93,27873,1,0,1:0:0:0:
86,93,27962,1,0,3:0:0:0:
86,93,28050,2,0,P|87:110|92:127,2,35,0|0|8,3:0|3:0|3:2,0:0:0:0:
17,210,28403,37,2,0:0:0:0:
88,281,28579,1,2,0:0:0:0:
88,281,28668,1,0,0:0:0:0:
88,281,28756,1,2,0:0:0:0:
13,384,28932,6,2,B|95:389|59:349|146:353,1,140,2|0,1:0|0:0,0:1:0:0:
219,280,29462,1,0,3:0:0:0:
219,280,29550,1,0,3:0:0:0:
219,280,29638,2,0,B|208:248|208:248|216:212,1,70,10|0,1:2|0:0,0:0:0:0:
299,160,29991,1,2,0:1:0:0:
224,113,30168,1,0,1:0:0:0:
223,113,30256,2,2,B|188:111|188:111|165:132|165:132|127:130,1,105,2|0,0:1|1:0,0:1:0:0:
113,129,30609,1,0,3:0:0:0:
99,128,30697,2,0,L|64:125,2,35,0|0|0,3:0|3:0|3:0,0:0:0:0:
231,11,31050,37,10,1:2:0:0:
231,11,31226,1,2,0:0:0:0:
315,63,31403,1,2,0:0:0:0:
315,63,31579,1,2,0:0:0:0:
401,17,31756,6,2,P|445:43|497:42,1,105,2|0,1:0|0:0,0:1:0:0:
512,58,32109,2,0,L|502:127,1,70,0|0,1:0|3:0,0:0:0:0:
479,256,32462,1,10,1:2:0:0:
417,189,32638,1,2,0:0:0:0:
342,248,32815,38,0,P|332:281|335:315,1,70,2|0,0:1|1:0,0:0:0:0:
342,331,33079,1,2,0:1:0:0:
271,381,33256,1,0,1:0:0:0:
271,381,33344,1,2,0:0:0:0:
194,322,33520,1,0,1:0:0:0:
194,322,33609,1,0,3:0:0:0:
194,322,33697,2,0,L|159:327,2,35,0|0|8,3:0|3:0|3:2,3:0:0:0:
31,278,34050,5,2,0:0:0:0:
31,278,34226,2,2,P|79:266|91:217,1,105,2|0,0:0|0:0,0:1:0:0:
88,205,34579,38,2,B|122:166|122:166|209:175,1,140,2|0,1:0|0:0,0:1:0:0:
267,93,35109,1,0,3:0:0:0:
267,93,35197,1,0,3:0:0:0:
267,93,35285,2,0,L|197:85,1,70,10|2,1:2|0:0,0:0:0:0:
309,200,35638,5,2,0:1:0:0:
373,153,35815,2,0,L|407:156,3,35,2|0|0|0,3:1|3:0|3:0|3:0,0:0:0:0:
446,160,36168,2,0,L|480:163,3,35,2|0|0|0,3:0|3:0|3:0|3:0,0:0:0:0:
506,167,36520,2,0,L|501:201,1,35,0|0,3:0|3:0,0:0:0:0:
489,275,36697,21,8,0:0:0:0:
489,275,37403,6,2,P|438:275|395:304,1,105,6|0,1:0|0:0,0:1:0:0:
384,322,37756,2,0,L|287:314,1,70,0|0,1:0|3:0,0:0:0:0:
289,314,38020,1,0,3:0:0:0:
264,312,38109,1,10,1:2:0:0:
201,243,38285,1,2,0:0:0:0:
274,171,38462,6,0,P|305:188|339:191,1,70,2|0,0:1|1:0,0:0:0:0:
358,190,38726,1,2,0:1:0:0:
438,130,38903,1,0,1:0:0:0:
438,130,38991,1,2,0:0:0:0:
374,51,39168,2,0,P|345:71|311:77,1,70,0|0,1:0|3:0,0:0:0:0:
299,76,39432,1,0,3:0:0:0:
288,75,39520,1,8,3:2:0:0:
176,15,39697,37,2,0:0:0:0:
99,36,39873,1,2,0:0:0:0:
99,36,39962,1,0,0:0:0:0:
99,36,40050,1,2,0:0:0:0:
21,57,40226,6,2,P|43:152|141:161,1,210,2|0,1:0|0:0,0:1:0:0:
141,161,40844,1,0,0:0:0:0:
141,161,40932,1,10,1:2:0:0:
218,238,41109,1,2,0:0:0:0:
142,297,41285,37,2,0:1:0:0:
213,351,41462,1,0,1:0:0:0:
213,351,41550,2,2,L|317:339,1,105,2|0,0:1|1:0,0:1:0:0:
331,338,41903,1,0,3:0:0:0:
344,337,41991,2,0,L|338:371,2,35,0|0|0,3:0|3:0|3:0,0:0:0:0:
417,279,42344,5,10,1:2:0:0:
417,279,42520,1,2,0:0:0:0:
512,324,42697,1,2,0:0:0:0:
512,324,42873,1,2,0:0:0:0:
481,217,43050,38,2,P|475:165|490:115,1,105,2|0,1:0|0:0,0:1:0:0:
476,94,43403,2,0,L|406:105,1,70,0|0,1:0|3:0,0:0:0:0:
382,108,43668,1,0,3:0:0:0:
357,111,43756,1,10,1:2:0:0:
277,68,43932,1,2,0:0:0:0:
189,135,44109,6,0,P|201:168|199:203,1,70,2|0,0:1|1:0,0:0:0:0:
193,222,44373,1,2,0:1:0:0:
122,288,44550,1,0,1:0:0:0:
122,288,44638,1,2,0:0:0:0:
207,347,44815,1,0,1:0:0:0:
207,347,44903,1,0,3:0:0:0:
207,347,44991,2,0,L|201:312,2,35,0|0|8,3:0|3:0|3:2,3:0:0:0:
277,269,45344,37,2,0:0:0:0:
277,269,45520,2,2,B|312:267|312:267|336:287|336:287|374:284,1,105,2|0,0:0|0:0,0:1:0:0:
399,282,45873,6,2,B|391:201|391:201|417:149|417:149|409:78,1,210,2|0,1:0|3:0,0:1:0:0:
405,54,46491,1,0,3:0:0:0:
401,29,46579,2,0,L|331:36,1,70,10|2,1:2|0:0,0:0:0:0:
256,90,46932,37,2,0:1:0:0:
304,147,47109,2,0,P|310:164|310:182,3,35,2|0|0|0,3:1|3:0|3:0|3:0,0:0:0:0:
307,201,47462,2,0,P|303:218|295:233,3,35,2|0|0|0,3:0|3:0|3:0|3:0,0:0:0:0:
282,247,47815,2,0,P|270:259|255:269,1,35,0|0,3:0|3:0,0:0:0:0:
181,278,47991,37,12,1:0:0:0:
256,192,48079,12,0,59991,0:0:0:0:
