osu file format v14

[General]
AudioFilename: audio.ogg
AudioLeadIn: 0
PreviewTime: 87616
Countdown: 0
SampleSet: Normal
StackLeniency: 0.7
Mode: 1
LetterboxInBreaks: 0
WidescreenStoryboard: 1

[Editor]
Bookmarks: 1222,30022,58822,87622,106822
DistanceSpacing: 0.5
BeatDivisor: 4
GridSize: 4
TimelineZoom: 2.399999

[Metadata]
Title:The World Ends Now
TitleUnicode:The World Ends Now
Artist:Akira Complex
ArtistUnicode:Akira Complex
Creator:Ulqui
Version:Futsuu
Source:DanceDanceRevolution A20
Tags:ddr GOLDEN LEAGUE ゴールデンリーグ techno electronic dance dance revolution video game english instrumental -Kazu- melancholiaah apocalypse fa featured artist
BeatmapID:3522120
BeatmapSetID:1722957

[Difficulty]
HPDrainRate:7
CircleSize:7
OverallDifficulty:4
ApproachRate:7
SliderMultiplier:1.2
SliderTickRate:1

[Events]
//Background and Video events
0,0,"96999440_p0.jpg",0,-50
//Break Periods
//Storyboard Layer 0 (Background)
//Storyboard Layer 1 (Fail)
//Storyboard Layer 2 (Pass)
//Storyboard Layer 3 (Foreground)
//Storyboard Layer 4 (Overlay)
//Storyboard Sound Samples

[TimingPoints]
1216,300,4,1,0,70,1,0
30016,-100,4,1,0,70,0,1
34516,-100,4,1,0,70,0,0
34816,-100,4,1,0,70,0,1
39316,-100,4,1,0,70,0,0
39616,-100,4,1,0,70,0,1
44116,-100,4,1,0,70,0,0
49216,-100,4,1,0,70,0,1
53416,-100,4,1,0,70,0,0
54016,-100,4,1,0,70,0,1
57616,-100,4,1,0,70,0,0
87616,-100,4,1,0,70,0,1
106816,-100,4,1,0,70,0,0

[HitObjects]
176,187,1216,5,4,0:0:0:0:
166,196,1516,1,4,0:0:0:0:
165,173,2266,1,8,0:0:0:0:
165,173,2566,1,8,0:0:0:0:
156,175,2716,1,8,0:0:0:0:
246,198,3616,1,0,0:0:0:0:
163,164,3916,1,0,0:0:0:0:
183,147,4666,1,8,0:0:0:0:
191,165,4966,1,8,0:0:0:0:
191,165,5116,1,8,0:0:0:0:
198,169,5716,1,4,0:0:0:0:
200,171,6016,1,4,0:0:0:0:
198,169,6316,1,4,0:0:0:0:
174,193,7066,1,8,0:0:0:0:
174,193,7366,1,8,0:0:0:0:
174,193,7516,1,8,0:0:0:0:
162,203,8416,1,0,0:0:0:0:
162,203,8716,1,0,0:0:0:0:
162,203,9466,1,8,0:0:0:0:
162,203,9766,1,8,0:0:0:0:
162,203,9916,1,4,0:0:0:0:
166,115,10366,1,4,0:0:0:0:
195,144,10816,1,4,0:0:0:0:
191,145,11116,1,4,0:0:0:0:
231,151,11566,1,8,0:0:0:0:
231,151,11866,1,8,0:0:0:0:
174,129,12016,1,8,0:0:0:0:
201,149,12316,1,8,0:0:0:0:
205,152,13216,1,8,0:0:0:0:
165,112,13516,1,8,0:0:0:0:
165,116,13966,1,8,0:0:0:0:
165,116,14266,1,8,0:0:0:0:
165,116,14416,1,8,0:0:0:0:
171,107,14716,1,8,0:0:0:0:
180,113,15316,1,4,0:0:0:0:
181,113,15616,1,4,0:0:0:0:
181,113,15916,1,4,0:0:0:0:
151,114,16366,1,8,0:0:0:0:
151,114,16666,1,8,0:0:0:0:
121,192,16816,1,8,0:0:0:0:
151,114,17116,1,8,0:0:0:0:
172,120,18016,1,4,0:0:0:0:
183,109,18616,1,4,0:0:0:0:
183,109,19216,1,4,0:0:0:0:
183,109,19516,1,4,0:0:0:0:
183,109,19966,1,4,0:0:0:0:
203,82,20416,1,12,0:0:0:0:
216,163,20716,1,0,0:0:0:0:
190,139,21016,1,12,0:0:0:0:
216,163,21316,1,0,0:0:0:0:
190,139,21616,1,12,0:0:0:0:
216,163,21916,1,0,0:0:0:0:
190,139,22216,1,12,0:0:0:0:
216,163,22516,1,0,0:0:0:0:
190,139,22816,1,12,0:0:0:0:
216,163,23116,1,0,0:0:0:0:
190,139,23416,1,12,0:0:0:0:
216,163,23716,1,0,0:0:0:0:
190,139,24016,1,12,0:0:0:0:
216,163,24316,1,0,0:0:0:0:
190,139,24616,1,12,0:0:0:0:
231,192,25216,1,12,0:0:0:0:
231,192,25516,1,12,0:0:0:0:
231,192,25816,1,12,0:0:0:0:
231,192,26116,1,12,0:0:0:0:
231,192,26416,1,12,0:0:0:0:
173,153,26716,1,12,0:0:0:0:
173,153,27016,1,12,0:0:0:0:
173,153,27316,1,12,0:0:0:0:
256,192,27616,12,0,28816,0:0:0:0:
173,164,30016,5,4,0:0:0:0:
202,168,30316,1,8,0:0:0:0:
201,173,30616,1,0,0:0:0:0:
201,173,30916,1,8,0:0:0:0:
225,148,31216,1,0,0:0:0:0:
225,148,31516,1,8,0:0:0:0:
225,148,31816,1,0,0:0:0:0:
225,148,32116,1,8,0:0:0:0:
225,148,32266,1,8,0:0:0:0:
225,148,32416,1,0,0:0:0:0:
214,163,32716,1,8,0:0:0:0:
214,163,33016,1,0,0:0:0:0:
214,163,33316,1,8,0:0:0:0:
214,163,33616,1,0,0:0:0:0:
214,163,33916,1,8,0:0:0:0:
214,163,34216,1,0,0:0:0:0:
214,163,34816,1,4,0:0:0:0:
214,163,35116,1,8,0:0:0:0:
214,163,35416,1,0,0:0:0:0:
214,163,35716,1,8,0:0:0:0:
214,163,36016,1,0,0:0:0:0:
122,215,36316,1,8,0:0:0:0:
151,215,36616,1,0,0:0:0:0:
151,215,36916,1,8,0:0:0:0:
165,111,37066,1,8,0:0:0:0:
165,111,37216,1,4,0:0:0:0:
157,120,37516,1,8,0:0:0:0:
157,120,37816,1,4,0:0:0:0:
159,127,38116,1,8,0:0:0:0:
160,127,38416,1,4,0:0:0:0:
171,124,38716,1,4,0:0:0:0:
171,125,39016,1,12,0:0:0:0:
191,157,39616,1,4,0:0:0:0:
147,164,39916,1,8,0:0:0:0:
147,164,40216,1,0,0:0:0:0:
147,164,40516,1,8,0:0:0:0:
147,164,40666,1,0,0:0:0:0:
147,164,40816,1,0,0:0:0:0:
147,164,41116,1,8,0:0:0:0:
147,164,41416,1,0,0:0:0:0:
147,164,41716,1,8,0:0:0:0:
147,164,41866,1,8,0:0:0:0:
147,164,42016,1,0,0:0:0:0:
147,168,42316,1,8,0:0:0:0:
140,112,42616,1,0,0:0:0:0:
140,115,42916,1,8,0:0:0:0:
140,112,43066,1,0,0:0:0:0:
142,115,43216,1,0,0:0:0:0:
142,115,43516,1,8,0:0:0:0:
140,115,43816,1,0,0:0:0:0:
141,121,44416,1,4,0:0:0:0:
157,132,45016,1,4,0:0:0:0:
159,126,45616,1,12,0:0:0:0:
161,125,45916,1,12,0:0:0:0:
159,126,46216,1,4,0:0:0:0:
176,125,46816,1,4,0:0:0:0:
226,108,47116,1,4,0:0:0:0:
159,104,47416,1,12,0:0:0:0:
173,53,47716,1,12,0:0:0:0:
159,104,48016,1,4,0:0:0:0:
159,104,48316,1,4,0:0:0:0:
159,104,48616,1,12,0:0:0:0:
205,97,49216,1,12,0:0:0:0:
223,127,49516,1,0,0:0:0:0:
179,119,49816,1,12,0:0:0:0:
223,127,50116,1,0,0:0:0:0:
179,119,50416,1,12,0:0:0:0:
220,135,50716,1,0,0:0:0:0:
179,119,51016,1,12,0:0:0:0:
220,135,51316,1,0,0:0:0:0:
179,119,51616,1,12,0:0:0:0:
220,135,51916,1,0,0:0:0:0:
179,119,52216,1,12,0:0:0:0:
220,135,52516,1,0,0:0:0:0:
179,119,52816,1,12,0:0:0:0:
216,136,53116,1,0,0:0:0:0:
179,119,53416,1,12,0:0:0:0:
179,119,54016,1,12,0:0:0:0:
179,119,54316,1,12,0:0:0:0:
179,119,54616,1,4,0:0:0:0:
179,119,54916,1,12,0:0:0:0:
179,119,55216,1,12,0:0:0:0:
178,122,55516,1,4,0:0:0:0:
181,123,55816,1,12,0:0:0:0:
181,123,56116,1,12,0:0:0:0:
256,192,56416,12,0,57616,0:0:0:0:
271,291,58816,5,4,0:0:0:0:
187,255,59566,1,8,0:0:0:0:
187,255,59866,1,8,0:0:0:0:
177,250,60766,1,8,0:0:0:0:
177,250,61066,1,8,0:0:0:0:
183,238,61966,1,8,0:0:0:0:
181,238,62266,1,0,0:0:0:0:
183,165,63166,1,8,0:0:0:0:
169,105,63616,1,0,0:0:0:0:
173,166,64366,1,8,0:0:0:0:
173,166,64666,1,8,0:0:0:0:
173,166,65566,1,8,0:0:0:0:
173,166,65866,1,8,0:0:0:0:
173,166,66766,1,8,0:0:0:0:
173,166,67066,1,0,0:0:0:0:
146,72,67516,1,4,0:0:0:0:
161,72,67966,1,4,0:0:0:0:
161,72,68416,1,4,0:0:0:0:
185,171,69166,1,8,0:0:0:0:
185,171,69466,1,8,0:0:0:0:
205,73,69616,1,8,0:0:0:0:
156,175,70366,1,8,0:0:0:0:
156,175,70666,1,8,0:0:0:0:
156,175,70816,1,8,0:0:0:0:
156,175,71566,1,8,0:0:0:0:
156,175,71866,1,0,0:0:0:0:
156,175,72016,1,8,0:0:0:0:
156,175,72916,1,4,0:0:0:0:
156,175,73216,1,4,0:0:0:0:
156,175,73516,1,4,0:0:0:0:
160,148,73966,1,8,0:0:0:0:
160,148,74266,1,8,0:0:0:0:
160,148,74416,1,8,0:0:0:0:
160,148,75166,1,8,0:0:0:0:
160,148,75466,1,8,0:0:0:0:
160,148,75616,1,8,0:0:0:0:
160,148,76366,1,8,0:0:0:0:
160,148,76666,1,0,0:0:0:0:
160,148,76816,1,8,0:0:0:0:
186,242,78016,1,12,0:0:0:0:
178,90,78316,1,0,0:0:0:0:
190,248,78616,1,12,0:0:0:0:
191,244,79216,1,4,0:0:0:0:
196,85,79516,1,8,0:0:0:0:
168,238,79816,1,4,0:0:0:0:
157,55,80416,1,12,0:0:0:0:
179,86,80716,1,0,0:0:0:0:
163,111,81016,1,12,0:0:0:0:
167,107,81616,1,4,0:0:0:0:
159,62,81916,1,8,0:0:0:0:
159,62,82216,1,4,0:0:0:0:
141,241,82816,1,8,0:0:0:0:
141,241,83116,1,8,0:0:0:0:
141,241,83416,1,8,0:0:0:0:
141,241,83716,1,8,0:0:0:0:
139,244,84016,1,0,0:0:0:0:
139,245,84316,1,0,0:0:0:0:
137,245,84616,1,0,0:0:0:0:
139,244,84916,1,0,0:0:0:0:
185,145,85216,1,8,0:0:0:0:
185,145,85516,1,8,0:0:0:0:
185,145,85816,1,8,0:0:0:0:
185,145,86116,1,8,0:0:0:0:
185,145,86416,1,0,0:0:0:0:
205,178,87616,1,4,0:0:0:0:
175,202,87916,1,8,0:0:0:0:
156,93,88216,1,0,0:0:0:0:
186,201,88366,1,8,0:0:0:0:
186,201,88516,1,8,0:0:0:0:
187,201,88816,1,0,0:0:0:0:
186,201,89116,1,8,0:0:0:0:
156,93,89416,1,0,0:0:0:0:
186,201,89566,1,0,0:0:0:0:
187,201,89716,1,8,0:0:0:0:
191,209,90016,1,0,0:0:0:0:
196,213,90316,1,8,0:0:0:0:
152,71,90616,1,0,0:0:0:0:
197,214,90766,1,8,0:0:0:0:
197,214,90916,1,8,0:0:0:0:
162,98,91216,1,0,0:0:0:0:
161,105,91516,1,8,0:0:0:0:
204,39,91816,1,0,0:0:0:0:
166,115,91966,1,0,0:0:0:0:
166,115,92116,1,8,0:0:0:0:
166,117,92416,1,4,0:0:0:0:
160,138,92716,1,8,0:0:0:0:
171,117,93016,1,0,0:0:0:0:
166,156,93166,1,8,0:0:0:0:
166,156,93316,1,8,0:0:0:0:
166,156,93616,1,0,0:0:0:0:
161,112,93916,1,8,0:0:0:0:
167,103,94216,1,0,0:0:0:0:
213,58,94366,1,0,0:0:0:0:
161,112,94516,1,8,0:0:0:0:
161,112,94816,1,4,0:0:0:0:
157,98,95116,1,8,0:0:0:0:
157,98,95416,1,4,0:0:0:0:
157,98,95716,1,8,0:0:0:0:
157,98,96016,1,4,0:0:0:0:
160,93,96316,1,4,0:0:0:0:
160,95,96616,1,12,0:0:0:0:
169,102,97216,1,4,0:0:0:0:
157,108,97516,1,8,0:0:0:0:
157,108,97816,1,0,0:0:0:0:
158,108,97966,1,8,0:0:0:0:
158,109,98116,1,8,0:0:0:0:
159,121,98416,1,0,0:0:0:0:
159,121,98716,1,8,0:0:0:0:
160,121,99016,1,0,0:0:0:0:
160,121,99166,1,0,0:0:0:0:
159,121,99316,1,8,0:0:0:0:
159,121,99616,1,0,0:0:0:0:
160,121,99916,1,8,0:0:0:0:
160,121,100216,1,0,0:0:0:0:
161,124,100366,1,8,0:0:0:0:
161,124,100516,1,8,0:0:0:0:
161,126,100816,1,0,0:0:0:0:
161,126,101116,1,8,0:0:0:0:
161,124,101416,1,0,0:0:0:0:
161,124,101566,1,8,0:0:0:0:
161,126,101716,1,8,0:0:0:0:
167,103,102016,1,4,0:0:0:0:
166,112,102616,1,4,0:0:0:0:
170,110,103216,1,4,0:0:0:0:
170,110,103516,1,4,0:0:0:0:
170,110,103816,1,4,0:0:0:0:
170,110,104416,1,12,0:0:0:0:
170,110,104716,1,4,0:0:0:0:
170,110,105016,1,12,0:0:0:0:
170,110,105316,1,4,0:0:0:0:
170,110,105616,1,12,0:0:0:0:
170,110,105916,1,4,0:0:0:0:
170,110,106216,1,12,0:0:0:0:
170,110,106816,1,4,0:0:0:0:
