osu file format v14

[General]
AudioFilename: audio.ogg
AudioLeadIn: 0
PreviewTime: 86713
Countdown: 0
SampleSet: Soft
StackLeniency: 0.7
Mode: 3
LetterboxInBreaks: 0
SpecialStyle: 0
WidescreenStoryboard: 1

[Editor]
Bookmarks: 1222,10816,18016,30022,39016,49216,58822,68416,78016,87622,106822
DistanceSpacing: 0.5
BeatDivisor: 4
GridSize: 4
TimelineZoom: 2.399999

[Metadata]
Title:The World Ends Now
TitleUnicode:The World Ends Now
Artist:Akira Complex
ArtistUnicode:Akira Complex
Creator:BlankFace74
Version:Challenge
Source:DanceDanceRevolution A20
Tags:KONAMI BEMANI ddr dance dance revolution plus golden league ゴールデンリーグ techno electronic video arcade rhythm game english instrumental melancholiaah apocalypse AquaTC fa featured artist ace 2 0 two oh
BeatmapID:4202105
BeatmapSetID:2018033

[Difficulty]
HPDrainRate:8.5
CircleSize:4
OverallDifficulty:8.1
ApproachRate:7
SliderMultiplier:1.2
SliderTickRate:1

[Events]
//Background and Video events
0,0,"stolen hehe.jpg",0,0
//Break Periods
//Storyboard Layer 0 (Background)
//Storyboard Layer 1 (Fail)
//Storyboard Layer 2 (Pass)
//Storyboard Layer 3 (Foreground)
//Storyboard Layer 4 (Overlay)
//Storyboard Sound Samples

[TimingPoints]
309,300,4,2,1,40,1,0
29109,-100,4,2,1,40,0,1
48309,-100,4,2,1,40,0,0
86709,-100,4,2,1,40,0,1
105909,-100,4,2,1,40,0,0

[HitObjects]
448,192,309,5,0,0:0:0:0:
64,192,309,128,0,534:0:0:0:0:
192,192,309,128,0,534:0:0:0:0:
64,192,609,1,0,0:0:0:0:
320,192,609,128,0,909:0:0:0:0:
448,192,609,128,0,909:0:0:0:0:
192,192,759,1,0,0:0:0:0:
192,192,909,1,0,0:0:0:0:
448,192,1059,128,0,1134:0:0:0:0:
320,192,1059,128,0,1134:0:0:0:0:
192,192,1209,1,0,0:0:0:0:
64,192,1209,128,0,1509:0:0:0:0:
448,192,1359,128,0,1509:0:0:0:0:
320,192,1509,1,0,0:0:0:0:
64,192,1659,1,0,0:0:0:0:
192,192,1659,128,0,1959:0:0:0:0:
320,192,1809,128,0,1959:0:0:0:0:
448,192,1959,1,0,0:0:0:0:
64,192,2109,1,0,0:0:0:0:
448,192,2259,1,0,0:0:0:0:
192,192,2409,1,0,0:0:0:0:
320,192,2559,1,0,0:0:0:0:
64,192,2634,1,0,0:0:0:0:
448,192,2709,128,0,3009:0:0:0:0:
192,192,2709,128,0,3009:0:0:0:0:
320,192,2859,1,0,0:0:0:0:
64,192,3009,128,0,3309:0:0:0:0:
320,192,3009,128,0,3309:0:0:0:0:
192,192,3159,1,0,0:0:0:0:
448,192,3309,1,0,0:0:0:0:
64,192,3459,128,0,3534:0:0:0:0:
320,192,3459,128,0,3534:0:0:0:0:
448,192,3609,1,0,0:0:0:0:
192,192,3609,128,0,3909:0:0:0:0:
320,192,3759,128,0,3909:0:0:0:0:
64,192,3909,1,0,0:0:0:0:
192,192,4059,1,0,0:0:0:0:
448,192,4059,128,0,4359:0:0:0:0:
320,192,4209,128,0,4359:0:0:0:0:
64,192,4359,1,0,0:0:0:0:
192,192,4509,1,0,0:0:0:0:
320,192,4659,1,0,0:0:0:0:
448,192,4659,1,0,0:0:0:0:
192,192,4809,1,0,0:0:0:0:
64,192,4809,128,0,5034:0:0:0:0:
448,192,4809,128,0,5034:0:0:0:0:
64,192,5109,1,0,0:0:0:0:
320,192,5109,128,0,5334:0:0:0:0:
448,192,5109,128,0,5334:0:0:0:0:
192,192,5409,128,0,5709:0:0:0:0:
448,192,5409,1,0,0:0:0:0:
64,192,5409,128,0,5709:0:0:0:0:
320,192,5559,1,0,0:0:0:0:
320,192,5709,1,0,0:0:0:0:
192,192,5859,128,0,5934:0:0:0:0:
64,192,5859,128,0,5934:0:0:0:0:
320,192,6009,1,0,0:0:0:0:
448,192,6009,128,0,6309:0:0:0:0:
64,192,6159,128,0,6309:0:0:0:0:
192,192,6309,1,0,0:0:0:0:
448,192,6459,1,0,0:0:0:0:
320,192,6459,128,0,6759:0:0:0:0:
192,192,6609,128,0,6759:0:0:0:0:
64,192,6759,1,0,0:0:0:0:
448,192,6909,1,0,0:0:0:0:
192,192,7059,1,0,0:0:0:0:
320,192,7209,1,0,0:0:0:0:
192,192,7359,1,0,0:0:0:0:
320,192,7434,1,0,0:0:0:0:
448,192,7509,128,0,7809:0:0:0:0:
64,192,7509,128,0,7809:0:0:0:0:
192,192,7659,1,0,0:0:0:0:
320,192,7809,128,0,8109:0:0:0:0:
192,192,7809,128,0,8109:0:0:0:0:
448,192,7959,1,0,0:0:0:0:
64,192,8109,128,0,8409:0:0:0:0:
448,192,8259,128,0,8559:0:0:0:0:
320,192,8259,1,0,0:0:0:0:
320,192,8409,128,0,8559:0:0:0:0:
192,192,8409,1,0,0:0:0:0:
192,192,8559,1,0,0:0:0:0:
64,192,8559,1,0,0:0:0:0:
448,192,8634,1,0,0:0:0:0:
192,192,8709,1,0,0:0:0:0:
64,192,8859,1,0,0:0:0:0:
320,192,8859,1,0,0:0:0:0:
448,192,9009,1,0,0:0:0:0:
64,192,9009,128,0,9234:0:0:0:0:
192,192,9009,128,0,9234:0:0:0:0:
320,192,9309,1,0,0:0:0:0:
64,192,9309,1,0,0:0:0:0:
448,192,9459,128,0,9684:0:0:0:0:
320,192,9459,128,0,9684:0:0:0:0:
192,192,9459,1,0,0:0:0:0:
64,192,9609,1,0,0:0:0:0:
320,192,9759,1,0,0:0:0:0:
448,192,9759,1,0,0:0:0:0:
448,192,9909,1,0,0:0:0:0:
192,192,9909,128,0,10134:0:0:0:0:
64,192,9909,128,0,10134:0:0:0:0:
320,192,10059,1,0,0:0:0:0:
64,192,10209,1,0,0:0:0:0:
320,192,10209,128,0,10509:0:0:0:0:
448,192,10209,128,0,10509:0:0:0:0:
192,192,10359,1,0,0:0:0:0:
64,192,10509,1,0,0:0:0:0:
192,192,10509,1,0,0:0:0:0:
448,192,10584,1,0,0:0:0:0:
64,192,10659,128,0,10734:0:0:0:0:
320,192,10659,128,0,10734:0:0:0:0:
448,192,10734,1,0,0:0:0:0:
64,192,10809,1,0,0:0:0:0:
192,192,10809,1,0,0:0:0:0:
320,192,10884,1,0,0:0:0:0:
192,192,10959,1,0,0:0:0:0:
320,192,11034,1,0,0:0:0:0:
448,192,11109,1,0,0:0:0:0:
64,192,11109,1,0,0:0:0:0:
192,192,11184,1,0,0:0:0:0:
448,192,11259,1,0,0:0:0:0:
320,192,11259,1,0,0:0:0:0:
192,192,11334,1,0,0:0:0:0:
64,192,11409,1,0,0:0:0:0:
448,192,11409,1,0,0:0:0:0:
320,192,11484,1,0,0:0:0:0:
64,192,11559,1,0,0:0:0:0:
320,192,11634,1,0,0:0:0:0:
64,192,11709,1,0,0:0:0:0:
192,192,11709,1,0,0:0:0:0:
448,192,11784,1,0,0:0:0:0:
192,192,11859,1,0,0:0:0:0:
448,192,11934,1,0,0:0:0:0:
64,192,12009,1,0,0:0:0:0:
192,192,12009,1,0,0:0:0:0:
320,192,12084,1,0,0:0:0:0:
192,192,12159,1,0,0:0:0:0:
64,192,12159,1,0,0:0:0:0:
320,192,12234,1,0,0:0:0:0:
64,192,12309,128,0,12609:0:0:0:0:
448,192,12309,1,0,0:0:0:0:
448,192,12459,128,0,12609:0:0:0:0:
192,192,12609,128,0,12909:0:0:0:0:
320,192,12609,1,0,0:0:0:0:
320,192,12759,128,0,12909:0:0:0:0:
64,192,12909,1,0,0:0:0:0:
448,192,12909,1,0,0:0:0:0:
448,192,13059,128,0,13134:0:0:0:0:
192,192,13059,128,0,13134:0:0:0:0:
320,192,13209,1,0,0:0:0:0:
64,192,13209,128,0,13509:0:0:0:0:
192,192,13359,128,0,13509:0:0:0:0:
448,192,13509,1,0,0:0:0:0:
320,192,13509,1,0,0:0:0:0:
448,192,13659,128,0,13959:0:0:0:0:
64,192,13659,1,0,0:0:0:0:
320,192,13809,128,0,13959:0:0:0:0:
192,192,13809,1,0,0:0:0:0:
192,192,13959,1,0,0:0:0:0:
448,192,14109,1,0,0:0:0:0:
64,192,14109,1,0,0:0:0:0:
192,192,14259,1,0,0:0:0:0:
320,192,14259,1,0,0:0:0:0:
192,192,14409,128,0,14634:0:0:0:0:
448,192,14409,1,0,0:0:0:0:
64,192,14409,128,0,14634:0:0:0:0:
320,192,14559,1,0,0:0:0:0:
64,192,14709,1,0,0:0:0:0:
448,192,14709,128,0,14934:0:0:0:0:
320,192,14709,128,0,14934:0:0:0:0:
448,192,15009,1,0,0:0:0:0:
192,192,15009,128,0,15309:0:0:0:0:
64,192,15009,128,0,15309:0:0:0:0:
320,192,15159,1,0,0:0:0:0:
448,192,15309,1,0,0:0:0:0:
320,192,15309,1,0,0:0:0:0:
64,192,15384,1,0,0:0:0:0:
448,192,15459,128,0,15534:0:0:0:0:
192,192,15459,128,0,15534:0:0:0:0:
64,192,15534,1,0,0:0:0:0:
448,192,15609,1,0,0:0:0:0:
320,192,15609,1,0,0:0:0:0:
192,192,15684,1,0,0:0:0:0:
320,192,15759,1,0,0:0:0:0:
192,192,15834,1,0,0:0:0:0:
64,192,15909,1,0,0:0:0:0:
448,192,15909,1,0,0:0:0:0:
320,192,15984,1,0,0:0:0:0:
64,192,16059,1,0,0:0:0:0:
192,192,16059,1,0,0:0:0:0:
320,192,16134,1,0,0:0:0:0:
448,192,16209,1,0,0:0:0:0:
64,192,16209,1,0,0:0:0:0:
192,192,16284,1,0,0:0:0:0:
448,192,16359,1,0,0:0:0:0:
192,192,16434,1,0,0:0:0:0:
448,192,16509,1,0,0:0:0:0:
320,192,16509,1,0,0:0:0:0:
64,192,16584,1,0,0:0:0:0:
320,192,16659,1,0,0:0:0:0:
64,192,16734,1,0,0:0:0:0:
448,192,16809,1,0,0:0:0:0:
320,192,16809,1,0,0:0:0:0:
192,192,16884,1,0,0:0:0:0:
448,192,16959,1,0,0:0:0:0:
64,192,16959,1,0,0:0:0:0:
320,192,17034,1,0,0:0:0:0:
64,192,17109,128,0,17409:0:0:0:0:
448,192,17109,1,0,0:0:0:0:
192,192,17109,128,0,17409:0:0:0:0:
320,192,17259,1,0,0:0:0:0:
320,192,17409,1,0,0:0:0:0:
448,192,17409,128,0,17709:0:0:0:0:
64,192,17709,128,0,18009:0:0:0:0:
320,192,17709,1,0,0:0:0:0:
192,192,17709,128,0,18009:0:0:0:0:
448,192,17859,1,0,0:0:0:0:
320,192,18009,1,0,0:0:0:0:
448,192,18009,1,0,0:0:0:0:
64,192,18159,1,0,0:0:0:0:
320,192,18234,1,0,0:0:0:0:
192,192,18309,128,0,18534:0:0:0:0:
64,192,18309,128,0,18534:0:0:0:0:
448,192,18309,1,0,0:0:0:0:
448,192,18459,1,0,0:0:0:0:
320,192,18609,1,0,0:0:0:0:
64,192,18609,128,0,18834:0:0:0:0:
192,192,18609,128,0,18834:0:0:0:0:
448,192,18759,128,0,18909:0:0:0:0:
64,192,18909,1,0,0:0:0:0:
320,192,18909,1,0,0:0:0:0:
64,192,19059,1,0,0:0:0:0:
320,192,19059,128,0,19359:0:0:0:0:
448,192,19059,128,0,19359:0:0:0:0:
192,192,19209,1,0,0:0:0:0:
64,192,19359,1,0,0:0:0:0:
192,192,19359,1,0,0:0:0:0:
320,192,19434,1,0,0:0:0:0:
64,192,19509,1,0,0:0:0:0:
192,192,19509,128,0,19659:0:0:0:0:
448,192,19509,128,0,19809:0:0:0:0:
320,192,19659,1,0,0:0:0:0:
320,192,19809,128,0,19959:0:0:0:0:
64,192,19809,128,0,20109:0:0:0:0:
192,192,19959,1,0,0:0:0:0:
448,192,20109,128,0,20409:0:0:0:0:
192,192,20109,128,0,20259:0:0:0:0:
320,192,20109,1,0,0:0:0:0:
64,192,20259,1,0,0:0:0:0:
320,192,20409,128,0,20559:0:0:0:0:
64,192,20409,128,0,20709:0:0:0:0:
448,192,20559,1,0,0:0:0:0:
192,192,20709,128,0,21009:0:0:0:0:
448,192,20709,128,0,20859:0:0:0:0:
320,192,20709,1,0,0:0:0:0:
64,192,20859,1,0,0:0:0:0:
320,192,21009,128,0,21309:0:0:0:0:
64,192,21009,128,0,21159:0:0:0:0:
448,192,21159,1,0,0:0:0:0:
192,192,21309,128,0,21609:0:0:0:0:
448,192,21309,128,0,21459:0:0:0:0:
64,192,21309,1,0,0:0:0:0:
320,192,21459,1,0,0:0:0:0:
64,192,21609,128,0,21759:0:0:0:0:
320,192,21609,128,0,21909:0:0:0:0:
448,192,21759,1,0,0:0:0:0:
64,192,21909,128,0,22209:0:0:0:0:
448,192,21909,128,0,22059:0:0:0:0:
192,192,21909,1,0,0:0:0:0:
320,192,22059,1,0,0:0:0:0:
320,192,22209,128,0,22359:0:0:0:0:
192,192,22209,128,0,22509:0:0:0:0:
448,192,22359,1,0,0:0:0:0:
448,192,22509,128,0,22809:0:0:0:0:
64,192,22509,128,0,22659:0:0:0:0:
320,192,22509,1,0,0:0:0:0:
192,192,22659,1,0,0:0:0:0:
320,192,22809,128,0,23109:0:0:0:0:
192,192,22809,128,0,22959:0:0:0:0:
64,192,22959,1,0,0:0:0:0:
192,192,23109,128,0,23259:0:0:0:0:
64,192,23109,128,0,23409:0:0:0:0:
448,192,23109,1,0,0:0:0:0:
320,192,23259,1,0,0:0:0:0:
320,192,23409,128,0,23559:0:0:0:0:
448,192,23409,128,0,23709:0:0:0:0:
192,192,23559,1,0,0:0:0:0:
320,192,23709,1,0,0:0:0:0:
64,192,23709,128,0,24234:0:0:0:0:
192,192,23709,128,0,24234:0:0:0:0:
448,192,24009,128,0,24234:0:0:0:0:
192,192,24309,1,0,0:0:0:0:
64,192,24309,1,0,0:0:0:0:
448,192,24309,1,0,0:0:0:0:
64,192,24459,1,0,0:0:0:0:
192,192,24459,1,0,0:0:0:0:
64,192,24609,1,0,0:0:0:0:
320,192,24609,1,0,0:0:0:0:
448,192,24609,1,0,0:0:0:0:
320,192,24759,1,0,0:0:0:0:
448,192,24759,1,0,0:0:0:0:
64,192,24909,1,0,0:0:0:0:
192,192,24909,1,0,0:0:0:0:
448,192,24909,1,0,0:0:0:0:
64,192,25059,1,0,0:0:0:0:
192,192,25059,1,0,0:0:0:0:
64,192,25209,1,0,0:0:0:0:
320,192,25209,1,0,0:0:0:0:
448,192,25209,1,0,0:0:0:0:
320,192,25359,1,0,0:0:0:0:
448,192,25359,1,0,0:0:0:0:
64,192,25509,1,0,0:0:0:0:
192,192,25509,1,0,0:0:0:0:
448,192,25509,1,0,0:0:0:0:
64,192,25659,1,0,0:0:0:0:
320,192,25659,1,0,0:0:0:0:
64,192,25809,1,0,0:0:0:0:
448,192,25809,1,0,0:0:0:0:
320,192,25809,1,0,0:0:0:0:
448,192,25959,1,0,0:0:0:0:
192,192,25959,1,0,0:0:0:0:
64,192,26109,1,0,0:0:0:0:
192,192,26109,1,0,0:0:0:0:
448,192,26109,1,0,0:0:0:0:
64,192,26259,1,0,0:0:0:0:
320,192,26259,1,0,0:0:0:0:
64,192,26409,1,0,0:0:0:0:
320,192,26409,1,0,0:0:0:0:
448,192,26409,1,0,0:0:0:0:
192,192,26559,1,0,0:0:0:0:
448,192,26559,1,0,0:0:0:0:
64,192,26709,1,0,0:0:0:0:
192,192,26709,1,0,0:0:0:0:
448,192,26709,1,0,0:0:0:0:
320,192,26784,1,0,0:0:0:0:
192,192,26859,1,0,0:0:0:0:
64,192,26859,1,0,0:0:0:0:
448,192,26934,1,0,0:0:0:0:
320,192,27009,1,0,0:0:0:0:
192,192,27009,1,0,0:0:0:0:
64,192,27084,1,0,0:0:0:0:
448,192,27159,1,0,0:0:0:0:
320,192,27159,1,0,0:0:0:0:
192,192,27234,1,0,0:0:0:0:
64,192,27309,1,0,0:0:0:0:
448,192,27309,1,0,0:0:0:0:
320,192,27384,1,0,0:0:0:0:
64,192,27459,1,0,0:0:0:0:
192,192,27459,1,0,0:0:0:0:
448,192,27534,1,0,0:0:0:0:
320,192,27609,1,0,0:0:0:0:
192,192,27609,1,0,0:0:0:0:
64,192,27684,1,0,0:0:0:0:
320,192,27759,1,0,0:0:0:0:
448,192,27759,1,0,0:0:0:0:
192,192,27834,1,0,0:0:0:0:
64,192,27909,1,0,0:0:0:0:
320,192,27909,1,0,0:0:0:0:
448,192,27909,1,0,0:0:0:0:
64,192,28809,1,0,0:0:0:0:
448,192,28809,1,0,0:0:0:0:
320,192,29109,128,0,29409:0:0:0:0:
448,192,29109,128,0,29334:0:0:0:0:
64,192,29109,1,0,0:0:0:0:
192,192,29259,1,0,0:0:0:0:
64,192,29409,1,0,0:0:0:0:
192,192,29409,128,0,29709:0:0:0:0:
448,192,29409,128,0,29709:0:0:0:0:
320,192,29559,1,0,0:0:0:0:
320,192,29709,128,0,30009:0:0:0:0:
64,192,29709,128,0,29934:0:0:0:0:
192,192,29859,1,0,0:0:0:0:
192,192,30009,128,0,30234:0:0:0:0:
448,192,30009,1,0,0:0:0:0:
64,192,30009,128,0,30309:0:0:0:0:
320,192,30159,1,0,0:0:0:0:
192,192,30309,128,0,30609:0:0:0:0:
448,192,30309,128,0,30534:0:0:0:0:
320,192,30459,1,0,0:0:0:0:
320,192,30609,128,0,30909:0:0:0:0:
64,192,30609,1,0,0:0:0:0:
448,192,30609,128,0,30909:0:0:0:0:
192,192,30759,1,0,0:0:0:0:
64,192,30909,128,0,31209:0:0:0:0:
192,192,30909,128,0,31134:0:0:0:0:
448,192,31059,1,0,0:0:0:0:
448,192,31209,128,0,31509:0:0:0:0:
320,192,31209,1,0,0:0:0:0:
192,192,31209,1,0,0:0:0:0:
320,192,31359,128,0,31509:0:0:0:0:
64,192,31359,1,0,0:0:0:0:
192,192,31509,128,0,31809:0:0:0:0:
64,192,31509,128,0,31734:0:0:0:0:
448,192,31659,1,0,0:0:0:0:
64,192,31809,128,0,32034:0:0:0:0:
448,192,31809,1,0,0:0:0:0:
320,192,31809,128,0,32109:0:0:0:0:
192,192,31959,1,0,0:0:0:0:
64,192,32109,128,0,32334:0:0:0:0:
192,192,32109,128,0,32409:0:0:0:0:
448,192,32259,1,0,0:0:0:0:
448,192,32409,1,0,0:0:0:0:
320,192,32409,128,0,32634:0:0:0:0:
64,192,32409,128,0,32709:0:0:0:0:
192,192,32559,1,0,0:0:0:0:
448,192,32709,128,0,32934:0:0:0:0:
320,192,32709,128,0,33009:0:0:0:0:
192,192,32859,1,0,0:0:0:0:
448,192,33009,128,0,33234:0:0:0:0:
192,192,33009,128,0,33234:0:0:0:0:
64,192,33009,1,0,0:0:0:0:
64,192,33159,1,0,0:0:0:0:
448,192,33309,128,0,33534:0:0:0:0:
320,192,33309,128,0,33534:0:0:0:0:
192,192,33459,1,0,0:0:0:0:
448,192,33609,128,0,33834:0:0:0:0:
64,192,33609,128,0,33834:0:0:0:0:
64,192,33909,128,0,34209:0:0:0:0:
192,192,33909,128,0,34134:0:0:0:0:
320,192,33909,1,0,0:0:0:0:
448,192,34059,1,0,0:0:0:0:
192,192,34209,128,0,34509:0:0:0:0:
448,192,34209,128,0,34434:0:0:0:0:
320,192,34209,1,0,0:0:0:0:
64,192,34359,1,0,0:0:0:0:
320,192,34509,128,0,34734:0:0:0:0:
448,192,34509,128,0,34809:0:0:0:0:
64,192,34659,1,0,0:0:0:0:
320,192,34809,128,0,35109:0:0:0:0:
64,192,34809,128,0,35034:0:0:0:0:
192,192,34809,1,0,0:0:0:0:
448,192,34959,1,0,0:0:0:0:
64,192,35109,128,0,35409:0:0:0:0:
192,192,35109,128,0,35334:0:0:0:0:
448,192,35259,1,0,0:0:0:0:
192,192,35409,128,0,35709:0:0:0:0:
320,192,35409,128,0,35634:0:0:0:0:
448,192,35409,1,0,0:0:0:0:
64,192,35559,1,0,0:0:0:0:
320,192,35709,128,0,36009:0:0:0:0:
448,192,35709,128,0,35934:0:0:0:0:
192,192,35859,1,0,0:0:0:0:
192,192,36009,128,0,36309:0:0:0:0:
64,192,36009,128,0,36234:0:0:0:0:
448,192,36009,1,0,0:0:0:0:
320,192,36159,1,0,0:0:0:0:
64,192,36309,128,0,36534:0:0:0:0:
448,192,36309,128,0,36534:0:0:0:0:
320,192,36309,128,0,36534:0:0:0:0:
192,192,36459,1,0,0:0:0:0:
64,192,36609,1,0,0:0:0:0:
320,192,36609,128,0,36834:0:0:0:0:
448,192,36609,128,0,36834:0:0:0:0:
192,192,36759,1,0,0:0:0:0:
64,192,36909,128,0,37134:0:0:0:0:
192,192,36909,128,0,37134:0:0:0:0:
448,192,36909,128,0,37134:0:0:0:0:
320,192,37059,1,0,0:0:0:0:
192,192,37209,128,0,37434:0:0:0:0:
64,192,37209,128,0,37434:0:0:0:0:
320,192,37209,1,0,0:0:0:0:
448,192,37359,1,0,0:0:0:0:
320,192,37434,1,0,0:0:0:0:
64,192,37509,1,0,0:0:0:0:
192,192,37509,1,0,0:0:0:0:
448,192,37509,1,0,0:0:0:0:
320,192,37659,1,0,0:0:0:0:
192,192,37734,1,0,0:0:0:0:
64,192,37809,1,0,0:0:0:0:
448,192,37809,1,0,0:0:0:0:
320,192,37809,1,0,0:0:0:0:
192,192,37959,1,0,0:0:0:0:
448,192,37959,1,0,0:0:0:0:
64,192,37959,1,0,0:0:0:0:
448,192,38109,1,0,0:0:0:0:
320,192,38109,1,0,0:0:0:0:
64,192,38109,128,0,38634:0:0:0:0:
320,192,38409,1,0,0:0:0:0:
192,192,38409,128,0,38634:0:0:0:0:
64,192,38709,1,0,0:0:0:0:
320,192,38709,1,0,0:0:0:0:
448,192,38709,1,0,0:0:0:0:
192,192,38784,1,0,0:0:0:0:
448,192,38859,1,0,0:0:0:0:
192,192,38934,1,0,0:0:0:0:
64,192,39009,1,0,0:0:0:0:
448,192,39009,1,0,0:0:0:0:
320,192,39009,1,0,0:0:0:0:
192,192,39084,1,0,0:0:0:0:
320,192,39159,1,0,0:0:0:0:
192,192,39234,1,0,0:0:0:0:
64,192,39309,1,0,0:0:0:0:
448,192,39309,1,0,0:0:0:0:
320,192,39384,1,0,0:0:0:0:
64,192,39459,1,0,0:0:0:0:
320,192,39534,1,0,0:0:0:0:
64,192,39609,1,0,0:0:0:0:
448,192,39609,1,0,0:0:0:0:
192,192,39609,1,0,0:0:0:0:
320,192,39684,1,0,0:0:0:0:
192,192,39759,1,0,0:0:0:0:
320,192,39834,1,0,0:0:0:0:
64,192,39909,1,0,0:0:0:0:
448,192,39909,1,0,0:0:0:0:
192,192,39984,1,0,0:0:0:0:
448,192,40059,1,0,0:0:0:0:
192,192,40134,1,0,0:0:0:0:
448,192,40209,1,0,0:0:0:0:
320,192,40209,1,0,0:0:0:0:
64,192,40209,1,0,0:0:0:0:
192,192,40284,1,0,0:0:0:0:
320,192,40359,1,0,0:0:0:0:
192,192,40434,1,0,0:0:0:0:
448,192,40509,1,0,0:0:0:0:
64,192,40509,1,0,0:0:0:0:
320,192,40584,1,0,0:0:0:0:
64,192,40659,1,0,0:0:0:0:
320,192,40734,1,0,0:0:0:0:
448,192,40809,1,0,0:0:0:0:
64,192,40809,1,0,0:0:0:0:
192,192,40809,1,0,0:0:0:0:
320,192,40884,1,0,0:0:0:0:
192,192,40959,1,0,0:0:0:0:
448,192,41034,1,0,0:0:0:0:
320,192,41109,1,0,0:0:0:0:
192,192,41109,128,0,41259:0:0:0:0:
320,192,41259,1,0,0:0:0:0:
64,192,41409,128,0,41559:0:0:0:0:
192,192,41409,1,0,0:0:0:0:
448,192,41409,1,0,0:0:0:0:
448,192,41559,1,0,0:0:0:0:
192,192,41709,1,0,0:0:0:0:
320,192,41709,128,0,41859:0:0:0:0:
192,192,41859,1,0,0:0:0:0:
64,192,42009,1,0,0:0:0:0:
320,192,42009,1,0,0:0:0:0:
448,192,42009,128,0,42159:0:0:0:0:
64,192,42159,1,0,0:0:0:0:
192,192,42309,128,0,42459:0:0:0:0:
448,192,42309,1,0,0:0:0:0:
448,192,42459,1,0,0:0:0:0:
64,192,42609,1,0,0:0:0:0:
192,192,42609,1,0,0:0:0:0:
320,192,42609,128,0,42759:0:0:0:0:
64,192,42759,1,0,0:0:0:0:
192,192,42909,1,0,0:0:0:0:
448,192,42909,128,0,43059:0:0:0:0:
192,192,43059,1,0,0:0:0:0:
320,192,43209,1,0,0:0:0:0:
64,192,43209,128,0,43434:0:0:0:0:
448,192,43209,128,0,43434:0:0:0:0:
64,192,43509,128,0,43734:0:0:0:0:
192,192,43509,128,0,43734:0:0:0:0:
448,192,43509,1,0,0:0:0:0:
320,192,43659,1,0,0:0:0:0:
448,192,43734,1,0,0:0:0:0:
192,192,43809,1,0,0:0:0:0:
64,192,43809,1,0,0:0:0:0:
320,192,43884,1,0,0:0:0:0:
64,192,43959,1,0,0:0:0:0:
192,192,44034,1,0,0:0:0:0:
64,192,44109,1,0,0:0:0:0:
320,192,44109,128,0,44334:0:0:0:0:
448,192,44109,128,0,44334:0:0:0:0:
192,192,44259,1,0,0:0:0:0:
64,192,44334,1,0,0:0:0:0:
320,192,44409,1,0,0:0:0:0:
448,192,44409,1,0,0:0:0:0:
192,192,44484,1,0,0:0:0:0:
448,192,44559,1,0,0:0:0:0:
320,192,44634,1,0,0:0:0:0:
192,192,44709,128,0,44859:0:0:0:0:
448,192,44709,128,0,44859:0:0:0:0:
64,192,44709,1,0,0:0:0:0:
64,192,44934,128,0,45084:0:0:0:0:
320,192,44934,128,0,45084:0:0:0:0:
448,192,44934,1,0,0:0:0:0:
64,192,45159,1,0,0:0:0:0:
192,192,45159,1,0,0:0:0:0:
448,192,45159,1,0,0:0:0:0:
64,192,45309,1,0,0:0:0:0:
320,192,45309,128,0,45609:0:0:0:0:
448,192,45309,128,0,45609:0:0:0:0:
192,192,45459,1,0,0:0:0:0:
192,192,45609,128,0,45909:0:0:0:0:
64,192,45609,128,0,45759:0:0:0:0:
64,192,45909,1,0,0:0:0:0:
320,192,45909,128,0,46134:0:0:0:0:
448,192,45909,128,0,46134:0:0:0:0:
192,192,46059,1,0,0:0:0:0:
192,192,46209,128,0,46434:0:0:0:0:
320,192,46209,128,0,46434:0:0:0:0:
448,192,46209,1,0,0:0:0:0:
64,192,46359,1,0,0:0:0:0:
64,192,46509,128,0,46734:0:0:0:0:
192,192,46509,128,0,46734:0:0:0:0:
448,192,46509,1,0,0:0:0:0:
320,192,46659,1,0,0:0:0:0:
64,192,46809,128,0,47034:0:0:0:0:
320,192,46809,128,0,47034:0:0:0:0:
192,192,46809,1,0,0:0:0:0:
448,192,46959,1,0,0:0:0:0:
64,192,47109,1,0,0:0:0:0:
192,192,47109,128,0,47334:0:0:0:0:
448,192,47109,128,0,47334:0:0:0:0:
320,192,47259,1,0,0:0:0:0:
192,192,47409,1,0,0:0:0:0:
320,192,47409,128,0,47634:0:0:0:0:
448,192,47409,128,0,47634:0:0:0:0:
64,192,47559,1,0,0:0:0:0:
64,192,47709,128,0,47934:0:0:0:0:
192,192,47709,128,0,47934:0:0:0:0:
448,192,47709,1,0,0:0:0:0:
320,192,47859,1,0,0:0:0:0:
320,192,48009,128,0,48309:0:0:0:0:
448,192,48009,128,0,48159:0:0:0:0:
64,192,48009,1,0,0:0:0:0:
192,192,48159,1,0,0:0:0:0:
448,192,48309,1,0,0:0:0:0:
64,192,48309,128,0,48534:0:0:0:0:
192,192,48309,128,0,48534:0:0:0:0:
320,192,48459,1,0,0:0:0:0:
64,192,48609,1,0,0:0:0:0:
192,192,48609,1,0,0:0:0:0:
448,192,48609,1,0,0:0:0:0:
192,192,48759,1,0,0:0:0:0:
64,192,48909,1,0,0:0:0:0:
320,192,48909,128,0,49134:0:0:0:0:
448,192,48909,128,0,49134:0:0:0:0:
192,192,49059,1,0,0:0:0:0:
64,192,49209,1,0,0:0:0:0:
320,192,49209,1,0,0:0:0:0:
448,192,49209,1,0,0:0:0:0:
320,192,49359,1,0,0:0:0:0:
192,192,49509,128,0,49734:0:0:0:0:
448,192,49509,128,0,49734:0:0:0:0:
64,192,49509,1,0,0:0:0:0:
320,192,49659,1,0,0:0:0:0:
64,192,49809,1,0,0:0:0:0:
192,192,49809,1,0,0:0:0:0:
448,192,49809,1,0,0:0:0:0:
192,192,49959,1,0,0:0:0:0:
448,192,50109,1,0,0:0:0:0:
64,192,50109,128,0,50334:0:0:0:0:
320,192,50109,128,0,50334:0:0:0:0:
192,192,50259,1,0,0:0:0:0:
64,192,50409,1,0,0:0:0:0:
320,192,50409,1,0,0:0:0:0:
448,192,50409,1,0,0:0:0:0:
448,192,50559,1,0,0:0:0:0:
64,192,50709,128,0,50934:0:0:0:0:
192,192,50709,128,0,50934:0:0:0:0:
320,192,50709,1,0,0:0:0:0:
448,192,50859,1,0,0:0:0:0:
64,192,51009,1,0,0:0:0:0:
192,192,51009,1,0,0:0:0:0:
320,192,51009,1,0,0:0:0:0:
64,192,51159,1,0,0:0:0:0:
192,192,51309,1,0,0:0:0:0:
320,192,51309,128,0,51534:0:0:0:0:
448,192,51309,128,0,51534:0:0:0:0:
64,192,51459,1,0,0:0:0:0:
320,192,51609,1,0,0:0:0:0:
448,192,51609,1,0,0:0:0:0:
192,192,51609,1,0,0:0:0:0:
448,192,51759,1,0,0:0:0:0:
192,192,51909,1,0,0:0:0:0:
64,192,51909,128,0,52134:0:0:0:0:
320,192,51909,128,0,52134:0:0:0:0:
448,192,52059,1,0,0:0:0:0:
64,192,52209,1,0,0:0:0:0:
192,192,52209,1,0,0:0:0:0:
320,192,52209,1,0,0:0:0:0:
64,192,52359,1,0,0:0:0:0:
320,192,52509,1,0,0:0:0:0:
192,192,52509,128,0,53034:0:0:0:0:
448,192,52509,128,0,53034:0:0:0:0:
64,192,52809,128,0,53034:0:0:0:0:
64,192,53109,1,0,0:0:0:0:
192,192,53109,1,0,0:0:0:0:
448,192,53109,1,0,0:0:0:0:
64,192,53259,1,0,0:0:0:0:
192,192,53259,1,0,0:0:0:0:
64,192,53409,1,0,0:0:0:0:
448,192,53409,1,0,0:0:0:0:
320,192,53409,1,0,0:0:0:0:
448,192,53559,1,0,0:0:0:0:
320,192,53559,1,0,0:0:0:0:
64,192,53709,1,0,0:0:0:0:
192,192,53709,1,0,0:0:0:0:
448,192,53709,1,0,0:0:0:0:
64,192,53859,1,0,0:0:0:0:
192,192,53859,1,0,0:0:0:0:
64,192,54009,1,0,0:0:0:0:
320,192,54009,1,0,0:0:0:0:
448,192,54009,1,0,0:0:0:0:
448,192,54159,1,0,0:0:0:0:
320,192,54159,1,0,0:0:0:0:
192,192,54309,1,0,0:0:0:0:
448,192,54309,1,0,0:0:0:0:
64,192,54309,1,0,0:0:0:0:
320,192,54409,1,0,0:0:0:0:
64,192,54409,1,0,0:0:0:0:
192,192,54509,1,0,0:0:0:0:
448,192,54609,1,0,0:0:0:0:
64,192,54609,1,0,0:0:0:0:
320,192,54609,1,0,0:0:0:0:
192,192,54709,1,0,0:0:0:0:
448,192,54709,1,0,0:0:0:0:
320,192,54809,1,0,0:0:0:0:
192,192,54909,1,0,0:0:0:0:
64,192,54909,1,0,0:0:0:0:
448,192,54909,1,0,0:0:0:0:
320,192,55009,1,0,0:0:0:0:
64,192,55009,1,0,0:0:0:0:
192,192,55109,1,0,0:0:0:0:
320,192,55209,1,0,0:0:0:0:
448,192,55209,1,0,0:0:0:0:
64,192,55209,1,0,0:0:0:0:
192,192,55309,1,0,0:0:0:0:
448,192,55309,1,0,0:0:0:0:
320,192,55409,1,0,0:0:0:0:
64,192,55509,1,0,0:0:0:0:
192,192,55509,1,0,0:0:0:0:
448,192,55559,1,0,0:0:0:0:
320,192,55609,1,0,0:0:0:0:
64,192,55659,1,0,0:0:0:0:
192,192,55709,1,0,0:0:0:0:
320,192,55809,1,0,0:0:0:0:
448,192,55809,1,0,0:0:0:0:
64,192,55859,1,0,0:0:0:0:
192,192,55909,1,0,0:0:0:0:
448,192,55959,1,0,0:0:0:0:
320,192,56009,1,0,0:0:0:0:
192,192,56109,1,0,0:0:0:0:
64,192,56109,1,0,0:0:0:0:
448,192,56159,1,0,0:0:0:0:
320,192,56209,1,0,0:0:0:0:
64,192,56259,1,0,0:0:0:0:
192,192,56309,1,0,0:0:0:0:
448,192,56409,1,0,0:0:0:0:
320,192,56409,1,0,0:0:0:0:
64,192,56459,1,0,0:0:0:0:
192,192,56509,1,0,0:0:0:0:
448,192,56559,1,0,0:0:0:0:
320,192,56609,1,0,0:0:0:0:
64,192,56709,1,0,0:0:0:0:
192,192,56709,1,0,0:0:0:0:
448,192,56709,1,0,0:0:0:0:
64,192,57609,1,0,0:0:0:0:
448,192,57609,1,0,0:0:0:0:
448,192,57909,1,0,0:0:0:0:
64,192,57909,128,0,58359:0:0:0:0:
320,192,57909,1,0,0:0:0:0:
320,192,58059,1,0,0:0:0:0:
192,192,58209,1,0,0:0:0:0:
192,192,58359,128,0,58809:0:0:0:0:
448,192,58509,1,0,0:0:0:0:
320,192,58659,128,0,58809:0:0:0:0:
64,192,58809,128,0,59109:0:0:0:0:
320,192,58959,128,0,59109:0:0:0:0:
448,192,59109,128,0,59559:0:0:0:0:
192,192,59109,1,0,0:0:0:0:
192,192,59259,1,0,0:0:0:0:
320,192,59409,1,0,0:0:0:0:
320,192,59559,128,0,60009:0:0:0:0:
64,192,59709,1,0,0:0:0:0:
192,192,59859,128,0,60009:0:0:0:0:
448,192,60009,128,0,60309:0:0:0:0:
192,192,60159,128,0,60309:0:0:0:0:
320,192,60234,1,0,0:0:0:0:
64,192,60309,128,0,60759:0:0:0:0:
320,192,60459,1,0,0:0:0:0:
448,192,60609,1,0,0:0:0:0:
448,192,60759,128,0,61209:0:0:0:0:
320,192,60909,1,0,0:0:0:0:
64,192,61059,128,0,61209:0:0:0:0:
320,192,61209,128,0,61509:0:0:0:0:
64,192,61359,128,0,61509:0:0:0:0:
192,192,61509,128,0,61959:0:0:0:0:
448,192,61509,1,0,0:0:0:0:
448,192,61659,1,0,0:0:0:0:
320,192,61809,1,0,0:0:0:0:
320,192,61959,128,0,62409:0:0:0:0:
64,192,62109,1,0,0:0:0:0:
448,192,62259,128,0,62409:0:0:0:0:
192,192,62409,128,0,62709:0:0:0:0:
64,192,62559,1,0,0:0:0:0:
64,192,62709,128,0,63159:0:0:0:0:
448,192,62709,1,0,0:0:0:0:
448,192,62859,1,0,0:0:0:0:
320,192,63009,1,0,0:0:0:0:
320,192,63159,128,0,63609:0:0:0:0:
448,192,63309,1,0,0:0:0:0:
64,192,63459,128,0,63609:0:0:0:0:
192,192,63609,128,0,63909:0:0:0:0:
64,192,63759,128,0,63909:0:0:0:0:
320,192,63909,1,0,0:0:0:0:
448,192,63909,128,0,64359:0:0:0:0:
320,192,64059,1,0,0:0:0:0:
192,192,64209,1,0,0:0:0:0:
192,192,64359,128,0,64809:0:0:0:0:
64,192,64509,1,0,0:0:0:0:
448,192,64659,128,0,64809:0:0:0:0:
320,192,64809,128,0,65109:0:0:0:0:
448,192,64959,128,0,65109:0:0:0:0:
192,192,65034,1,0,0:0:0:0:
64,192,65109,128,0,65559:0:0:0:0:
192,192,65259,1,0,0:0:0:0:
320,192,65409,1,0,0:0:0:0:
320,192,65559,128,0,66009:0:0:0:0:
64,192,65709,1,0,0:0:0:0:
192,192,65859,128,0,66009:0:0:0:0:
448,192,66009,128,0,66309:0:0:0:0:
192,192,66159,128,0,66309:0:0:0:0:
64,192,66309,1,0,0:0:0:0:
320,192,66309,128,0,66609:0:0:0:0:
192,192,66459,1,0,0:0:0:0:
64,192,66609,128,0,66834:0:0:0:0:
192,192,66609,128,0,66834:0:0:0:0:
448,192,66609,1,0,0:0:0:0:
320,192,66759,1,0,0:0:0:0:
192,192,66909,1,0,0:0:0:0:
64,192,67059,1,0,0:0:0:0:
320,192,67059,128,0,67284:0:0:0:0:
448,192,67059,128,0,67284:0:0:0:0:
192,192,67209,1,0,0:0:0:0:
64,192,67359,1,0,0:0:0:0:
192,192,67359,1,0,0:0:0:0:
448,192,67359,1,0,0:0:0:0:
448,192,67509,128,0,67734:0:0:0:0:
64,192,67509,128,0,67734:0:0:0:0:
320,192,67509,1,0,0:0:0:0:
320,192,67659,1,0,0:0:0:0:
64,192,67809,1,0,0:0:0:0:
448,192,67809,1,0,0:0:0:0:
192,192,67884,1,0,0:0:0:0:
320,192,67959,1,0,0:0:0:0:
448,192,68034,1,0,0:0:0:0:
64,192,68109,1,0,0:0:0:0:
192,192,68109,1,0,0:0:0:0:
320,192,68184,1,0,0:0:0:0:
64,192,68259,128,0,68409:0:0:0:0:
192,192,68334,1,0,0:0:0:0:
320,192,68409,1,0,0:0:0:0:
448,192,68409,1,0,0:0:0:0:
192,192,68484,1,0,0:0:0:0:
448,192,68559,128,0,68709:0:0:0:0:
320,192,68634,1,0,0:0:0:0:
64,192,68709,1,0,0:0:0:0:
192,192,68709,1,0,0:0:0:0:
320,192,68784,1,0,0:0:0:0:
192,192,68859,1,0,0:0:0:0:
64,192,68934,1,0,0:0:0:0:
320,192,69009,1,0,0:0:0:0:
448,192,69009,1,0,0:0:0:0:
192,192,69084,1,0,0:0:0:0:
320,192,69159,1,0,0:0:0:0:
448,192,69234,1,0,0:0:0:0:
192,192,69309,1,0,0:0:0:0:
64,192,69309,1,0,0:0:0:0:
320,192,69384,1,0,0:0:0:0:
64,192,69459,128,0,69609:0:0:0:0:
192,192,69534,1,0,0:0:0:0:
448,192,69609,1,0,0:0:0:0:
320,192,69609,1,0,0:0:0:0:
192,192,69684,1,0,0:0:0:0:
64,192,69759,1,0,0:0:0:0:
448,192,69759,128,0,69909:0:0:0:0:
320,192,69834,1,0,0:0:0:0:
64,192,69909,1,0,0:0:0:0:
192,192,69909,1,0,0:0:0:0:
320,192,69984,1,0,0:0:0:0:
192,192,70059,1,0,0:0:0:0:
448,192,70134,1,0,0:0:0:0:
320,192,70209,1,0,0:0:0:0:
64,192,70209,1,0,0:0:0:0:
192,192,70284,1,0,0:0:0:0:
320,192,70359,1,0,0:0:0:0:
64,192,70434,1,0,0:0:0:0:
192,192,70509,1,0,0:0:0:0:
448,192,70509,1,0,0:0:0:0:
320,192,70584,1,0,0:0:0:0:
192,192,70659,128,0,70809:0:0:0:0:
448,192,70734,1,0,0:0:0:0:
64,192,70809,1,0,0:0:0:0:
320,192,70809,1,0,0:0:0:0:
192,192,70884,1,0,0:0:0:0:
320,192,70959,128,0,71109:0:0:0:0:
192,192,71034,1,0,0:0:0:0:
64,192,71109,1,0,0:0:0:0:
448,192,71109,1,0,0:0:0:0:
320,192,71184,1,0,0:0:0:0:
192,192,71259,1,0,0:0:0:0:
320,192,71334,1,0,0:0:0:0:
64,192,71409,1,0,0:0:0:0:
192,192,71409,1,0,0:0:0:0:
448,192,71484,1,0,0:0:0:0:
320,192,71559,1,0,0:0:0:0:
192,192,71634,1,0,0:0:0:0:
64,192,71709,1,0,0:0:0:0:
448,192,71709,1,0,0:0:0:0:
64,192,71859,1,0,0:0:0:0:
448,192,71859,1,0,0:0:0:0:
320,192,71859,1,0,0:0:0:0:
64,192,72009,128,0,72234:0:0:0:0:
192,192,72009,128,0,72234:0:0:0:0:
448,192,72009,1,0,0:0:0:0:
320,192,72159,1,0,0:0:0:0:
320,192,72309,128,0,72534:0:0:0:0:
448,192,72309,128,0,72534:0:0:0:0:
64,192,72309,1,0,0:0:0:0:
192,192,72459,1,0,0:0:0:0:
64,192,72609,128,0,72834:0:0:0:0:
448,192,72609,128,0,72834:0:0:0:0:
192,192,72609,1,0,0:0:0:0:
320,192,72759,1,0,0:0:0:0:
448,192,72909,1,0,0:0:0:0:
64,192,72909,1,0,0:0:0:0:
192,192,72984,1,0,0:0:0:0:
320,192,73059,128,0,73209:0:0:0:0:
192,192,73134,1,0,0:0:0:0:
448,192,73209,1,0,0:0:0:0:
64,192,73209,1,0,0:0:0:0:
320,192,73284,1,0,0:0:0:0:
192,192,73359,128,0,73509:0:0:0:0:
320,192,73434,1,0,0:0:0:0:
64,192,73509,1,0,0:0:0:0:
448,192,73509,1,0,0:0:0:0:
192,192,73584,1,0,0:0:0:0:
448,192,73659,1,0,0:0:0:0:
320,192,73734,1,0,0:0:0:0:
64,192,73809,1,0,0:0:0:0:
192,192,73809,1,0,0:0:0:0:
448,192,73884,1,0,0:0:0:0:
320,192,73959,1,0,0:0:0:0:
192,192,74034,1,0,0:0:0:0:
64,192,74109,1,0,0:0:0:0:
448,192,74109,1,0,0:0:0:0:
320,192,74184,1,0,0:0:0:0:
64,192,74259,128,0,74409:0:0:0:0:
192,192,74334,1,0,0:0:0:0:
448,192,74409,1,0,0:0:0:0:
320,192,74409,1,0,0:0:0:0:
192,192,74484,1,0,0:0:0:0:
448,192,74559,128,0,74709:0:0:0:0:
64,192,74559,1,0,0:0:0:0:
320,192,74634,1,0,0:0:0:0:
64,192,74709,1,0,0:0:0:0:
192,192,74709,1,0,0:0:0:0:
448,192,74784,1,0,0:0:0:0:
320,192,74859,1,0,0:0:0:0:
64,192,74934,1,0,0:0:0:0:
448,192,75009,1,0,0:0:0:0:
192,192,75009,1,0,0:0:0:0:
320,192,75084,1,0,0:0:0:0:
64,192,75159,1,0,0:0:0:0:
192,192,75234,1,0,0:0:0:0:
448,192,75309,1,0,0:0:0:0:
320,192,75309,1,0,0:0:0:0:
192,192,75384,1,0,0:0:0:0:
448,192,75459,128,0,75609:0:0:0:0:
320,192,75534,1,0,0:0:0:0:
64,192,75609,1,0,0:0:0:0:
192,192,75609,1,0,0:0:0:0:
320,192,75684,1,0,0:0:0:0:
64,192,75759,128,0,75909:0:0:0:0:
192,192,75834,1,0,0:0:0:0:
448,192,75909,1,0,0:0:0:0:
320,192,75909,1,0,0:0:0:0:
192,192,75984,1,0,0:0:0:0:
64,192,76059,1,0,0:0:0:0:
448,192,76134,1,0,0:0:0:0:
320,192,76209,1,0,0:0:0:0:
192,192,76209,1,0,0:0:0:0:
64,192,76284,1,0,0:0:0:0:
448,192,76359,1,0,0:0:0:0:
320,192,76434,1,0,0:0:0:0:
64,192,76509,1,0,0:0:0:0:
192,192,76509,1,0,0:0:0:0:
448,192,76584,1,0,0:0:0:0:
320,192,76659,1,0,0:0:0:0:
192,192,76734,1,0,0:0:0:0:
64,192,76809,128,0,77034:0:0:0:0:
448,192,76809,128,0,77034:0:0:0:0:
64,192,77109,128,0,77259:0:0:0:0:
192,192,77109,128,0,77259:0:0:0:0:
320,192,77109,1,0,0:0:0:0:
448,192,77109,1,0,0:0:0:0:
320,192,77259,1,0,0:0:0:0:
448,192,77259,1,0,0:0:0:0:
64,192,77409,1,0,0:0:0:0:
448,192,77409,1,0,0:0:0:0:
192,192,77409,1,0,0:0:0:0:
320,192,77559,1,0,0:0:0:0:
64,192,77559,1,0,0:0:0:0:
64,192,77709,128,0,77859:0:0:0:0:
192,192,77709,128,0,77859:0:0:0:0:
320,192,77709,1,0,0:0:0:0:
448,192,77709,1,0,0:0:0:0:
320,192,77859,1,0,0:0:0:0:
448,192,77859,1,0,0:0:0:0:
448,192,78009,1,0,0:0:0:0:
64,192,78009,1,0,0:0:0:0:
192,192,78009,1,0,0:0:0:0:
320,192,78159,1,0,0:0:0:0:
64,192,78159,1,0,0:0:0:0:
448,192,78309,128,0,78459:0:0:0:0:
320,192,78309,128,0,78459:0:0:0:0:
192,192,78309,1,0,0:0:0:0:
64,192,78309,1,0,0:0:0:0:
192,192,78459,1,0,0:0:0:0:
64,192,78459,1,0,0:0:0:0:
448,192,78609,1,0,0:0:0:0:
64,192,78609,1,0,0:0:0:0:
320,192,78609,1,0,0:0:0:0:
192,192,78759,1,0,0:0:0:0:
448,192,78759,1,0,0:0:0:0:
448,192,78909,128,0,79059:0:0:0:0:
320,192,78909,128,0,79059:0:0:0:0:
192,192,78909,1,0,0:0:0:0:
64,192,78909,1,0,0:0:0:0:
192,192,79059,1,0,0:0:0:0:
64,192,79059,1,0,0:0:0:0:
64,192,79209,1,0,0:0:0:0:
448,192,79209,1,0,0:0:0:0:
320,192,79209,1,0,0:0:0:0:
192,192,79359,1,0,0:0:0:0:
448,192,79359,1,0,0:0:0:0:
320,192,79509,128,0,79659:0:0:0:0:
448,192,79509,1,0,0:0:0:0:
64,192,79509,128,0,79659:0:0:0:0:
192,192,79509,1,0,0:0:0:0:
448,192,79659,1,0,0:0:0:0:
192,192,79659,1,0,0:0:0:0:
192,192,79809,1,0,0:0:0:0:
320,192,79809,1,0,0:0:0:0:
64,192,79809,1,0,0:0:0:0:
448,192,79959,1,0,0:0:0:0:
320,192,79959,1,0,0:0:0:0:
448,192,80109,1,0,0:0:0:0:
64,192,80109,128,0,80259:0:0:0:0:
320,192,80109,128,0,80259:0:0:0:0:
192,192,80109,1,0,0:0:0:0:
448,192,80259,1,0,0:0:0:0:
192,192,80259,1,0,0:0:0:0:
320,192,80409,1,0,0:0:0:0:
192,192,80409,1,0,0:0:0:0:
64,192,80409,1,0,0:0:0:0:
320,192,80559,1,0,0:0:0:0:
448,192,80559,1,0,0:0:0:0:
192,192,80709,128,0,80859:0:0:0:0:
64,192,80709,1,0,0:0:0:0:
448,192,80709,128,0,80859:0:0:0:0:
320,192,80709,1,0,0:0:0:0:
64,192,80859,1,0,0:0:0:0:
320,192,80859,1,0,0:0:0:0:
320,192,81009,1,0,0:0:0:0:
192,192,81009,1,0,0:0:0:0:
448,192,81009,1,0,0:0:0:0:
64,192,81159,1,0,0:0:0:0:
192,192,81159,1,0,0:0:0:0:
64,192,81309,1,0,0:0:0:0:
448,192,81309,128,0,81459:0:0:0:0:
192,192,81309,128,0,81459:0:0:0:0:
320,192,81309,1,0,0:0:0:0:
64,192,81459,1,0,0:0:0:0:
320,192,81459,128,0,81759:0:0:0:0:
192,192,81609,128,0,81909:0:0:0:0:
64,192,81759,128,0,81909:0:0:0:0:
448,192,81909,1,0,0:0:0:0:
320,192,81909,1,0,0:0:0:0:
64,192,81984,1,0,0:0:0:0:
448,192,82059,1,0,0:0:0:0:
192,192,82059,1,0,0:0:0:0:
320,192,82134,1,0,0:0:0:0:
64,192,82209,1,0,0:0:0:0:
192,192,82209,1,0,0:0:0:0:
448,192,82284,1,0,0:0:0:0:
64,192,82359,1,0,0:0:0:0:
320,192,82359,1,0,0:0:0:0:
192,192,82434,1,0,0:0:0:0:
320,192,82509,1,0,0:0:0:0:
448,192,82509,1,0,0:0:0:0:
64,192,82584,1,0,0:0:0:0:
448,192,82659,1,0,0:0:0:0:
192,192,82659,1,0,0:0:0:0:
320,192,82734,1,0,0:0:0:0:
64,192,82809,1,0,0:0:0:0:
192,192,82809,1,0,0:0:0:0:
448,192,82884,1,0,0:0:0:0:
64,192,82959,1,0,0:0:0:0:
320,192,82959,1,0,0:0:0:0:
192,192,83034,1,0,0:0:0:0:
448,192,83109,1,0,0:0:0:0:
320,192,83109,1,0,0:0:0:0:
192,192,83184,1,0,0:0:0:0:
64,192,83259,1,0,0:0:0:0:
448,192,83259,1,0,0:0:0:0:
320,192,83334,1,0,0:0:0:0:
192,192,83409,1,0,0:0:0:0:
64,192,83409,1,0,0:0:0:0:
320,192,83484,1,0,0:0:0:0:
64,192,83559,1,0,0:0:0:0:
448,192,83559,1,0,0:0:0:0:
192,192,83634,1,0,0:0:0:0:
448,192,83709,1,0,0:0:0:0:
320,192,83709,1,0,0:0:0:0:
192,192,83784,1,0,0:0:0:0:
448,192,83859,1,0,0:0:0:0:
64,192,83859,1,0,0:0:0:0:
320,192,83934,1,0,0:0:0:0:
64,192,84009,1,0,0:0:0:0:
192,192,84009,1,0,0:0:0:0:
320,192,84084,1,0,0:0:0:0:
448,192,84159,1,0,0:0:0:0:
64,192,84159,1,0,0:0:0:0:
192,192,84234,1,0,0:0:0:0:
448,192,84309,1,0,0:0:0:0:
320,192,84309,1,0,0:0:0:0:
64,192,84384,1,0,0:0:0:0:
192,192,84384,1,0,0:0:0:0:
320,192,84459,1,0,0:0:0:0:
448,192,84459,1,0,0:0:0:0:
64,192,84534,1,0,0:0:0:0:
192,192,84534,1,0,0:0:0:0:
320,192,84609,1,0,0:0:0:0:
448,192,84609,1,0,0:0:0:0:
64,192,84684,1,0,0:0:0:0:
192,192,84684,1,0,0:0:0:0:
448,192,84759,1,0,0:0:0:0:
320,192,84759,1,0,0:0:0:0:
64,192,84834,1,0,0:0:0:0:
192,192,84834,1,0,0:0:0:0:
448,192,84909,1,0,0:0:0:0:
320,192,84909,1,0,0:0:0:0:
192,192,84984,1,0,0:0:0:0:
64,192,84984,1,0,0:0:0:0:
320,192,85059,1,0,0:0:0:0:
448,192,85059,1,0,0:0:0:0:
64,192,85134,1,0,0:0:0:0:
192,192,85134,1,0,0:0:0:0:
320,192,85209,1,0,0:0:0:0:
448,192,85209,1,0,0:0:0:0:
64,192,85284,1,0,0:0:0:0:
192,192,85284,1,0,0:0:0:0:
448,192,85359,1,0,0:0:0:0:
320,192,85359,1,0,0:0:0:0:
64,192,85434,1,0,0:0:0:0:
192,192,85434,1,0,0:0:0:0:
448,192,85509,128,0,86634:0:0:0:0:
320,192,85509,128,0,86109:0:0:0:0:
192,192,85659,1,0,0:0:0:0:
192,192,85809,1,0,0:0:0:0:
192,192,86109,1,0,0:0:0:0:
64,192,86109,128,0,86634:0:0:0:0:
192,192,86409,128,0,86634:0:0:0:0:
448,192,86709,128,0,86934:0:0:0:0:
192,192,86709,128,0,86859:0:0:0:0:
64,192,86709,1,0,0:0:0:0:
320,192,86709,1,0,0:0:0:0:
64,192,86859,1,0,0:0:0:0:
320,192,87009,1,0,0:0:0:0:
448,192,87009,128,0,87159:0:0:0:0:
192,192,87009,128,0,87234:0:0:0:0:
320,192,87159,1,0,0:0:0:0:
448,192,87309,128,0,87534:0:0:0:0:
192,192,87309,128,0,87459:0:0:0:0:
64,192,87309,1,0,0:0:0:0:
320,192,87309,1,0,0:0:0:0:
64,192,87459,128,0,87534:0:0:0:0:
192,192,87609,128,0,87834:0:0:0:0:
448,192,87609,128,0,87759:0:0:0:0:
320,192,87609,128,0,87684:0:0:0:0:
64,192,87759,128,0,87834:0:0:0:0:
320,192,87909,128,0,88059:0:0:0:0:
64,192,87909,128,0,88134:0:0:0:0:
192,192,87909,1,0,0:0:0:0:
448,192,87909,1,0,0:0:0:0:
448,192,88059,1,0,0:0:0:0:
64,192,88209,128,0,88359:0:0:0:0:
320,192,88209,128,0,88434:0:0:0:0:
192,192,88209,1,0,0:0:0:0:
192,192,88359,1,0,0:0:0:0:
192,192,88509,128,0,88734:0:0:0:0:
64,192,88509,1,0,0:0:0:0:
320,192,88509,1,0,0:0:0:0:
448,192,88509,128,0,88659:0:0:0:0:
320,192,88659,128,0,88734:0:0:0:0:
192,192,88809,128,0,88959:0:0:0:0:
64,192,88809,128,0,88884:0:0:0:0:
320,192,88809,128,0,89034:0:0:0:0:
448,192,88959,128,0,89034:0:0:0:0:
192,192,89109,1,0,0:0:0:0:
320,192,89109,1,0,0:0:0:0:
64,192,89109,128,0,89259:0:0:0:0:
448,192,89109,128,0,89334:0:0:0:0:
192,192,89259,1,0,0:0:0:0:
320,192,89409,1,0,0:0:0:0:
64,192,89409,128,0,89634:0:0:0:0:
448,192,89409,128,0,89559:0:0:0:0:
320,192,89559,1,0,0:0:0:0:
320,192,89709,1,0,0:0:0:0:
192,192,89709,1,0,0:0:0:0:
64,192,89709,128,0,89859:0:0:0:0:
448,192,89709,128,0,89934:0:0:0:0:
192,192,89859,128,0,89934:0:0:0:0:
320,192,90009,128,0,90084:0:0:0:0:
64,192,90009,128,0,90234:0:0:0:0:
448,192,90009,128,0,90159:0:0:0:0:
192,192,90159,128,0,90234:0:0:0:0:
64,192,90309,1,0,0:0:0:0:
192,192,90309,128,0,90534:0:0:0:0:
320,192,90309,128,0,90459:0:0:0:0:
448,192,90309,1,0,0:0:0:0:
64,192,90459,1,0,0:0:0:0:
192,192,90609,128,0,90759:0:0:0:0:
320,192,90609,128,0,90834:0:0:0:0:
448,192,90609,1,0,0:0:0:0:
448,192,90759,1,0,0:0:0:0:
320,192,90909,128,0,91059:0:0:0:0:
448,192,90909,1,0,0:0:0:0:
64,192,90909,1,0,0:0:0:0:
192,192,90909,128,0,91209:0:0:0:0:
64,192,91059,128,0,91209:0:0:0:0:
320,192,91209,128,0,91434:0:0:0:0:
448,192,91209,128,0,91359:0:0:0:0:
192,192,91359,128,0,91434:0:0:0:0:
64,192,91509,128,0,91659:0:0:0:0:
192,192,91509,128,0,91734:0:0:0:0:
320,192,91509,1,0,0:0:0:0:
448,192,91509,1,0,0:0:0:0:
320,192,91659,1,0,0:0:0:0:
64,192,91809,128,0,92034:0:0:0:0:
192,192,91809,128,0,91959:0:0:0:0:
448,192,91809,1,0,0:0:0:0:
448,192,91959,1,0,0:0:0:0:
64,192,92109,128,0,92259:0:0:0:0:
192,192,92109,128,0,92334:0:0:0:0:
320,192,92109,1,0,0:0:0:0:
448,192,92109,1,0,0:0:0:0:
320,192,92259,128,0,92334:0:0:0:0:
64,192,92409,128,0,92634:0:0:0:0:
192,192,92409,128,0,92559:0:0:0:0:
448,192,92409,128,0,92484:0:0:0:0:
320,192,92559,128,0,92634:0:0:0:0:
448,192,92709,128,0,92859:0:0:0:0:
320,192,92709,128,0,92934:0:0:0:0:
192,192,92709,1,0,0:0:0:0:
64,192,92709,1,0,0:0:0:0:
192,192,92859,1,0,0:0:0:0:
320,192,93009,128,0,93159:0:0:0:0:
64,192,93009,1,0,0:0:0:0:
448,192,93009,128,0,93234:0:0:0:0:
64,192,93159,1,0,0:0:0:0:
64,192,93309,1,0,0:0:0:0:
320,192,93309,128,0,93534:0:0:0:0:
448,192,93309,128,0,93459:0:0:0:0:
192,192,93309,1,0,0:0:0:0:
192,192,93459,128,0,93534:0:0:0:0:
448,192,93609,128,0,93834:0:0:0:0:
64,192,93609,128,0,93684:0:0:0:0:
320,192,93609,128,0,93759:0:0:0:0:
192,192,93759,128,0,93834:0:0:0:0:
64,192,93909,128,0,94134:0:0:0:0:
192,192,93909,128,0,94134:0:0:0:0:
320,192,93909,1,0,0:0:0:0:
448,192,93909,1,0,0:0:0:0:
320,192,94059,1,0,0:0:0:0:
64,192,94209,1,0,0:0:0:0:
192,192,94209,1,0,0:0:0:0:
448,192,94209,1,0,0:0:0:0:
320,192,94359,1,0,0:0:0:0:
64,192,94509,1,0,0:0:0:0:
192,192,94509,1,0,0:0:0:0:
320,192,94509,128,0,94734:0:0:0:0:
448,192,94509,128,0,94734:0:0:0:0:
192,192,94659,1,0,0:0:0:0:
64,192,94809,1,0,0:0:0:0:
320,192,94809,1,0,0:0:0:0:
448,192,94809,1,0,0:0:0:0:
192,192,94959,1,0,0:0:0:0:
64,192,94959,1,0,0:0:0:0:
320,192,95034,1,0,0:0:0:0:
448,192,95034,1,0,0:0:0:0:
64,192,95109,1,0,0:0:0:0:
192,192,95109,1,0,0:0:0:0:
320,192,95109,1,0,0:0:0:0:
448,192,95109,1,0,0:0:0:0:
192,192,95259,1,0,0:0:0:0:
64,192,95334,1,0,0:0:0:0:
320,192,95334,1,0,0:0:0:0:
448,192,95334,1,0,0:0:0:0:
320,192,95484,1,0,0:0:0:0:
64,192,95559,1,0,0:0:0:0:
192,192,95559,1,0,0:0:0:0:
448,192,95559,1,0,0:0:0:0:
64,192,95709,1,0,0:0:0:0:
192,192,95709,1,0,0:0:0:0:
320,192,95709,128,0,96234:0:0:0:0:
448,192,95709,128,0,96234:0:0:0:0:
192,192,96009,1,0,0:0:0:0:
64,192,96009,128,0,96234:0:0:0:0:
448,192,96309,128,0,96534:0:0:0:0:
64,192,96309,1,0,0:0:0:0:
320,192,96309,1,0,0:0:0:0:
192,192,96309,128,0,96459:0:0:0:0:
320,192,96459,1,0,0:0:0:0:
192,192,96609,1,0,0:0:0:0:
64,192,96609,128,0,96834:0:0:0:0:
448,192,96609,128,0,96759:0:0:0:0:
192,192,96759,1,0,0:0:0:0:
64,192,96909,128,0,97059:0:0:0:0:
320,192,96909,128,0,97134:0:0:0:0:
192,192,96909,1,0,0:0:0:0:
448,192,96909,1,0,0:0:0:0:
448,192,97059,128,0,97134:0:0:0:0:
64,192,97209,128,0,97359:0:0:0:0:
192,192,97209,128,0,97434:0:0:0:0:
448,192,97209,128,0,97284:0:0:0:0:
320,192,97359,128,0,97434:0:0:0:0:
64,192,97509,128,0,97659:0:0:0:0:
320,192,97509,128,0,97734:0:0:0:0:
448,192,97509,1,0,0:0:0:0:
192,192,97509,1,0,0:0:0:0:
192,192,97659,1,0,0:0:0:0:
64,192,97809,128,0,98034:0:0:0:0:
448,192,97809,128,0,97959:0:0:0:0:
320,192,97809,1,0,0:0:0:0:
320,192,97959,1,0,0:0:0:0:
192,192,98109,128,0,98259:0:0:0:0:
448,192,98109,128,0,98334:0:0:0:0:
64,192,98109,1,0,0:0:0:0:
320,192,98109,1,0,0:0:0:0:
64,192,98259,128,0,98334:0:0:0:0:
320,192,98409,128,0,98634:0:0:0:0:
448,192,98409,128,0,98559:0:0:0:0:
64,192,98409,128,0,98484:0:0:0:0:
192,192,98559,128,0,98634:0:0:0:0:
192,192,98709,128,0,98859:0:0:0:0:
64,192,98709,128,0,98934:0:0:0:0:
320,192,98709,1,0,0:0:0:0:
448,192,98709,1,0,0:0:0:0:
320,192,98859,1,0,0:0:0:0:
192,192,99009,128,0,99159:0:0:0:0:
448,192,99009,128,0,99234:0:0:0:0:
64,192,99009,1,0,0:0:0:0:
320,192,99159,1,0,0:0:0:0:
64,192,99309,128,0,99534:0:0:0:0:
320,192,99309,128,0,99459:0:0:0:0:
192,192,99309,1,0,0:0:0:0:
448,192,99309,1,0,0:0:0:0:
192,192,99459,128,0,99534:0:0:0:0:
320,192,99609,128,0,99759:0:0:0:0:
448,192,99609,128,0,99834:0:0:0:0:
64,192,99609,128,0,99684:0:0:0:0:
192,192,99759,128,0,99834:0:0:0:0:
64,192,99909,128,0,100059:0:0:0:0:
192,192,99909,128,0,100134:0:0:0:0:
320,192,99909,1,0,0:0:0:0:
448,192,99909,1,0,0:0:0:0:
448,192,100059,1,0,0:0:0:0:
64,192,100209,1,0,0:0:0:0:
192,192,100209,128,0,100434:0:0:0:0:
320,192,100209,128,0,100359:0:0:0:0:
448,192,100359,1,0,0:0:0:0:
64,192,100509,1,0,0:0:0:0:
192,192,100509,1,0,0:0:0:0:
320,192,100509,128,0,100659:0:0:0:0:
448,192,100509,128,0,100734:0:0:0:0:
64,192,100659,128,0,100809:0:0:0:0:
192,192,100809,128,0,101034:0:0:0:0:
320,192,100809,128,0,100959:0:0:0:0:
64,192,100959,128,0,101034:0:0:0:0:
64,192,101109,1,0,0:0:0:0:
320,192,101109,128,0,101334:0:0:0:0:
448,192,101109,128,0,101334:0:0:0:0:
192,192,101109,1,0,0:0:0:0:
192,192,101259,1,0,0:0:0:0:
448,192,101409,1,0,0:0:0:0:
64,192,101409,1,0,0:0:0:0:
320,192,101559,1,0,0:0:0:0:
64,192,101709,128,0,101934:0:0:0:0:
192,192,101709,128,0,101934:0:0:0:0:
320,192,101709,1,0,0:0:0:0:
448,192,101709,1,0,0:0:0:0:
448,192,101859,128,0,101934:0:0:0:0:
64,192,102009,1,0,0:0:0:0:
448,192,102009,128,0,102234:0:0:0:0:
320,192,102159,128,0,102234:0:0:0:0:
448,192,102309,1,0,0:0:0:0:
320,192,102309,1,0,0:0:0:0:
64,192,102309,128,0,102459:0:0:0:0:
192,192,102309,128,0,102459:0:0:0:0:
320,192,102459,1,0,0:0:0:0:
192,192,102534,1,0,0:0:0:0:
64,192,102534,1,0,0:0:0:0:
448,192,102534,1,0,0:0:0:0:
192,192,102684,1,0,0:0:0:0:
64,192,102759,1,0,0:0:0:0:
448,192,102759,1,0,0:0:0:0:
320,192,102759,1,0,0:0:0:0:
320,192,102909,1,0,0:0:0:0:
64,192,102909,128,0,103134:0:0:0:0:
192,192,102909,128,0,103134:0:0:0:0:
448,192,102909,1,0,0:0:0:0:
448,192,103059,128,0,103434:0:0:0:0:
320,192,103209,128,0,103434:0:0:0:0:
64,192,103209,1,0,0:0:0:0:
192,192,103359,128,0,103434:0:0:0:0:
64,192,103509,128,0,103659:0:0:0:0:
192,192,103509,128,0,103734:0:0:0:0:
448,192,103509,1,0,0:0:0:0:
320,192,103509,1,0,0:0:0:0:
320,192,103659,1,0,0:0:0:0:
64,192,103809,1,0,0:0:0:0:
320,192,103809,128,0,104034:0:0:0:0:
448,192,103809,128,0,103959:0:0:0:0:
192,192,103959,1,0,0:0:0:0:
192,192,104109,128,0,104259:0:0:0:0:
64,192,104109,128,0,104334:0:0:0:0:
448,192,104109,1,0,0:0:0:0:
320,192,104109,1,0,0:0:0:0:
320,192,104259,128,0,104334:0:0:0:0:
448,192,104409,128,0,104634:0:0:0:0:
64,192,104409,128,0,104484:0:0:0:0:
192,192,104409,128,0,104559:0:0:0:0:
320,192,104559,128,0,104634:0:0:0:0:
320,192,104709,128,0,104934:0:0:0:0:
64,192,104709,128,0,104859:0:0:0:0:
448,192,104709,1,0,0:0:0:0:
192,192,104709,1,0,0:0:0:0:
192,192,104859,1,0,0:0:0:0:
192,192,105009,128,0,105234:0:0:0:0:
64,192,105009,1,0,0:0:0:0:
448,192,105009,128,0,105159:0:0:0:0:
320,192,105159,1,0,0:0:0:0:
448,192,105309,1,0,0:0:0:0:
64,192,105309,128,0,105534:0:0:0:0:
320,192,105309,128,0,105459:0:0:0:0:
192,192,105309,1,0,0:0:0:0:
192,192,105459,128,0,105534:0:0:0:0:
448,192,105609,128,0,105834:0:0:0:0:
192,192,105609,128,0,105834:0:0:0:0:
320,192,105759,128,0,105834:0:0:0:0:
192,192,105909,1,0,0:0:0:0:
448,192,105909,128,0,106959:0:0:0:0:
64,192,105909,128,0,108159:0:0:0:0:
320,192,105909,1,0,0:0:0:0:
192,192,106959,128,0,111309:0:0:0:0:
320,192,108159,128,0,111309:0:0:0:0:
448,192,109359,128,0,111309:0:0:0:0:
64,192,111234,128,0,111309:0:0:0:0:
