osu file format v14

[General]
AudioFilename: audio.ogg
AudioLeadIn: 0
PreviewTime: 86713
Countdown: 0
SampleSet: Soft
StackLeniency: 0.7
Mode: 3
LetterboxInBreaks: 0
SpecialStyle: 0
WidescreenStoryboard: 1

[Editor]
Bookmarks: 1222,10816,18016,30022,39016,49216,58822,68416,78016,87622,106822
DistanceSpacing: 0.5
BeatDivisor: 4
GridSize: 4
TimelineZoom: 1.599999

[Metadata]
Title:The World Ends Now
TitleUnicode:The World Ends Now
Artist:Akira Complex
ArtistUnicode:Akira Complex
Creator:BlankFace74
Version:Advanced
Source:DanceDanceRevolution A20
Tags:KONAMI BEMANI ddr dance dance revolution plus golden league ゴールデンリーグ techno electronic video arcade rhythm game english instrumental melancholiaah apocalypse AquaTC fa featured artist ace 2 0 two oh
BeatmapID:4202103
BeatmapSetID:2018033

[Difficulty]
HPDrainRate:7.5
CircleSize:4
OverallDifficulty:7.5
ApproachRate:7
SliderMultiplier:1.2
SliderTickRate:1

[Events]
//Background and Video events
0,0,"stolen hehe.jpg",0,0
//Break Periods
//Storyboard Layer 0 (Background)
//Storyboard Layer 1 (Fail)
//Storyboard Layer 2 (Pass)
//Storyboard Layer 3 (Foreground)
//Storyboard Layer 4 (Overlay)
//Storyboard Sound Samples

[TimingPoints]
309,300,4,2,1,40,1,0
29109,-100,4,2,1,40,0,1
48309,-100,4,2,1,40,0,0
86709,-100,4,2,1,40,0,1
105909,-100,4,2,1,40,0,0

[HitObjects]
64,192,309,5,0,0:0:0:0:
192,192,309,128,0,609:0:0:0:0:
320,192,609,128,0,909:0:0:0:0:
448,192,609,1,0,0:0:0:0:
64,192,909,1,0,0:0:0:0:
192,192,1059,1,0,0:0:0:0:
448,192,1209,1,0,0:0:0:0:
320,192,1209,1,0,0:0:0:0:
64,192,1359,1,0,0:0:0:0:
320,192,1509,1,0,0:0:0:0:
448,192,1659,1,0,0:0:0:0:
64,192,1659,1,0,0:0:0:0:
192,192,1809,1,0,0:0:0:0:
448,192,1959,1,0,0:0:0:0:
192,192,2109,1,0,0:0:0:0:
320,192,2259,1,0,0:0:0:0:
64,192,2409,1,0,0:0:0:0:
192,192,2559,1,0,0:0:0:0:
448,192,2634,1,0,0:0:0:0:
320,192,2709,128,0,3009:0:0:0:0:
64,192,2859,1,0,0:0:0:0:
192,192,3009,128,0,3309:0:0:0:0:
448,192,3159,1,0,0:0:0:0:
320,192,3309,1,0,0:0:0:0:
64,192,3459,1,0,0:0:0:0:
320,192,3609,1,0,0:0:0:0:
448,192,3609,1,0,0:0:0:0:
192,192,3759,1,0,0:0:0:0:
320,192,3909,1,0,0:0:0:0:
64,192,4059,1,0,0:0:0:0:
448,192,4059,1,0,0:0:0:0:
192,192,4209,1,0,0:0:0:0:
320,192,4359,1,0,0:0:0:0:
64,192,4509,1,0,0:0:0:0:
320,192,4659,1,0,0:0:0:0:
448,192,4659,1,0,0:0:0:0:
64,192,4809,1,0,0:0:0:0:
192,192,4809,128,0,5109:0:0:0:0:
320,192,5109,128,0,5409:0:0:0:0:
448,192,5109,1,0,0:0:0:0:
448,192,5409,1,0,0:0:0:0:
64,192,5409,128,0,5709:0:0:0:0:
320,192,5709,1,0,0:0:0:0:
192,192,5859,1,0,0:0:0:0:
64,192,6009,1,0,0:0:0:0:
448,192,6009,1,0,0:0:0:0:
320,192,6159,1,0,0:0:0:0:
64,192,6309,1,0,0:0:0:0:
320,192,6459,1,0,0:0:0:0:
448,192,6459,1,0,0:0:0:0:
192,192,6609,1,0,0:0:0:0:
448,192,6759,1,0,0:0:0:0:
192,192,6909,1,0,0:0:0:0:
320,192,7059,1,0,0:0:0:0:
64,192,7209,1,0,0:0:0:0:
320,192,7359,1,0,0:0:0:0:
192,192,7434,1,0,0:0:0:0:
448,192,7509,128,0,7809:0:0:0:0:
320,192,7659,1,0,0:0:0:0:
64,192,7809,128,0,8109:0:0:0:0:
192,192,7959,1,0,0:0:0:0:
448,192,8109,1,0,0:0:0:0:
320,192,8259,1,0,0:0:0:0:
64,192,8409,1,0,0:0:0:0:
192,192,8409,1,0,0:0:0:0:
448,192,8559,1,0,0:0:0:0:
192,192,8634,1,0,0:0:0:0:
320,192,8709,1,0,0:0:0:0:
448,192,8859,1,0,0:0:0:0:
64,192,8859,1,0,0:0:0:0:
192,192,9009,1,0,0:0:0:0:
320,192,9009,128,0,9459:0:0:0:0:
192,192,9309,1,0,0:0:0:0:
448,192,9459,1,0,0:0:0:0:
64,192,9459,128,0,9759:0:0:0:0:
448,192,9759,1,0,0:0:0:0:
192,192,9759,1,0,0:0:0:0:
64,192,9909,1,0,0:0:0:0:
320,192,9909,128,0,10209:0:0:0:0:
448,192,10209,1,0,0:0:0:0:
192,192,10209,128,0,10509:0:0:0:0:
64,192,10509,1,0,0:0:0:0:
448,192,10509,1,0,0:0:0:0:
192,192,10809,1,0,0:0:0:0:
320,192,10809,1,0,0:0:0:0:
64,192,11109,1,0,0:0:0:0:
192,192,11109,1,0,0:0:0:0:
320,192,11259,1,0,0:0:0:0:
448,192,11409,1,0,0:0:0:0:
64,192,11409,1,0,0:0:0:0:
192,192,11709,1,0,0:0:0:0:
320,192,11709,1,0,0:0:0:0:
192,192,12009,1,0,0:0:0:0:
448,192,12009,1,0,0:0:0:0:
64,192,12159,1,0,0:0:0:0:
448,192,12309,1,0,0:0:0:0:
320,192,12309,128,0,12609:0:0:0:0:
64,192,12609,1,0,0:0:0:0:
192,192,12609,128,0,12909:0:0:0:0:
320,192,12909,1,0,0:0:0:0:
448,192,12909,1,0,0:0:0:0:
64,192,13209,1,0,0:0:0:0:
320,192,13209,1,0,0:0:0:0:
64,192,13509,1,0,0:0:0:0:
192,192,13509,1,0,0:0:0:0:
448,192,13659,1,0,0:0:0:0:
192,192,13809,1,0,0:0:0:0:
320,192,13809,1,0,0:0:0:0:
64,192,14109,1,0,0:0:0:0:
448,192,14109,1,0,0:0:0:0:
320,192,14259,1,0,0:0:0:0:
192,192,14259,1,0,0:0:0:0:
448,192,14409,128,0,14709:0:0:0:0:
64,192,14409,1,0,0:0:0:0:
64,192,14709,128,0,15009:0:0:0:0:
192,192,14709,1,0,0:0:0:0:
192,192,15009,128,0,15309:0:0:0:0:
448,192,15009,1,0,0:0:0:0:
320,192,15309,1,0,0:0:0:0:
448,192,15309,1,0,0:0:0:0:
64,192,15609,1,0,0:0:0:0:
192,192,15609,1,0,0:0:0:0:
64,192,15909,1,0,0:0:0:0:
448,192,15909,1,0,0:0:0:0:
192,192,16059,1,0,0:0:0:0:
320,192,16209,1,0,0:0:0:0:
448,192,16209,1,0,0:0:0:0:
64,192,16509,1,0,0:0:0:0:
192,192,16509,1,0,0:0:0:0:
192,192,16809,1,0,0:0:0:0:
448,192,16809,1,0,0:0:0:0:
320,192,16959,1,0,0:0:0:0:
64,192,17109,128,0,17409:0:0:0:0:
448,192,17109,128,0,17409:0:0:0:0:
192,192,17409,1,0,0:0:0:0:
320,192,17709,128,0,18009:0:0:0:0:
448,192,17709,128,0,18009:0:0:0:0:
64,192,18009,1,0,0:0:0:0:
192,192,18309,1,0,0:0:0:0:
448,192,18309,1,0,0:0:0:0:
64,192,18609,1,0,0:0:0:0:
320,192,18609,1,0,0:0:0:0:
448,192,18909,1,0,0:0:0:0:
64,192,19059,128,0,19359:0:0:0:0:
192,192,19059,128,0,19359:0:0:0:0:
320,192,19359,1,0,0:0:0:0:
64,192,19509,1,0,0:0:0:0:
448,192,19509,128,0,19809:0:0:0:0:
192,192,19809,1,0,0:0:0:0:
320,192,19809,1,0,0:0:0:0:
448,192,20109,128,0,20409:0:0:0:0:
192,192,20109,1,0,0:0:0:0:
320,192,20409,1,0,0:0:0:0:
64,192,20409,1,0,0:0:0:0:
192,192,20709,1,0,0:0:0:0:
64,192,20709,128,0,21009:0:0:0:0:
448,192,21009,1,0,0:0:0:0:
320,192,21009,1,0,0:0:0:0:
64,192,21309,128,0,21609:0:0:0:0:
448,192,21309,1,0,0:0:0:0:
192,192,21609,1,0,0:0:0:0:
320,192,21609,1,0,0:0:0:0:
320,192,21909,128,0,22209:0:0:0:0:
448,192,21909,1,0,0:0:0:0:
64,192,22209,1,0,0:0:0:0:
192,192,22209,1,0,0:0:0:0:
320,192,22509,128,0,22809:0:0:0:0:
64,192,22509,1,0,0:0:0:0:
448,192,22809,1,0,0:0:0:0:
192,192,22809,1,0,0:0:0:0:
64,192,23109,1,0,0:0:0:0:
192,192,23109,128,0,23409:0:0:0:0:
448,192,23409,1,0,0:0:0:0:
320,192,23409,1,0,0:0:0:0:
64,192,23709,128,0,24309:0:0:0:0:
448,192,23709,1,0,0:0:0:0:
192,192,24009,128,0,24309:0:0:0:0:
320,192,24309,1,0,0:0:0:0:
448,192,24309,1,0,0:0:0:0:
192,192,24459,1,0,0:0:0:0:
64,192,24609,1,0,0:0:0:0:
448,192,24609,1,0,0:0:0:0:
320,192,24759,1,0,0:0:0:0:
192,192,24909,1,0,0:0:0:0:
64,192,24909,1,0,0:0:0:0:
192,192,25059,1,0,0:0:0:0:
320,192,25209,1,0,0:0:0:0:
448,192,25209,1,0,0:0:0:0:
320,192,25359,1,0,0:0:0:0:
64,192,25509,1,0,0:0:0:0:
192,192,25509,1,0,0:0:0:0:
448,192,25659,1,0,0:0:0:0:
64,192,25809,1,0,0:0:0:0:
320,192,25809,1,0,0:0:0:0:
192,192,25959,1,0,0:0:0:0:
320,192,26109,1,0,0:0:0:0:
448,192,26109,1,0,0:0:0:0:
448,192,26259,1,0,0:0:0:0:
64,192,26409,1,0,0:0:0:0:
192,192,26409,1,0,0:0:0:0:
64,192,26559,1,0,0:0:0:0:
448,192,26709,1,0,0:0:0:0:
192,192,26709,128,0,27009:0:0:0:0:
320,192,26859,1,0,0:0:0:0:
448,192,27009,1,0,0:0:0:0:
64,192,27009,128,0,27309:0:0:0:0:
320,192,27159,1,0,0:0:0:0:
192,192,27309,1,0,0:0:0:0:
448,192,27309,128,0,27609:0:0:0:0:
64,192,27459,1,0,0:0:0:0:
320,192,27609,128,0,27909:0:0:0:0:
192,192,27609,1,0,0:0:0:0:
64,192,27759,1,0,0:0:0:0:
192,192,27909,1,0,0:0:0:0:
448,192,27909,1,0,0:0:0:0:
192,192,28809,1,0,0:0:0:0:
64,192,29109,1,0,0:0:0:0:
448,192,29109,128,0,29409:0:0:0:0:
320,192,29409,1,0,0:0:0:0:
192,192,29409,128,0,29709:0:0:0:0:
64,192,29709,128,0,30009:0:0:0:0:
448,192,29709,1,0,0:0:0:0:
192,192,30009,1,0,0:0:0:0:
320,192,30009,128,0,30309:0:0:0:0:
64,192,30309,1,0,0:0:0:0:
448,192,30309,128,0,30609:0:0:0:0:
192,192,30609,128,0,30909:0:0:0:0:
320,192,30609,1,0,0:0:0:0:
64,192,30909,128,0,31209:0:0:0:0:
448,192,30909,1,0,0:0:0:0:
320,192,31209,128,0,31509:0:0:0:0:
448,192,31209,1,0,0:0:0:0:
192,192,31359,1,0,0:0:0:0:
64,192,31509,1,0,0:0:0:0:
448,192,31509,128,0,31809:0:0:0:0:
192,192,31809,128,0,32109:0:0:0:0:
320,192,31809,1,0,0:0:0:0:
64,192,32109,1,0,0:0:0:0:
448,192,32109,128,0,32409:0:0:0:0:
320,192,32409,1,0,0:0:0:0:
192,192,32409,128,0,32709:0:0:0:0:
448,192,32709,1,0,0:0:0:0:
64,192,32709,128,0,33009:0:0:0:0:
192,192,33009,1,0,0:0:0:0:
320,192,33009,128,0,33309:0:0:0:0:
64,192,33309,128,0,33609:0:0:0:0:
448,192,33309,1,0,0:0:0:0:
192,192,33609,1,0,0:0:0:0:
320,192,33609,1,0,0:0:0:0:
192,192,33909,1,0,0:0:0:0:
448,192,33909,128,0,34209:0:0:0:0:
64,192,34209,1,0,0:0:0:0:
320,192,34209,128,0,34509:0:0:0:0:
192,192,34509,1,0,0:0:0:0:
64,192,34509,128,0,34809:0:0:0:0:
192,192,34809,128,0,35109:0:0:0:0:
448,192,34809,1,0,0:0:0:0:
64,192,35109,1,0,0:0:0:0:
448,192,35109,128,0,35409:0:0:0:0:
320,192,35409,128,0,35709:0:0:0:0:
192,192,35409,1,0,0:0:0:0:
64,192,35709,128,0,36009:0:0:0:0:
448,192,35709,1,0,0:0:0:0:
448,192,36009,1,0,0:0:0:0:
192,192,36009,128,0,36309:0:0:0:0:
320,192,36159,1,0,0:0:0:0:
64,192,36309,1,0,0:0:0:0:
448,192,36309,128,0,36609:0:0:0:0:
192,192,36609,1,0,0:0:0:0:
320,192,36609,1,0,0:0:0:0:
64,192,36909,128,0,37209:0:0:0:0:
448,192,36909,1,0,0:0:0:0:
192,192,37209,1,0,0:0:0:0:
320,192,37209,1,0,0:0:0:0:
320,192,37509,128,0,37734:0:0:0:0:
448,192,37509,1,0,0:0:0:0:
192,192,37734,128,0,37959:0:0:0:0:
64,192,37734,1,0,0:0:0:0:
320,192,37959,1,0,0:0:0:0:
64,192,38109,1,0,0:0:0:0:
448,192,38109,128,0,38409:0:0:0:0:
320,192,38409,128,0,38709:0:0:0:0:
192,192,38409,1,0,0:0:0:0:
448,192,38709,1,0,0:0:0:0:
64,192,38709,1,0,0:0:0:0:
320,192,38859,1,0,0:0:0:0:
64,192,39009,1,0,0:0:0:0:
192,192,39009,128,0,39309:0:0:0:0:
448,192,39309,1,0,0:0:0:0:
320,192,39309,1,0,0:0:0:0:
192,192,39459,1,0,0:0:0:0:
64,192,39609,128,0,39909:0:0:0:0:
320,192,39609,1,0,0:0:0:0:
192,192,39909,1,0,0:0:0:0:
448,192,39909,1,0,0:0:0:0:
320,192,40059,1,0,0:0:0:0:
448,192,40209,128,0,40509:0:0:0:0:
64,192,40209,1,0,0:0:0:0:
64,192,40509,1,0,0:0:0:0:
320,192,40509,1,0,0:0:0:0:
192,192,40659,1,0,0:0:0:0:
320,192,40809,128,0,41109:0:0:0:0:
448,192,40809,1,0,0:0:0:0:
192,192,41109,1,0,0:0:0:0:
64,192,41109,1,0,0:0:0:0:
320,192,41259,1,0,0:0:0:0:
64,192,41409,1,0,0:0:0:0:
448,192,41409,1,0,0:0:0:0:
192,192,41559,1,0,0:0:0:0:
320,192,41709,1,0,0:0:0:0:
448,192,41709,1,0,0:0:0:0:
320,192,41859,1,0,0:0:0:0:
64,192,42009,1,0,0:0:0:0:
192,192,42009,1,0,0:0:0:0:
192,192,42159,1,0,0:0:0:0:
64,192,42309,1,0,0:0:0:0:
448,192,42309,1,0,0:0:0:0:
320,192,42459,1,0,0:0:0:0:
192,192,42609,1,0,0:0:0:0:
64,192,42609,1,0,0:0:0:0:
448,192,42759,1,0,0:0:0:0:
320,192,42909,1,0,0:0:0:0:
192,192,42909,1,0,0:0:0:0:
192,192,43059,1,0,0:0:0:0:
320,192,43209,128,0,43509:0:0:0:0:
64,192,43209,1,0,0:0:0:0:
192,192,43509,128,0,43659:0:0:0:0:
448,192,43509,1,0,0:0:0:0:
64,192,43659,128,0,43809:0:0:0:0:
320,192,43809,128,0,43959:0:0:0:0:
192,192,43959,128,0,44109:0:0:0:0:
64,192,44109,1,0,0:0:0:0:
448,192,44109,128,0,44259:0:0:0:0:
320,192,44259,128,0,44409:0:0:0:0:
64,192,44409,128,0,44559:0:0:0:0:
192,192,44559,128,0,44709:0:0:0:0:
320,192,44709,1,0,0:0:0:0:
448,192,44709,1,0,0:0:0:0:
192,192,44934,1,0,0:0:0:0:
448,192,44934,1,0,0:0:0:0:
64,192,45159,1,0,0:0:0:0:
320,192,45159,1,0,0:0:0:0:
64,192,45309,1,0,0:0:0:0:
192,192,45309,128,0,45909:0:0:0:0:
320,192,45609,128,0,45909:0:0:0:0:
448,192,45609,1,0,0:0:0:0:
64,192,45909,1,0,0:0:0:0:
448,192,45909,128,0,46209:0:0:0:0:
192,192,46209,128,0,46509:0:0:0:0:
64,192,46209,1,0,0:0:0:0:
448,192,46509,128,0,46809:0:0:0:0:
320,192,46509,1,0,0:0:0:0:
192,192,46809,128,0,47109:0:0:0:0:
320,192,46809,1,0,0:0:0:0:
64,192,47109,128,0,47409:0:0:0:0:
448,192,47109,1,0,0:0:0:0:
320,192,47409,128,0,47709:0:0:0:0:
192,192,47409,1,0,0:0:0:0:
192,192,47709,1,0,0:0:0:0:
64,192,47709,128,0,48009:0:0:0:0:
320,192,48009,128,0,48309:0:0:0:0:
448,192,48009,1,0,0:0:0:0:
64,192,48309,1,0,0:0:0:0:
192,192,48309,128,0,48609:0:0:0:0:
448,192,48609,1,0,0:0:0:0:
320,192,48609,1,0,0:0:0:0:
64,192,48909,128,0,49209:0:0:0:0:
320,192,48909,1,0,0:0:0:0:
192,192,49209,1,0,0:0:0:0:
448,192,49209,1,0,0:0:0:0:
320,192,49509,128,0,49809:0:0:0:0:
448,192,49509,1,0,0:0:0:0:
64,192,49809,1,0,0:0:0:0:
192,192,49809,1,0,0:0:0:0:
192,192,50109,1,0,0:0:0:0:
448,192,50109,128,0,50409:0:0:0:0:
64,192,50409,1,0,0:0:0:0:
320,192,50409,1,0,0:0:0:0:
64,192,50709,128,0,51009:0:0:0:0:
448,192,50709,1,0,0:0:0:0:
192,192,51009,1,0,0:0:0:0:
320,192,51009,1,0,0:0:0:0:
448,192,51309,128,0,51609:0:0:0:0:
64,192,51309,1,0,0:0:0:0:
192,192,51609,1,0,0:0:0:0:
320,192,51609,1,0,0:0:0:0:
64,192,51909,1,0,0:0:0:0:
320,192,51909,128,0,52209:0:0:0:0:
192,192,52209,1,0,0:0:0:0:
448,192,52209,1,0,0:0:0:0:
64,192,52509,128,0,53109:0:0:0:0:
448,192,52509,1,0,0:0:0:0:
192,192,52809,128,0,53109:0:0:0:0:
320,192,53109,1,0,0:0:0:0:
448,192,53109,1,0,0:0:0:0:
448,192,53259,1,0,0:0:0:0:
320,192,53409,1,0,0:0:0:0:
64,192,53409,1,0,0:0:0:0:
64,192,53559,1,0,0:0:0:0:
192,192,53709,1,0,0:0:0:0:
448,192,53709,1,0,0:0:0:0:
192,192,53859,1,0,0:0:0:0:
64,192,54009,1,0,0:0:0:0:
320,192,54009,1,0,0:0:0:0:
320,192,54159,1,0,0:0:0:0:
64,192,54309,1,0,0:0:0:0:
448,192,54309,1,0,0:0:0:0:
192,192,54409,1,0,0:0:0:0:
320,192,54509,1,0,0:0:0:0:
64,192,54609,1,0,0:0:0:0:
448,192,54709,1,0,0:0:0:0:
320,192,54809,1,0,0:0:0:0:
192,192,54909,1,0,0:0:0:0:
448,192,55009,1,0,0:0:0:0:
64,192,55109,1,0,0:0:0:0:
192,192,55209,1,0,0:0:0:0:
320,192,55309,1,0,0:0:0:0:
64,192,55409,1,0,0:0:0:0:
448,192,55509,1,0,0:0:0:0:
320,192,55584,1,0,0:0:0:0:
192,192,55659,1,0,0:0:0:0:
64,192,55809,1,0,0:0:0:0:
192,192,55884,1,0,0:0:0:0:
320,192,55959,1,0,0:0:0:0:
448,192,56109,1,0,0:0:0:0:
320,192,56184,1,0,0:0:0:0:
192,192,56259,1,0,0:0:0:0:
64,192,56409,1,0,0:0:0:0:
192,192,56484,1,0,0:0:0:0:
320,192,56559,1,0,0:0:0:0:
64,192,56709,1,0,0:0:0:0:
448,192,56709,1,0,0:0:0:0:
192,192,57609,1,0,0:0:0:0:
320,192,57609,1,0,0:0:0:0:
64,192,57909,128,0,58359:0:0:0:0:
448,192,57909,1,0,0:0:0:0:
320,192,58359,128,0,58809:0:0:0:0:
64,192,58659,1,0,0:0:0:0:
192,192,58809,128,0,59109:0:0:0:0:
448,192,58959,1,0,0:0:0:0:
320,192,59109,128,0,59559:0:0:0:0:
64,192,59559,128,0,60009:0:0:0:0:
192,192,59859,1,0,0:0:0:0:
448,192,60009,128,0,60309:0:0:0:0:
320,192,60159,1,0,0:0:0:0:
192,192,60309,128,0,60759:0:0:0:0:
320,192,60759,128,0,61209:0:0:0:0:
448,192,61059,1,0,0:0:0:0:
64,192,61209,128,0,61509:0:0:0:0:
192,192,61359,1,0,0:0:0:0:
448,192,61509,128,0,61959:0:0:0:0:
192,192,61959,128,0,62409:0:0:0:0:
64,192,62259,1,0,0:0:0:0:
320,192,62409,128,0,62709:0:0:0:0:
64,192,62709,128,0,63159:0:0:0:0:
448,192,63159,128,0,63609:0:0:0:0:
192,192,63459,1,0,0:0:0:0:
320,192,63609,128,0,63909:0:0:0:0:
64,192,63759,1,0,0:0:0:0:
192,192,63909,128,0,64359:0:0:0:0:
64,192,64359,128,0,64809:0:0:0:0:
320,192,64659,1,0,0:0:0:0:
192,192,64809,128,0,65109:0:0:0:0:
448,192,64959,1,0,0:0:0:0:
320,192,65109,128,0,65559:0:0:0:0:
448,192,65559,128,0,66009:0:0:0:0:
64,192,65859,1,0,0:0:0:0:
192,192,66009,128,0,66309:0:0:0:0:
320,192,66159,1,0,0:0:0:0:
64,192,66309,128,0,66609:0:0:0:0:
320,192,66609,1,0,0:0:0:0:
448,192,66609,1,0,0:0:0:0:
64,192,67059,1,0,0:0:0:0:
192,192,67059,1,0,0:0:0:0:
192,192,67359,1,0,0:0:0:0:
320,192,67359,1,0,0:0:0:0:
64,192,67509,1,0,0:0:0:0:
448,192,67509,1,0,0:0:0:0:
192,192,67809,1,0,0:0:0:0:
320,192,67809,1,0,0:0:0:0:
64,192,68109,1,0,0:0:0:0:
448,192,68109,1,0,0:0:0:0:
320,192,68259,1,0,0:0:0:0:
64,192,68409,1,0,0:0:0:0:
192,192,68409,1,0,0:0:0:0:
448,192,68559,1,0,0:0:0:0:
320,192,68709,1,0,0:0:0:0:
192,192,68709,1,0,0:0:0:0:
448,192,69009,1,0,0:0:0:0:
64,192,69009,1,0,0:0:0:0:
320,192,69309,1,0,0:0:0:0:
192,192,69309,1,0,0:0:0:0:
64,192,69459,1,0,0:0:0:0:
448,192,69609,1,0,0:0:0:0:
320,192,69609,1,0,0:0:0:0:
320,192,69759,1,0,0:0:0:0:
64,192,69909,1,0,0:0:0:0:
192,192,69909,1,0,0:0:0:0:
448,192,70209,1,0,0:0:0:0:
320,192,70209,1,0,0:0:0:0:
64,192,70509,1,0,0:0:0:0:
192,192,70509,1,0,0:0:0:0:
320,192,70659,1,0,0:0:0:0:
448,192,70809,1,0,0:0:0:0:
64,192,70809,1,0,0:0:0:0:
192,192,70959,1,0,0:0:0:0:
320,192,71109,1,0,0:0:0:0:
448,192,71109,1,0,0:0:0:0:
320,192,71409,1,0,0:0:0:0:
192,192,71409,1,0,0:0:0:0:
64,192,71709,1,0,0:0:0:0:
192,192,71709,1,0,0:0:0:0:
64,192,71859,1,0,0:0:0:0:
448,192,71859,1,0,0:0:0:0:
320,192,72009,1,0,0:0:0:0:
192,192,72009,128,0,72309:0:0:0:0:
64,192,72309,1,0,0:0:0:0:
448,192,72309,128,0,72609:0:0:0:0:
320,192,72609,1,0,0:0:0:0:
64,192,72609,128,0,72909:0:0:0:0:
192,192,72909,1,0,0:0:0:0:
448,192,72909,1,0,0:0:0:0:
320,192,73059,1,0,0:0:0:0:
448,192,73209,1,0,0:0:0:0:
64,192,73209,1,0,0:0:0:0:
192,192,73359,1,0,0:0:0:0:
320,192,73509,1,0,0:0:0:0:
64,192,73509,1,0,0:0:0:0:
192,192,73809,1,0,0:0:0:0:
448,192,73809,1,0,0:0:0:0:
64,192,74109,1,0,0:0:0:0:
320,192,74109,1,0,0:0:0:0:
192,192,74259,1,0,0:0:0:0:
320,192,74409,1,0,0:0:0:0:
448,192,74409,1,0,0:0:0:0:
448,192,74559,1,0,0:0:0:0:
64,192,74709,1,0,0:0:0:0:
192,192,74709,1,0,0:0:0:0:
448,192,75009,1,0,0:0:0:0:
320,192,75009,1,0,0:0:0:0:
192,192,75309,1,0,0:0:0:0:
64,192,75309,1,0,0:0:0:0:
320,192,75459,1,0,0:0:0:0:
448,192,75609,1,0,0:0:0:0:
64,192,75609,1,0,0:0:0:0:
192,192,75759,1,0,0:0:0:0:
64,192,75909,1,0,0:0:0:0:
320,192,75909,1,0,0:0:0:0:
192,192,76209,1,0,0:0:0:0:
448,192,76209,1,0,0:0:0:0:
320,192,76509,1,0,0:0:0:0:
64,192,76509,1,0,0:0:0:0:
448,192,76809,128,0,77109:0:0:0:0:
64,192,76809,1,0,0:0:0:0:
64,192,77109,1,0,0:0:0:0:
320,192,77109,128,0,77409:0:0:0:0:
192,192,77259,1,0,0:0:0:0:
448,192,77409,1,0,0:0:0:0:
192,192,77559,1,0,0:0:0:0:
64,192,77709,1,0,0:0:0:0:
448,192,77709,128,0,78009:0:0:0:0:
320,192,77859,1,0,0:0:0:0:
64,192,78009,1,0,0:0:0:0:
320,192,78159,1,0,0:0:0:0:
192,192,78309,1,0,0:0:0:0:
64,192,78309,128,0,78609:0:0:0:0:
448,192,78459,1,0,0:0:0:0:
192,192,78609,1,0,0:0:0:0:
448,192,78759,1,0,0:0:0:0:
320,192,78909,1,0,0:0:0:0:
192,192,78909,128,0,79209:0:0:0:0:
64,192,79059,1,0,0:0:0:0:
320,192,79209,1,0,0:0:0:0:
192,192,79359,1,0,0:0:0:0:
448,192,79509,1,0,0:0:0:0:
320,192,79509,128,0,79809:0:0:0:0:
64,192,79659,1,0,0:0:0:0:
448,192,79809,1,0,0:0:0:0:
64,192,79959,1,0,0:0:0:0:
192,192,80109,1,0,0:0:0:0:
448,192,80109,128,0,80409:0:0:0:0:
320,192,80259,1,0,0:0:0:0:
192,192,80409,1,0,0:0:0:0:
320,192,80559,1,0,0:0:0:0:
64,192,80709,1,0,0:0:0:0:
192,192,80709,128,0,81009:0:0:0:0:
448,192,80859,1,0,0:0:0:0:
64,192,81009,1,0,0:0:0:0:
448,192,81159,1,0,0:0:0:0:
320,192,81309,1,0,0:0:0:0:
64,192,81309,128,0,81609:0:0:0:0:
192,192,81459,1,0,0:0:0:0:
320,192,81609,128,0,81909:0:0:0:0:
448,192,81909,1,0,0:0:0:0:
64,192,81909,1,0,0:0:0:0:
192,192,81984,1,0,0:0:0:0:
320,192,82059,1,0,0:0:0:0:
448,192,82209,1,0,0:0:0:0:
64,192,82209,1,0,0:0:0:0:
320,192,82284,1,0,0:0:0:0:
192,192,82359,1,0,0:0:0:0:
64,192,82509,1,0,0:0:0:0:
448,192,82509,1,0,0:0:0:0:
192,192,82584,1,0,0:0:0:0:
320,192,82659,1,0,0:0:0:0:
448,192,82809,1,0,0:0:0:0:
64,192,82809,1,0,0:0:0:0:
320,192,82884,1,0,0:0:0:0:
192,192,82959,1,0,0:0:0:0:
64,192,83109,1,0,0:0:0:0:
192,192,83109,1,0,0:0:0:0:
320,192,83184,1,0,0:0:0:0:
448,192,83259,1,0,0:0:0:0:
448,192,83409,1,0,0:0:0:0:
320,192,83409,1,0,0:0:0:0:
192,192,83484,1,0,0:0:0:0:
64,192,83559,1,0,0:0:0:0:
64,192,83709,1,0,0:0:0:0:
192,192,83709,1,0,0:0:0:0:
320,192,83784,1,0,0:0:0:0:
448,192,83859,1,0,0:0:0:0:
320,192,84009,1,0,0:0:0:0:
448,192,84009,1,0,0:0:0:0:
192,192,84084,1,0,0:0:0:0:
64,192,84159,1,0,0:0:0:0:
448,192,84309,1,0,0:0:0:0:
192,192,84309,1,0,0:0:0:0:
320,192,84384,1,0,0:0:0:0:
192,192,84459,1,0,0:0:0:0:
64,192,84609,1,0,0:0:0:0:
320,192,84609,1,0,0:0:0:0:
192,192,84684,1,0,0:0:0:0:
320,192,84759,1,0,0:0:0:0:
448,192,84909,1,0,0:0:0:0:
192,192,84909,1,0,0:0:0:0:
320,192,84984,1,0,0:0:0:0:
192,192,85059,1,0,0:0:0:0:
64,192,85209,1,0,0:0:0:0:
320,192,85209,1,0,0:0:0:0:
192,192,85284,1,0,0:0:0:0:
320,192,85359,1,0,0:0:0:0:
64,192,85509,128,0,86109:0:0:0:0:
448,192,85509,1,0,0:0:0:0:
192,192,86109,1,0,0:0:0:0:
448,192,86109,128,0,86709:0:0:0:0:
320,192,86409,128,0,86709:0:0:0:0:
64,192,86709,1,0,0:0:0:0:
192,192,86709,1,0,0:0:0:0:
448,192,86859,1,0,0:0:0:0:
64,192,87009,1,0,0:0:0:0:
320,192,87009,1,0,0:0:0:0:
192,192,87159,1,0,0:0:0:0:
320,192,87309,1,0,0:0:0:0:
448,192,87309,1,0,0:0:0:0:
64,192,87459,1,0,0:0:0:0:
64,192,87609,1,0,0:0:0:0:
320,192,87609,1,0,0:0:0:0:
320,192,87759,1,0,0:0:0:0:
448,192,87909,1,0,0:0:0:0:
192,192,87909,1,0,0:0:0:0:
64,192,88059,1,0,0:0:0:0:
320,192,88209,1,0,0:0:0:0:
448,192,88209,1,0,0:0:0:0:
192,192,88359,1,0,0:0:0:0:
320,192,88509,1,0,0:0:0:0:
64,192,88509,1,0,0:0:0:0:
448,192,88659,1,0,0:0:0:0:
192,192,88809,1,0,0:0:0:0:
448,192,88809,1,0,0:0:0:0:
192,192,88959,1,0,0:0:0:0:
64,192,89109,1,0,0:0:0:0:
320,192,89109,1,0,0:0:0:0:
448,192,89259,1,0,0:0:0:0:
192,192,89409,1,0,0:0:0:0:
64,192,89409,1,0,0:0:0:0:
320,192,89559,1,0,0:0:0:0:
448,192,89709,1,0,0:0:0:0:
64,192,89709,1,0,0:0:0:0:
192,192,89859,1,0,0:0:0:0:
192,192,90009,1,0,0:0:0:0:
320,192,90009,1,0,0:0:0:0:
320,192,90159,1,0,0:0:0:0:
64,192,90309,1,0,0:0:0:0:
448,192,90309,1,0,0:0:0:0:
192,192,90459,1,0,0:0:0:0:
448,192,90609,1,0,0:0:0:0:
320,192,90609,1,0,0:0:0:0:
64,192,90759,1,0,0:0:0:0:
192,192,90909,1,0,0:0:0:0:
320,192,90909,1,0,0:0:0:0:
448,192,91059,1,0,0:0:0:0:
448,192,91209,1,0,0:0:0:0:
64,192,91209,128,0,91509:0:0:0:0:
448,192,91509,1,0,0:0:0:0:
320,192,91509,1,0,0:0:0:0:
192,192,91659,1,0,0:0:0:0:
448,192,91809,1,0,0:0:0:0:
64,192,91809,1,0,0:0:0:0:
320,192,91959,1,0,0:0:0:0:
192,192,92109,1,0,0:0:0:0:
64,192,92109,1,0,0:0:0:0:
448,192,92259,1,0,0:0:0:0:
448,192,92409,1,0,0:0:0:0:
192,192,92409,1,0,0:0:0:0:
192,192,92559,1,0,0:0:0:0:
64,192,92709,1,0,0:0:0:0:
320,192,92709,1,0,0:0:0:0:
448,192,92859,1,0,0:0:0:0:
192,192,93009,1,0,0:0:0:0:
64,192,93009,1,0,0:0:0:0:
320,192,93159,1,0,0:0:0:0:
192,192,93309,1,0,0:0:0:0:
448,192,93309,1,0,0:0:0:0:
64,192,93459,1,0,0:0:0:0:
320,192,93609,1,0,0:0:0:0:
64,192,93609,1,0,0:0:0:0:
320,192,93759,1,0,0:0:0:0:
192,192,93909,128,0,94059:0:0:0:0:
448,192,93909,128,0,94059:0:0:0:0:
64,192,94059,1,0,0:0:0:0:
448,192,94209,1,0,0:0:0:0:
320,192,94209,1,0,0:0:0:0:
192,192,94359,1,0,0:0:0:0:
448,192,94509,128,0,94659:0:0:0:0:
64,192,94509,128,0,94659:0:0:0:0:
320,192,94659,1,0,0:0:0:0:
192,192,94809,1,0,0:0:0:0:
64,192,94809,1,0,0:0:0:0:
320,192,94959,1,0,0:0:0:0:
192,192,95034,1,0,0:0:0:0:
64,192,95109,1,0,0:0:0:0:
448,192,95109,128,0,95334:0:0:0:0:
192,192,95334,1,0,0:0:0:0:
320,192,95334,128,0,95559:0:0:0:0:
64,192,95559,1,0,0:0:0:0:
448,192,95559,1,0,0:0:0:0:
192,192,95709,128,0,96309:0:0:0:0:
320,192,95709,1,0,0:0:0:0:
320,192,96009,128,0,96309:0:0:0:0:
64,192,96309,1,0,0:0:0:0:
448,192,96309,1,0,0:0:0:0:
192,192,96459,1,0,0:0:0:0:
320,192,96609,1,0,0:0:0:0:
448,192,96609,1,0,0:0:0:0:
64,192,96759,1,0,0:0:0:0:
192,192,96909,1,0,0:0:0:0:
448,192,96909,1,0,0:0:0:0:
320,192,97059,1,0,0:0:0:0:
320,192,97209,1,0,0:0:0:0:
64,192,97209,1,0,0:0:0:0:
64,192,97359,1,0,0:0:0:0:
192,192,97509,1,0,0:0:0:0:
448,192,97509,1,0,0:0:0:0:
320,192,97659,1,0,0:0:0:0:
64,192,97809,1,0,0:0:0:0:
192,192,97809,1,0,0:0:0:0:
448,192,97959,1,0,0:0:0:0:
320,192,98109,1,0,0:0:0:0:
64,192,98109,1,0,0:0:0:0:
192,192,98259,1,0,0:0:0:0:
192,192,98409,1,0,0:0:0:0:
448,192,98409,1,0,0:0:0:0:
448,192,98559,1,0,0:0:0:0:
64,192,98709,1,0,0:0:0:0:
320,192,98709,1,0,0:0:0:0:
448,192,98859,1,0,0:0:0:0:
64,192,99009,1,0,0:0:0:0:
192,192,99009,1,0,0:0:0:0:
320,192,99159,1,0,0:0:0:0:
64,192,99309,1,0,0:0:0:0:
448,192,99309,1,0,0:0:0:0:
192,192,99459,1,0,0:0:0:0:
192,192,99609,1,0,0:0:0:0:
320,192,99609,1,0,0:0:0:0:
320,192,99759,1,0,0:0:0:0:
64,192,99909,1,0,0:0:0:0:
448,192,99909,1,0,0:0:0:0:
192,192,100059,1,0,0:0:0:0:
320,192,100209,1,0,0:0:0:0:
448,192,100209,1,0,0:0:0:0:
64,192,100359,1,0,0:0:0:0:
192,192,100509,1,0,0:0:0:0:
448,192,100509,1,0,0:0:0:0:
320,192,100659,1,0,0:0:0:0:
64,192,100809,128,0,101109:0:0:0:0:
192,192,100959,1,0,0:0:0:0:
320,192,101109,1,0,0:0:0:0:
448,192,101109,1,0,0:0:0:0:
192,192,101409,1,0,0:0:0:0:
64,192,101709,1,0,0:0:0:0:
192,192,101709,1,0,0:0:0:0:
448,192,101859,1,0,0:0:0:0:
320,192,102009,1,0,0:0:0:0:
192,192,102159,1,0,0:0:0:0:
64,192,102309,1,0,0:0:0:0:
448,192,102309,1,0,0:0:0:0:
320,192,102534,1,0,0:0:0:0:
192,192,102534,1,0,0:0:0:0:
320,192,102759,1,0,0:0:0:0:
448,192,102759,1,0,0:0:0:0:
192,192,102909,1,0,0:0:0:0:
64,192,102909,1,0,0:0:0:0:
320,192,103059,128,0,103209:0:0:0:0:
192,192,103209,128,0,103359:0:0:0:0:
448,192,103359,128,0,103509:0:0:0:0:
320,192,103509,1,0,0:0:0:0:
64,192,103509,1,0,0:0:0:0:
64,192,103659,1,0,0:0:0:0:
192,192,103809,1,0,0:0:0:0:
448,192,103809,1,0,0:0:0:0:
448,192,103959,1,0,0:0:0:0:
64,192,104109,1,0,0:0:0:0:
320,192,104109,1,0,0:0:0:0:
192,192,104259,1,0,0:0:0:0:
448,192,104409,1,0,0:0:0:0:
320,192,104409,1,0,0:0:0:0:
64,192,104559,1,0,0:0:0:0:
192,192,104709,1,0,0:0:0:0:
448,192,104709,1,0,0:0:0:0:
192,192,104859,1,0,0:0:0:0:
320,192,105009,1,0,0:0:0:0:
64,192,105009,1,0,0:0:0:0:
320,192,105159,1,0,0:0:0:0:
64,192,105309,1,0,0:0:0:0:
448,192,105309,1,0,0:0:0:0:
192,192,105459,1,0,0:0:0:0:
320,192,105609,1,0,0:0:0:0:
448,192,105609,1,0,0:0:0:0:
192,192,105759,1,0,0:0:0:0:
64,192,105909,128,0,111309:0:0:0:0:
448,192,105909,128,0,111309:0:0:0:0:
