osu file format v14

[General]
AudioFilename: audio.mp3
AudioLeadIn: 0
PreviewTime: 15315
Countdown: 1
SampleSet: None
StackLeniency: 0.7
Mode: 1
LetterboxInBreaks: 0
WidescreenStoryboard: 0

[Editor]
Bookmarks: 15401,26372,37344,59287,81230,103172,114144,125115,136087,147058
DistanceSpacing: 6
BeatDivisor: 4
GridSize: 32
TimelineZoom: 2.3

[Metadata]
Title:Odyssey (Au5 Remixx)
TitleUnicode:Odyssey (Au5 Remixx)
Artist:Akira Complex
ArtistUnicode:Akira Complex
Creator:tasuke912
Version:Oni
Source:
Tags:
BeatmapID:1766913
BeatmapSetID:844703

[Difficulty]
HPDrainRate:5
CircleSize:2
OverallDifficulty:5
ApproachRate:5
SliderMultiplier:1.4
SliderTickRate:1

[Events]
//Background and Video events
0,0,"bg.jpg",0,-60
//Break Periods
//Storyboard Layer 0 (Background)
//Storyboard Layer 1 (Fail)
//Storyboard Layer 2 (Pass)
//Storyboard Layer 3 (Foreground)
//Storyboard Sound Samples

[TimingPoints]
4431,342.857142857143,4,1,0,75,1,0
15402,-100,4,1,0,85,0,0
47545,-100,4,1,0,65,0,0
48231,-100,4,1,0,75,0,0
59288,-100,4,1,0,85,0,0
103173,-133.333333333333,4,1,0,85,0,1
119631,-133.333333333333,4,1,0,85,0,0
120316,-125,4,1,0,85,0,1
120659,-120.048019207683,4,1,0,85,0,1
120831,-117.647058823529,4,1,0,85,0,1
121173,-113.207589889657,4,1,0,85,0,1
121345,-111.111111111111,4,1,0,85,0,1
121688,-120.481927710843,4,1,0,85,0,1
121859,-123.456790123457,4,1,0,85,0,1
122031,-126.582278481013,4,1,0,85,0,1
122116,-128.205128205128,4,1,0,85,0,1
122202,-129.87012987013,4,1,0,85,0,1
122288,-131.578947368421,4,1,0,85,0,1
122373,-133.333333333333,4,1,0,85,0,1
122431,-132.59082471493,4,1,0,85,0,1
122488,-131.856540084388,4,1,0,85,0,1
122545,-131.1303435615,4,1,0,85,0,1
122716,-129.032258064516,4,1,0,85,0,1
122773,-128.205128205128,4,1,0,85,0,1
123059,-125,4,1,0,85,0,1
123402,-120.004800192008,4,1,0,85,0,1
123573,-117.647058823529,4,1,0,85,0,1
123916,-113.207974369715,4,1,0,85,0,1
124088,-111.111111111111,4,1,0,85,0,1
124431,-120.481927710843,4,1,0,85,0,0
124516,-121.951219512195,4,1,0,85,0,0
124602,-123.456790123457,4,1,0,85,0,0
124688,-125,4,1,0,85,0,0
124773,-126.582278481013,4,1,0,85,0,0
124945,-129.87012987013,4,1,0,85,0,0
125116,-133.333333333333,4,1,0,85,0,1
142259,-125,4,1,0,85,0,1
142602,-120.048019207683,4,1,0,85,0,1
142774,-117.647058823529,4,1,0,85,0,1
143116,-113.207589889657,4,1,0,85,0,1
143288,-111.111111111111,4,1,0,85,0,1
143631,-120.481927710843,4,1,0,85,0,1
143802,-123.456790123457,4,1,0,85,0,1
143973,-126.582278481013,4,1,0,85,0,1
144059,-128.205128205128,4,1,0,85,0,1
144145,-129.87012987013,4,1,0,85,0,1
144231,-131.578947368421,4,1,0,85,0,1
144315,-133.333333333333,4,1,0,85,0,1
144373,-132.59082471493,4,1,0,85,0,1
144431,-131.856540084388,4,1,0,85,0,1
144488,-131.147540983607,4,1,0,85,0,1
144659,-129.032258064516,4,1,0,85,0,1
144716,-128.336755646817,4,1,0,85,0,1
144773,-127.660117702629,4,1,0,85,0,1
144831,-126.984126984127,4,1,0,85,0,1
145002,-125,4,1,0,85,0,1
145345,-120.004800192008,4,1,0,85,0,1
145516,-117.647058823529,4,1,0,85,0,1
145859,-113.207974369715,4,1,0,85,0,1
146031,-111.111111111111,4,1,0,85,0,1
146373,-116.279069767442,4,1,0,85,0,1
146545,-119.047619047619,4,1,0,85,0,1
146716,-121.951219512195,4,1,0,85,0,1
146802,-123.456790123457,4,1,0,85,0,1
146888,-125,4,1,0,85,0,1
147059,-100,4,1,0,85,0,0

[HitObjects]
256,192,4430,5,0,0:0:0:0:
256,192,4773,1,2,0:0:0:0:
256,192,5288,1,0,0:0:0:0:
256,192,5459,1,2,0:0:0:0:
256,192,5631,1,0,0:0:0:0:
256,192,6145,1,2,0:0:0:0:
256,192,6831,1,2,0:0:0:0:
256,192,7173,1,0,0:0:0:0:
256,192,7516,1,2,0:0:0:0:
256,192,8031,1,0,0:0:0:0:
256,192,8202,1,2,0:0:0:0:
256,192,8373,1,0,0:0:0:0:
256,192,8716,1,0,0:0:0:0:
256,192,8888,1,2,0:0:0:0:
256,192,9145,1,2,0:0:0:0:
256,192,9316,1,2,0:0:0:0:
256,192,9402,1,0,0:0:0:0:
256,192,9573,1,2,0:0:0:0:
256,192,9659,1,0,0:0:0:0:
256,192,9916,1,0,0:0:0:0:
256,192,10259,1,2,0:0:0:0:
256,192,10431,1,2,0:0:0:0:
256,192,10773,1,0,0:0:0:0:
256,192,10945,1,2,0:0:0:0:
256,192,11116,1,0,0:0:0:0:
256,192,11459,1,0,0:0:0:0:
256,192,11631,1,2,0:0:0:0:
256,192,11802,1,2,0:0:0:0:
256,192,11888,1,2,0:0:0:0:
256,192,11973,1,2,0:0:0:0:
256,192,12145,1,0,0:0:0:0:
256,192,12316,1,2,0:0:0:0:
256,192,12488,1,2,0:0:0:0:
256,192,12659,1,0,0:0:0:0:
256,192,13002,1,2,0:0:0:0:
256,192,13173,1,0,0:0:0:0:
256,192,13516,1,2,0:0:0:0:
256,192,13859,1,4,0:0:0:0:
256,192,14716,1,2,0:0:0:0:
256,192,14802,1,2,0:0:0:0:
256,192,14888,1,2,0:0:0:0:
256,192,14973,1,2,0:0:0:0:
256,192,15059,1,2,0:0:0:0:
256,192,15231,1,2,0:0:0:0:
256,192,15402,1,4,0:0:0:0:
256,192,15745,1,2,0:0:0:0:
256,192,15916,1,0,0:0:0:0:
256,192,16259,1,0,0:0:0:0:
256,192,16431,1,2,0:0:0:0:
256,192,16602,1,2,0:0:0:0:
256,192,16688,1,2,0:0:0:0:
256,192,16773,1,0,0:0:0:0:
256,192,16945,1,0,0:0:0:0:
256,192,17116,1,2,0:0:0:0:
256,192,17288,1,0,0:0:0:0:
256,192,17373,1,0,0:0:0:0:
256,192,17459,1,2,0:0:0:0:
256,192,17631,1,0,0:0:0:0:
256,192,17802,1,2,0:0:0:0:
256,192,17973,1,2,0:0:0:0:
256,192,18145,1,0,0:0:0:0:
256,192,18488,1,2,0:0:0:0:
256,192,18659,1,0,0:0:0:0:
256,192,18831,1,2,0:0:0:0:
256,192,18916,1,0,0:0:0:0:
256,192,19002,1,0,0:0:0:0:
256,192,19173,1,2,0:0:0:0:
256,192,19345,1,0,0:0:0:0:
256,192,19431,1,2,0:0:0:0:
256,192,19516,1,0,0:0:0:0:
256,192,19688,1,0,0:0:0:0:
256,192,19859,1,2,0:0:0:0:
256,192,20031,1,0,0:0:0:0:
256,192,20116,1,2,0:0:0:0:
256,192,20202,1,2,0:0:0:0:
256,192,20288,1,2,0:0:0:0:
256,192,20373,1,0,0:0:0:0:
256,192,20545,1,2,0:0:0:0:
256,192,20631,1,0,0:0:0:0:
256,192,20888,1,0,0:0:0:0:
256,192,21231,1,2,0:0:0:0:
256,192,21402,1,0,0:0:0:0:
256,192,21488,1,0,0:0:0:0:
256,192,21573,1,2,0:0:0:0:
256,192,21745,1,0,0:0:0:0:
256,192,21916,1,2,0:0:0:0:
256,192,22088,1,2,0:0:0:0:
256,192,22173,1,2,0:0:0:0:
256,192,22259,1,0,0:0:0:0:
256,192,22431,1,2,0:0:0:0:
256,192,22602,1,0,0:0:0:0:
256,192,22773,1,2,0:0:0:0:
256,192,22859,1,0,0:0:0:0:
256,192,22945,1,2,0:0:0:0:
256,192,23031,1,2,0:0:0:0:
256,192,23116,1,0,0:0:0:0:
256,192,23288,1,2,0:0:0:0:
256,192,23459,1,0,0:0:0:0:
256,192,23545,1,0,0:0:0:0:
256,192,23631,1,0,0:0:0:0:
256,192,23888,1,0,0:0:0:0:
256,192,23973,1,2,0:0:0:0:
256,192,24145,1,0,0:0:0:0:
256,192,24316,1,2,0:0:0:0:
256,192,24402,1,2,0:0:0:0:
256,192,24488,1,0,0:0:0:0:
256,192,24659,1,2,0:0:0:0:
256,192,24831,1,0,0:0:0:0:
256,192,24916,1,2,0:0:0:0:
256,192,25002,1,0,0:0:0:0:
256,192,25173,1,2,0:0:0:0:
256,192,25345,1,0,0:0:0:0:
256,192,25516,1,0,0:0:0:0:
256,192,25602,1,0,0:0:0:0:
256,192,25688,1,2,0:0:0:0:
256,192,25859,1,0,0:0:0:0:
256,192,25945,1,0,0:0:0:0:
256,192,26031,1,2,0:0:0:0:
256,192,26116,1,2,0:0:0:0:
256,192,26202,1,0,0:0:0:0:
256,192,26288,1,0,0:0:0:0:
256,192,26373,1,0,0:0:0:0:
256,192,26716,1,2,0:0:0:0:
256,192,26888,1,0,0:0:0:0:
256,192,26973,1,0,0:0:0:0:
256,192,27059,1,0,0:0:0:0:
256,192,27231,1,2,0:0:0:0:
256,192,27402,1,0,0:0:0:0:
256,192,27573,1,2,0:0:0:0:
256,192,27916,1,2,0:0:0:0:
256,192,28088,1,0,0:0:0:0:
256,192,28259,1,2,0:0:0:0:
256,192,28345,1,2,0:0:0:0:
256,192,28431,1,2,0:0:0:0:
256,192,28602,1,0,0:0:0:0:
256,192,28773,1,2,0:0:0:0:
256,192,28859,1,2,0:0:0:0:
256,192,28945,1,0,0:0:0:0:
256,192,29031,1,0,0:0:0:0:
256,192,29116,1,0,0:0:0:0:
256,192,29288,1,0,0:0:0:0:
256,192,29459,1,2,0:0:0:0:
256,192,29631,1,0,0:0:0:0:
256,192,29716,1,2,0:0:0:0:
256,192,29802,1,0,0:0:0:0:
256,192,29973,1,2,0:0:0:0:
256,192,30145,1,0,0:0:0:0:
256,192,30231,1,0,0:0:0:0:
256,192,30316,1,2,0:0:0:0:
256,192,30488,1,2,0:0:0:0:
256,192,30659,1,0,0:0:0:0:
256,192,30831,1,2,0:0:0:0:
256,192,31002,1,0,0:0:0:0:
256,192,31088,1,2,0:0:0:0:
256,192,31173,1,2,0:0:0:0:
256,192,31345,1,0,0:0:0:0:
256,192,31516,1,2,0:0:0:0:
256,192,31602,1,0,0:0:0:0:
256,192,31773,1,0,0:0:0:0:
256,192,31859,1,0,0:0:0:0:
256,192,32202,1,2,0:0:0:0:
256,192,32373,1,0,0:0:0:0:
256,192,32545,1,2,0:0:0:0:
256,192,32631,1,2,0:0:0:0:
256,192,32716,1,0,0:0:0:0:
256,192,32888,1,2,0:0:0:0:
256,192,33059,1,0,0:0:0:0:
256,192,33145,1,2,0:0:0:0:
256,192,33231,1,0,0:0:0:0:
256,192,33402,1,0,0:0:0:0:
256,192,33573,1,2,0:0:0:0:
256,192,33745,1,0,0:0:0:0:
256,192,33831,1,2,0:0:0:0:
256,192,33916,1,2,0:0:0:0:
256,192,34088,1,0,0:0:0:0:
256,192,34259,1,2,0:0:0:0:
256,192,34431,1,2,0:0:0:0:
256,192,34516,1,2,0:0:0:0:
256,192,34602,1,0,0:0:0:0:
256,192,34773,1,0,0:0:0:0:
256,192,34945,1,2,0:0:0:0:
256,192,35116,1,0,0:0:0:0:
256,192,35202,1,2,0:0:0:0:
256,192,35288,1,0,0:0:0:0:
256,192,35373,1,0,0:0:0:0:
256,192,35459,1,2,0:0:0:0:
256,192,35631,1,2,0:0:0:0:
256,192,35802,1,0,0:0:0:0:
256,192,36059,1,0,0:0:0:0:
256,192,36145,1,2,0:0:0:0:
256,192,36231,1,2,0:0:0:0:
256,192,36316,1,0,0:0:0:0:
256,192,36402,1,2,0:0:0:0:
256,192,36488,1,0,0:0:0:0:
256,192,36659,1,2,0:0:0:0:
256,192,36745,1,2,0:0:0:0:
256,192,36831,1,0,0:0:0:0:
256,192,36916,1,0,0:0:0:0:
256,192,37002,1,2,0:0:0:0:
256,192,37088,1,2,0:0:0:0:
256,192,37173,1,2,0:0:0:0:
256,192,37259,1,2,0:0:0:0:
256,192,37345,5,0,0:0:0:0:
256,192,40088,1,2,0:0:0:0:
256,192,41459,1,2,0:0:0:0:
256,192,41973,1,2,0:0:0:0:
256,192,42488,1,2,0:0:0:0:
256,192,42659,1,2,0:0:0:0:
256,192,42745,1,2,0:0:0:0:
256,192,42831,1,0,0:0:0:0:
256,192,43173,1,2,0:0:0:0:
256,192,43516,1,2,0:0:0:0:
256,192,43859,1,0,0:0:0:0:
256,192,44031,1,2,0:0:0:0:
256,192,44373,1,2,0:0:0:0:
256,192,44545,1,0,0:0:0:0:
256,192,44888,1,2,0:0:0:0:
256,192,45059,1,0,0:0:0:0:
256,192,45231,1,2,0:0:0:0:
256,192,45402,1,2,0:0:0:0:
256,192,45488,1,2,0:0:0:0:
256,192,45573,1,0,0:0:0:0:
256,192,45916,1,2,0:0:0:0:
256,192,46088,1,0,0:0:0:0:
256,192,46259,1,2,0:0:0:0:
256,192,46431,1,0,0:0:0:0:
256,192,46602,1,0,0:0:0:0:
256,192,46773,1,2,0:0:0:0:
256,192,46859,1,2,0:0:0:0:
256,192,46945,1,2,0:0:0:0:
256,192,47116,1,2,0:0:0:0:
256,192,47202,1,2,0:0:0:0:
256,192,47288,1,0,0:0:0:0:
256,192,47373,1,0,0:0:0:0:
256,192,47459,1,0,0:0:0:0:
119,112,47631,2,0,L|338:65,1,210
256,192,48316,1,0,0:0:0:0:
256,192,49002,1,0,0:0:0:0:
256,192,49688,1,0,0:0:0:0:
256,192,50373,1,0,0:0:0:0:
256,192,51059,1,0,0:0:0:0:
256,192,51745,1,0,0:0:0:0:
256,192,52431,1,0,0:0:0:0:
256,192,53116,1,0,0:0:0:0:
256,192,53802,1,0,0:0:0:0:
256,192,54145,1,0,0:0:0:0:
256,192,54488,1,0,0:0:0:0:
256,192,54831,1,0,0:0:0:0:
256,192,55173,1,0,0:0:0:0:
256,192,55516,1,0,0:0:0:0:
256,192,55859,1,0,0:0:0:0:
256,192,56202,1,0,0:0:0:0:
256,192,56545,1,0,0:0:0:0:
256,192,56716,1,0,0:0:0:0:
256,192,56888,1,0,0:0:0:0:
256,192,57059,1,0,0:0:0:0:
256,192,57231,1,0,0:0:0:0:
256,192,57316,1,0,0:0:0:0:
256,192,57402,1,0,0:0:0:0:
256,192,57488,1,0,0:0:0:0:
256,192,57573,1,0,0:0:0:0:
256,192,57659,1,0,0:0:0:0:
256,192,57745,1,0,0:0:0:0:
256,192,57831,1,0,0:0:0:0:
256,192,57916,1,2,0:0:0:0:
256,192,58002,1,2,0:0:0:0:
256,192,58088,1,0,0:0:0:0:
256,192,58173,1,2,0:0:0:0:
256,192,58259,1,0,0:0:0:0:
256,192,58345,1,0,0:0:0:0:
256,192,58431,1,2,0:0:0:0:
256,192,58516,1,0,0:0:0:0:
256,192,58602,1,0,0:0:0:0:
256,192,58688,1,2,0:0:0:0:
256,192,58773,1,0,0:0:0:0:
256,192,58859,1,0,0:0:0:0:
256,192,58945,1,2,0:0:0:0:
256,192,59031,1,2,0:0:0:0:
256,192,59116,1,0,0:0:0:0:
256,192,59288,5,4,0:0:0:0:
256,192,59631,1,2,0:0:0:0:
256,192,59802,1,0,0:0:0:0:
256,192,60059,1,0,0:0:0:0:
256,192,60145,1,2,0:0:0:0:
256,192,60316,1,2,0:0:0:0:
256,192,60488,1,0,0:0:0:0:
256,192,60745,1,2,0:0:0:0:
256,192,60831,1,0,0:0:0:0:
256,192,61002,1,2,0:0:0:0:
256,192,61173,1,0,0:0:0:0:
256,192,61259,1,2,0:0:0:0:
256,192,61431,1,2,0:0:0:0:
256,192,61516,1,0,0:0:0:0:
256,192,61602,1,0,0:0:0:0:
256,192,61688,1,2,0:0:0:0:
256,192,61859,1,2,0:0:0:0:
256,192,61945,1,2,0:0:0:0:
256,192,62031,1,0,0:0:0:0:
256,192,62288,1,0,0:0:0:0:
256,192,62373,1,2,0:0:0:0:
256,192,62545,1,0,0:0:0:0:
256,192,62716,1,2,0:0:0:0:
256,192,62802,1,2,0:0:0:0:
256,192,62888,1,0,0:0:0:0:
256,192,63059,1,2,0:0:0:0:
256,192,63231,1,0,0:0:0:0:
256,192,63316,1,2,0:0:0:0:
256,192,63573,1,0,0:0:0:0:
256,192,63745,1,2,0:0:0:0:
256,192,63831,1,0,0:0:0:0:
256,192,64002,1,0,0:0:0:0:
256,192,64088,1,2,0:0:0:0:
256,192,64173,1,2,0:0:0:0:
256,192,64259,1,0,0:0:0:0:
256,192,64345,1,0,0:0:0:0:
256,192,64431,1,2,0:0:0:0:
256,192,64516,1,0,0:0:0:0:
256,192,64602,1,0,0:0:0:0:
256,192,64688,1,2,0:0:0:0:
256,192,64773,1,0,0:0:0:0:
256,192,65116,1,2,0:0:0:0:
256,192,65288,1,0,0:0:0:0:
256,192,65545,1,0,0:0:0:0:
256,192,65631,1,2,0:0:0:0:
256,192,65802,1,2,0:0:0:0:
256,192,65973,1,0,0:0:0:0:
256,192,66145,1,2,0:0:0:0:
256,192,66231,1,2,0:0:0:0:
256,192,66316,1,0,0:0:0:0:
256,192,66488,1,2,0:0:0:0:
256,192,66659,1,0,0:0:0:0:
256,192,66831,1,0,0:0:0:0:
256,192,66945,1,0,0:0:0:0:
256,192,67059,1,0,0:0:0:0:
256,192,67173,1,2,0:0:0:0:
256,192,67288,1,2,0:0:0:0:
256,192,67402,1,2,0:0:0:0:
256,192,67516,1,0,0:0:0:0:
256,192,67688,1,0,0:0:0:0:
256,192,67859,1,2,0:0:0:0:
256,192,68031,1,0,0:0:0:0:
256,192,68116,1,2,0:0:0:0:
256,192,68202,1,0,0:0:0:0:
256,192,68373,1,2,0:0:0:0:
256,192,68459,1,0,0:0:0:0:
256,192,68545,1,2,0:0:0:0:
256,192,68631,1,2,0:0:0:0:
256,192,68716,1,0,0:0:0:0:
256,192,68888,1,2,0:0:0:0:
256,192,69059,1,2,0:0:0:0:
256,192,69231,1,0,0:0:0:0:
256,192,69316,1,2,0:0:0:0:
256,192,69573,1,2,0:0:0:0:
256,192,69745,1,0,0:0:0:0:
256,192,69916,1,2,0:0:0:0:
256,192,70002,1,2,0:0:0:0:
256,192,70088,1,0,0:0:0:0:
256,192,70259,1,0,0:0:0:0:
256,192,70602,1,2,0:0:0:0:
256,192,70773,1,0,0:0:0:0:
256,192,71031,1,0,0:0:0:0:
256,192,71116,1,2,0:0:0:0:
256,192,71288,1,2,0:0:0:0:
256,192,71459,1,0,0:0:0:0:
256,192,71716,1,2,0:0:0:0:
256,192,71802,1,0,0:0:0:0:
256,192,71973,1,2,0:0:0:0:
256,192,72145,1,2,0:0:0:0:
256,192,72231,1,2,0:0:0:0:
256,192,72402,1,2,0:0:0:0:
256,192,72488,1,0,0:0:0:0:
256,192,72573,1,0,0:0:0:0:
256,192,72659,1,2,0:0:0:0:
256,192,72831,1,2,0:0:0:0:
256,192,72916,1,2,0:0:0:0:
256,192,73002,1,0,0:0:0:0:
256,192,73259,1,0,0:0:0:0:
256,192,73345,1,2,0:0:0:0:
256,192,73516,1,0,0:0:0:0:
256,192,73688,1,2,0:0:0:0:
256,192,73745,1,2,0:0:0:0:
256,192,73802,1,2,0:0:0:0:
256,192,73859,1,0,0:0:0:0:
256,192,74031,1,2,0:0:0:0:
256,192,74202,1,0,0:0:0:0:
256,192,74288,1,2,0:0:0:0:
256,192,74459,1,2,0:0:0:0:
256,192,74545,1,0,0:0:0:0:
256,192,74716,1,2,0:0:0:0:
256,192,74888,1,0,0:0:0:0:
256,192,74973,1,0,0:0:0:0:
256,192,75059,1,2,0:0:0:0:
256,192,75145,1,2,0:0:0:0:
256,192,75231,1,0,0:0:0:0:
256,192,75316,1,0,0:0:0:0:
256,192,75402,1,2,0:0:0:0:
256,192,75488,1,0,0:0:0:0:
256,192,75573,1,0,0:0:0:0:
256,192,75659,1,2,0:0:0:0:
256,192,75745,1,0,0:0:0:0:
256,192,76002,1,0,0:0:0:0:
256,192,76088,1,2,0:0:0:0:
256,192,76173,1,2,0:0:0:0:
256,192,76259,1,0,0:0:0:0:
256,192,76516,1,0,0:0:0:0:
256,192,76602,1,2,0:0:0:0:
256,192,76773,1,2,0:0:0:0:
256,192,76945,1,2,0:0:0:0:
256,192,77031,1,0,0:0:0:0:
256,192,77116,1,2,0:0:0:0:
256,192,77202,1,2,0:0:0:0:
256,192,77288,1,0,0:0:0:0:
256,192,77459,1,2,0:0:0:0:
256,192,77631,1,0,0:0:0:0:
256,192,77716,1,2,0:0:0:0:
256,192,77802,1,0,0:0:0:0:
256,192,77916,1,0,0:0:0:0:
256,192,78031,1,0,0:0:0:0:
256,192,78145,1,2,0:0:0:0:
256,192,78259,1,2,0:0:0:0:
256,192,78373,1,2,0:0:0:0:
256,192,78488,1,0,0:0:0:0:
256,192,78659,1,0,0:0:0:0:
256,192,78831,1,2,0:0:0:0:
256,192,79002,1,0,0:0:0:0:
256,192,79088,1,2,0:0:0:0:
256,192,79173,1,0,0:0:0:0:
256,192,79345,1,2,0:0:0:0:
256,192,79516,1,2,0:0:0:0:
256,192,79602,1,2,0:0:0:0:
256,192,79688,1,0,0:0:0:0:
256,192,79773,1,0,0:0:0:0:
256,192,79859,1,2,0:0:0:0:
256,192,80031,1,2,0:0:0:0:
256,192,80202,1,0,0:0:0:0:
256,192,80373,1,0,0:0:0:0:
256,192,80545,1,2,0:0:0:0:
256,192,81231,5,0,0:0:0:0:
256,192,81573,1,2,0:0:0:0:
256,192,81831,1,0,0:0:0:0:
256,192,82002,1,2,0:0:0:0:
256,192,82088,1,0,0:0:0:0:
256,192,82259,1,2,0:0:0:0:
256,192,82516,1,0,0:0:0:0:
256,192,82688,1,2,0:0:0:0:
256,192,82773,1,0,0:0:0:0:
256,192,82945,1,2,0:0:0:0:
256,192,83116,1,2,0:0:0:0:
256,192,83202,1,0,0:0:0:0:
256,192,83288,1,2,0:0:0:0:
256,192,83373,1,2,0:0:0:0:
256,192,83459,1,0,0:0:0:0:
256,192,83631,1,2,0:0:0:0:
256,192,83973,1,0,0:0:0:0:
256,192,84231,1,0,0:0:0:0:
256,192,84316,1,2,0:0:0:0:
256,192,84373,1,2,0:0:0:0:
256,192,84431,1,2,0:0:0:0:
256,192,84488,1,0,0:0:0:0:
256,192,84659,1,2,0:0:0:0:
256,192,84831,1,0,0:0:0:0:
256,192,84916,1,0,0:0:0:0:
256,192,85002,1,2,0:0:0:0:
256,192,85059,1,2,0:0:0:0:
256,192,85116,1,2,0:0:0:0:
256,192,85173,1,0,0:0:0:0:
256,192,85259,1,2,0:0:0:0:
256,192,85431,1,2,0:0:0:0:
256,192,85516,1,0,0:0:0:0:
256,192,85602,1,0,0:0:0:0:
256,192,85688,1,2,0:0:0:0:
256,192,85859,1,0,0:0:0:0:
256,192,85945,1,2,0:0:0:0:
256,192,86116,1,2,0:0:0:0:
256,192,86202,1,0,0:0:0:0:
256,192,86288,1,0,0:0:0:0:
256,192,86373,1,2,0:0:0:0:
256,192,86459,1,0,0:0:0:0:
256,192,86716,1,0,0:0:0:0:
256,192,86973,1,0,0:0:0:0:
256,192,87059,1,2,0:0:0:0:
256,192,87316,1,0,0:0:0:0:
256,192,87488,1,2,0:0:0:0:
256,192,87573,1,0,0:0:0:0:
256,192,87659,1,0,0:0:0:0:
256,192,87745,1,2,0:0:0:0:
256,192,87916,1,2,0:0:0:0:
256,192,88002,1,0,0:0:0:0:
256,192,88145,1,2,0:0:0:0:
256,192,88202,1,2,0:0:0:0:
256,192,88259,1,0,0:0:0:0:
256,192,88431,1,2,0:0:0:0:
256,192,88688,1,0,0:0:0:0:
256,192,88773,1,2,0:0:0:0:
256,192,88859,1,2,0:0:0:0:
256,192,88945,1,0,0:0:0:0:
256,192,89002,1,0,0:0:0:0:
256,192,89059,1,0,0:0:0:0:
256,192,89116,1,2,0:0:0:0:
256,192,89288,1,2,0:0:0:0:
256,192,89373,1,2,0:0:0:0:
256,192,89459,1,0,0:0:0:0:
256,192,89716,1,0,0:0:0:0:
256,192,89802,1,2,0:0:0:0:
256,192,89859,1,2,0:0:0:0:
256,192,89916,1,2,0:0:0:0:
256,192,89973,1,0,0:0:0:0:
256,192,90145,1,2,0:0:0:0:
256,192,90316,1,2,0:0:0:0:
256,192,90402,1,2,0:0:0:0:
256,192,90488,1,0,0:0:0:0:
256,192,90545,1,2,0:0:0:0:
256,192,90602,1,2,0:0:0:0:
256,192,90659,1,0,0:0:0:0:
256,192,90745,1,2,0:0:0:0:
256,192,90916,1,2,0:0:0:0:
256,192,91002,1,0,0:0:0:0:
256,192,91088,1,0,0:0:0:0:
256,192,91173,1,2,0:0:0:0:
256,192,91259,1,2,0:0:0:0:
256,192,91345,1,0,0:0:0:0:
256,192,91431,1,2,0:0:0:0:
256,192,91516,1,0,0:0:0:0:
256,192,91859,1,2,0:0:0:0:
256,192,91945,1,2,0:0:0:0:
256,192,92031,1,0,0:0:0:0:
256,192,92116,1,0,0:0:0:0:
256,192,92202,1,0,0:0:0:0:
256,192,92459,1,0,0:0:0:0:
256,192,92545,1,2,0:0:0:0:
256,192,92802,1,0,0:0:0:0:
256,192,92973,1,2,0:0:0:0:
256,192,93059,1,0,0:0:0:0:
256,192,93231,1,2,0:0:0:0:
256,192,93316,1,2,0:0:0:0:
256,192,93488,1,0,0:0:0:0:
256,192,93659,1,2,0:0:0:0:
256,192,93745,1,0,0:0:0:0:
256,192,93916,1,2,0:0:0:0:
256,192,94088,1,2,0:0:0:0:
256,192,94173,1,0,0:0:0:0:
256,192,94259,1,2,0:0:0:0:
256,192,94345,1,2,0:0:0:0:
256,192,94431,1,0,0:0:0:0:
256,192,94488,1,0,0:0:0:0:
256,192,94545,1,0,0:0:0:0:
256,192,94602,1,2,0:0:0:0:
256,192,94773,1,2,0:0:0:0:
256,192,94859,1,2,0:0:0:0:
256,192,94945,1,0,0:0:0:0:
256,192,95202,1,0,0:0:0:0:
256,192,95288,1,2,0:0:0:0:
256,192,95345,1,2,0:0:0:0:
256,192,95402,1,2,0:0:0:0:
256,192,95459,1,0,0:0:0:0:
256,192,95631,1,2,0:0:0:0:
256,192,95802,1,0,0:0:0:0:
256,192,95888,1,0,0:0:0:0:
256,192,95973,1,2,0:0:0:0:
256,192,96031,1,2,0:0:0:0:
256,192,96088,1,2,0:0:0:0:
256,192,96145,1,0,0:0:0:0:
256,192,96231,1,2,0:0:0:0:
256,192,96402,1,2,0:0:0:0:
256,192,96488,1,0,0:0:0:0:
256,192,96573,1,0,0:0:0:0:
256,192,96659,1,2,0:0:0:0:
256,192,96831,1,0,0:0:0:0:
256,192,96916,1,2,0:0:0:0:
256,192,97088,1,2,0:0:0:0:
256,192,97173,1,0,0:0:0:0:
256,192,97259,1,2,0:0:0:0:
256,192,97345,1,2,0:0:0:0:
256,192,97431,1,0,0:0:0:0:
256,192,97602,1,2,0:0:0:0:
256,192,97688,1,0,0:0:0:0:
256,192,97945,1,0,0:0:0:0:
256,192,98031,1,2,0:0:0:0:
256,192,98288,1,0,0:0:0:0:
256,192,98459,1,2,0:0:0:0:
256,192,98545,1,0,0:0:0:0:
256,192,98716,1,2,0:0:0:0:
256,192,98802,1,2,0:0:0:0:
256,192,98973,1,0,0:0:0:0:
256,192,99116,1,2,0:0:0:0:
256,192,99173,1,2,0:0:0:0:
256,192,99231,1,0,0:0:0:0:
256,192,99402,1,2,0:0:0:0:
256,192,99659,1,0,0:0:0:0:
256,192,99745,1,2,0:0:0:0:
256,192,99831,1,2,0:0:0:0:
256,192,99916,1,0,0:0:0:0:
256,192,99973,1,0,0:0:0:0:
256,192,100031,1,0,0:0:0:0:
256,192,100088,1,2,0:0:0:0:
256,192,100173,1,0,0:0:0:0:
256,192,100259,1,2,0:0:0:0:
256,192,100345,1,2,0:0:0:0:
256,192,100431,1,0,0:0:0:0:
256,192,100688,1,0,0:0:0:0:
256,192,100773,1,2,0:0:0:0:
256,192,100831,1,2,0:0:0:0:
256,192,100888,1,2,0:0:0:0:
256,192,100945,1,0,0:0:0:0:
256,192,101116,1,2,0:0:0:0:
256,192,101288,1,2,0:0:0:0:
256,192,101373,1,2,0:0:0:0:
256,192,101459,1,0,0:0:0:0:
256,192,101516,1,2,0:0:0:0:
256,192,101573,1,2,0:0:0:0:
256,192,101631,1,0,0:0:0:0:
256,192,101802,1,2,0:0:0:0:
256,192,101973,1,2,0:0:0:0:
256,192,102145,1,0,0:0:0:0:
256,192,102316,1,0,0:0:0:0:
256,192,102488,1,2,0:0:0:0:
256,192,103173,5,4,0:0:0:0:
256,192,103688,1,0,0:0:0:0:
256,192,103859,1,2,0:0:0:0:
256,192,104202,1,2,0:0:0:0:
256,192,104373,1,0,0:0:0:0:
256,192,104716,1,2,0:0:0:0:
256,192,104888,1,0,0:0:0:0:
256,192,105059,1,0,0:0:0:0:
256,192,105116,1,0,0:0:0:0:
256,192,105173,1,0,0:0:0:0:
256,192,105231,1,2,0:0:0:0:
256,192,105402,1,0,0:0:0:0:
256,192,105573,1,2,0:0:0:0:
256,192,105631,1,2,0:0:0:0:
256,192,105688,1,2,0:0:0:0:
256,192,105745,1,2,0:0:0:0:
256,192,105802,1,2,0:0:0:0:
256,192,105859,1,2,0:0:0:0:
256,192,105916,1,0,0:0:0:0:
256,192,106088,1,2,0:0:0:0:
256,192,106259,1,0,0:0:0:0:
256,192,106431,1,0,0:0:0:0:
256,192,106602,1,2,0:0:0:0:
256,192,106945,1,2,0:0:0:0:
256,192,107116,1,0,0:0:0:0:
256,192,107459,1,2,0:0:0:0:
256,192,107516,1,2,0:0:0:0:
256,192,107573,1,2,0:0:0:0:
256,192,107631,1,0,0:0:0:0:
256,192,107802,1,0,0:0:0:0:
256,192,107973,1,2,0:0:0:0:
256,192,108145,1,0,0:0:0:0:
256,192,108231,1,0,0:0:0:0:
256,192,108316,1,2,0:0:0:0:
256,192,108488,1,2,0:0:0:0:
256,192,108659,1,0,0:0:0:0:
256,192,108745,1,2,0:0:0:0:
256,192,109002,1,2,0:0:0:0:
256,192,109059,1,2,0:0:0:0:
256,192,109116,1,2,0:0:0:0:
256,192,109173,1,0,0:0:0:0:
256,192,109259,1,0,0:0:0:0:
256,192,109345,1,2,0:0:0:0:
256,192,109516,1,0,0:0:0:0:
256,192,109602,1,0,0:0:0:0:
256,192,109688,1,2,0:0:0:0:
256,192,109859,1,0,0:0:0:0:
256,192,110202,1,2,0:0:0:0:
256,192,110373,1,0,0:0:0:0:
256,192,110545,1,0,0:0:0:0:
256,192,110631,1,0,0:0:0:0:
256,192,110716,1,2,0:0:0:0:
256,192,110888,1,0,0:0:0:0:
256,192,111059,1,2,0:0:0:0:
256,192,111231,1,2,0:0:0:0:
256,192,111316,1,2,0:0:0:0:
256,192,111402,1,0,0:0:0:0:
256,192,111488,1,2,0:0:0:0:
256,192,111745,1,2,0:0:0:0:
256,192,111802,1,2,0:0:0:0:
256,192,111859,1,2,0:0:0:0:
256,192,111916,1,0,0:0:0:0:
256,192,112088,1,2,0:0:0:0:
256,192,112259,1,0,0:0:0:0:
256,192,112345,1,0,0:0:0:0:
256,192,112431,1,2,0:0:0:0:
256,192,112602,1,0,0:0:0:0:
256,192,112859,1,0,0:0:0:0:
256,192,112945,1,2,0:0:0:0:
256,192,113116,1,0,0:0:0:0:
256,192,113288,1,0,0:0:0:0:
256,192,113373,1,0,0:0:0:0:
256,192,113459,1,2,0:0:0:0:
256,192,113631,1,0,0:0:0:0:
256,192,113802,1,2,0:0:0:0:
256,192,113859,1,2,0:0:0:0:
256,192,113916,1,2,0:0:0:0:
256,192,113973,1,2,0:0:0:0:
256,192,114145,1,0,0:0:0:0:
256,192,114488,1,2,0:0:0:0:
256,192,114659,1,0,0:0:0:0:
256,192,114745,1,0,0:0:0:0:
256,192,114831,1,2,0:0:0:0:
256,192,115002,1,2,0:0:0:0:
256,192,115345,1,0,0:0:0:0:
256,192,115688,1,2,0:0:0:0:
256,192,115859,1,0,0:0:0:0:
256,192,116031,1,0,0:0:0:0:
256,192,116088,1,0,0:0:0:0:
256,192,116145,1,0,0:0:0:0:
256,192,116202,1,2,0:0:0:0:
256,192,116373,1,0,0:0:0:0:
256,192,116545,1,2,0:0:0:0:
256,192,116602,1,2,0:0:0:0:
256,192,116659,1,2,0:0:0:0:
256,192,116716,1,2,0:0:0:0:
256,192,116773,1,2,0:0:0:0:
256,192,116831,1,2,0:0:0:0:
256,192,116888,1,0,0:0:0:0:
256,192,117059,1,2,0:0:0:0:
256,192,117231,1,0,0:0:0:0:
256,192,117402,1,0,0:0:0:0:
256,192,117488,1,0,0:0:0:0:
256,192,117573,1,2,0:0:0:0:
256,192,117745,1,2,0:0:0:0:
256,192,118088,1,0,0:0:0:0:
256,192,118259,1,2,0:0:0:0:
256,192,118431,1,2,0:0:0:0:
256,192,118488,1,2,0:0:0:0:
256,192,118545,1,2,0:0:0:0:
256,192,118602,1,0,0:0:0:0:
256,192,118773,1,0,0:0:0:0:
256,192,118945,1,2,0:0:0:0:
256,192,119116,1,0,0:0:0:0:
256,192,119459,1,2,0:0:0:0:
256,192,119631,1,0,0:0:0:0:
256,192,120316,1,6,0:0:0:0:
256,192,120659,1,0,0:0:0:0:
256,192,120831,1,6,0:0:0:0:
256,192,121173,1,0,0:0:0:0:
256,192,121345,1,6,0:0:0:0:
256,192,121688,1,2,0:0:0:0:
256,192,121859,1,0,0:0:0:0:
256,192,122031,1,2,0:0:0:0:
256,192,122116,1,2,0:0:0:0:
256,192,122202,1,2,0:0:0:0:
256,192,122288,1,2,0:0:0:0:
256,192,122373,1,0,0:0:0:0:
256,192,122431,1,0,0:0:0:0:
256,192,122488,1,0,0:0:0:0:
256,192,122545,1,2,0:0:0:0:
256,192,122716,1,2,0:0:0:0:
256,192,122773,1,2,0:0:0:0:
256,192,122831,1,2,0:0:0:0:
256,192,122888,1,0,0:0:0:0:
256,192,123059,1,6,0:0:0:0:
256,192,123402,1,0,0:0:0:0:
256,192,123573,1,6,0:0:0:0:
256,192,123916,1,0,0:0:0:0:
256,192,124088,1,6,0:0:0:0:
256,192,124431,1,2,0:0:0:0:
256,192,124516,1,2,0:0:0:0:
256,192,124602,1,2,0:0:0:0:
256,192,124688,1,2,0:0:0:0:
256,192,124773,1,2,0:0:0:0:
256,192,124945,1,2,0:0:0:0:
256,192,125116,5,4,0:0:0:0:
256,192,125802,1,2,0:0:0:0:
256,192,126145,1,0,0:0:0:0:
256,192,126316,1,0,0:0:0:0:
256,192,126659,1,2,0:0:0:0:
256,192,126831,1,0,0:0:0:0:
256,192,127002,1,0,0:0:0:0:
256,192,127088,1,0,0:0:0:0:
256,192,127173,1,2,0:0:0:0:
256,192,127345,1,0,0:0:0:0:
256,192,127402,1,0,0:0:0:0:
256,192,127459,1,0,0:0:0:0:
256,192,127516,1,2,0:0:0:0:
256,192,127573,1,2,0:0:0:0:
256,192,127631,1,2,0:0:0:0:
256,192,127688,1,0,0:0:0:0:
256,192,127859,1,2,0:0:0:0:
256,192,127916,1,2,0:0:0:0:
256,192,127973,1,2,0:0:0:0:
256,192,128031,1,2,0:0:0:0:
256,192,128202,1,0,0:0:0:0:
256,192,128373,1,0,0:0:0:0:
256,192,128545,1,2,0:0:0:0:
256,192,128888,1,2,0:0:0:0:
256,192,129059,1,0,0:0:0:0:
256,192,129145,1,0,0:0:0:0:
256,192,129231,1,2,0:0:0:0:
256,192,129573,1,0,0:0:0:0:
256,192,129745,1,2,0:0:0:0:
256,192,129916,1,2,0:0:0:0:
256,192,130088,1,0,0:0:0:0:
256,192,130259,1,2,0:0:0:0:
256,192,130431,1,2,0:0:0:0:
256,192,130516,1,2,0:0:0:0:
256,192,130602,1,0,0:0:0:0:
256,192,130945,1,2,0:0:0:0:
256,192,131002,1,2,0:0:0:0:
256,192,131059,1,2,0:0:0:0:
256,192,131116,1,0,0:0:0:0:
256,192,131288,1,2,0:0:0:0:
256,192,131459,1,0,0:0:0:0:
256,192,131545,1,0,0:0:0:0:
256,192,131631,1,2,0:0:0:0:
256,192,131802,1,0,0:0:0:0:
256,192,132059,1,0,0:0:0:0:
256,192,132145,1,2,0:0:0:0:
256,192,132316,1,0,0:0:0:0:
256,192,132488,1,0,0:0:0:0:
256,192,132573,1,0,0:0:0:0:
256,192,132659,1,2,0:0:0:0:
256,192,132831,1,0,0:0:0:0:
256,192,133002,1,2,0:0:0:0:
256,192,133173,1,2,0:0:0:0:
256,192,133259,1,2,0:0:0:0:
256,192,133345,1,0,0:0:0:0:
256,192,133431,1,2,0:0:0:0:
256,192,133516,1,0,0:0:0:0:
256,192,133602,1,0,0:0:0:0:
256,192,133688,1,2,0:0:0:0:
256,192,133745,1,2,0:0:0:0:
256,192,133802,1,2,0:0:0:0:
256,192,133859,1,0,0:0:0:0:
256,192,133945,1,0,0:0:0:0:
256,192,134031,1,2,0:0:0:0:
256,192,134202,1,0,0:0:0:0:
256,192,134288,1,0,0:0:0:0:
256,192,134373,1,2,0:0:0:0:
256,192,134545,1,0,0:0:0:0:
256,192,134802,1,0,0:0:0:0:
256,192,134888,1,2,0:0:0:0:
256,192,135059,1,0,0:0:0:0:
256,192,135316,1,0,0:0:0:0:
256,192,135402,1,2,0:0:0:0:
256,192,135488,1,2,0:0:0:0:
256,192,135573,1,0,0:0:0:0:
256,192,135745,1,2,0:0:0:0:
256,192,135916,1,2,0:0:0:0:
256,192,136002,1,2,0:0:0:0:
256,192,136088,1,0,0:0:0:0:
256,192,136602,1,0,0:0:0:0:
256,192,136773,1,2,0:0:0:0:
256,192,137116,1,2,0:0:0:0:
256,192,137288,1,0,0:0:0:0:
256,192,137631,1,2,0:0:0:0:
256,192,137802,1,0,0:0:0:0:
256,192,137973,1,0,0:0:0:0:
256,192,138059,1,0,0:0:0:0:
256,192,138145,1,2,0:0:0:0:
256,192,138316,1,0,0:0:0:0:
256,192,138373,1,0,0:0:0:0:
256,192,138431,1,0,0:0:0:0:
256,192,138488,1,2,0:0:0:0:
256,192,138545,1,2,0:0:0:0:
256,192,138602,1,2,0:0:0:0:
256,192,138659,1,0,0:0:0:0:
256,192,138831,1,0,0:0:0:0:
256,192,138888,1,2,0:0:0:0:
256,192,138945,1,2,0:0:0:0:
256,192,139002,1,2,0:0:0:0:
256,192,139173,1,0,0:0:0:0:
256,192,139345,1,0,0:0:0:0:
256,192,139516,1,2,0:0:0:0:
256,192,139688,1,0,0:0:0:0:
256,192,139773,1,0,0:0:0:0:
256,192,139859,1,2,0:0:0:0:
256,192,140031,1,0,0:0:0:0:
256,192,140202,1,2,0:0:0:0:
256,192,140545,1,0,0:0:0:0:
256,192,140716,1,2,0:0:0:0:
256,192,140802,1,2,0:0:0:0:
256,192,140888,1,2,0:0:0:0:
256,192,141059,1,0,0:0:0:0:
256,192,141231,1,2,0:0:0:0:
256,192,141402,1,2,0:0:0:0:
256,192,141488,1,2,0:0:0:0:
256,192,141573,1,0,0:0:0:0:
256,192,142259,1,6,0:0:0:0:
256,192,142602,1,0,0:0:0:0:
256,192,142773,1,6,0:0:0:0:
256,192,143116,1,0,0:0:0:0:
256,192,143288,1,6,0:0:0:0:
256,192,143631,1,2,0:0:0:0:
256,192,143802,1,0,0:0:0:0:
256,192,143973,1,2,0:0:0:0:
256,192,144059,1,2,0:0:0:0:
256,192,144145,1,2,0:0:0:0:
256,192,144231,1,2,0:0:0:0:
256,192,144316,1,0,0:0:0:0:
256,192,144373,1,0,0:0:0:0:
256,192,144431,1,0,0:0:0:0:
256,192,144488,1,2,0:0:0:0:
256,192,144659,1,2,0:0:0:0:
256,192,144716,1,2,0:0:0:0:
256,192,144773,1,2,0:0:0:0:
256,192,144831,1,0,0:0:0:0:
256,192,145002,1,6,0:0:0:0:
256,192,145345,1,0,0:0:0:0:
256,192,145516,1,6,0:0:0:0:
256,192,145859,1,0,0:0:0:0:
256,192,146031,1,6,0:0:0:0:
256,192,146373,1,2,0:0:0:0:
256,192,146545,1,0,0:0:0:0:
256,192,146716,1,2,0:0:0:0:
256,192,146802,1,2,0:0:0:0:
256,192,146888,1,0,0:0:0:0:
256,192,147059,1,4,0:0:0:0:
