osu file format v14

[General]
AudioFilename: audio.mp3
AudioLeadIn: 0
PreviewTime: 168941
Countdown: 1
SampleSet: Normal
StackLeniency: 0.7
Mode: 1
LetterboxInBreaks: 0
WidescreenStoryboard: 0

[Editor]
Bookmarks: 15341,26312,37284,48255,59227,70198,81170,84084,84170,92141,114084,122312,125055,136027,157970,168941,179912,190884,201855,212827,223798,233398,234770,245741,256712,267684,278655,289627,300598,311570,355455,377398,399341
DistanceSpacing: 1.2
BeatDivisor: 8
GridSize: 32
TimelineZoom: 3.399999

[Metadata]
Title:Odyssey (Au5 Remix)
TitleUnicode:Odyssey (Au5 Remix)
Artist:Akira Complex
ArtistUnicode:Akira Complex
Creator:vrnl
Version:Endgame
Source:
Tags:dnb drum and bass drumstep dubstep neurofunk filthstep the synthesis collective
BeatmapID:1910635
BeatmapSetID:914806

[Difficulty]
HPDrainRate:6.5
CircleSize:6.5
OverallDifficulty:6.5
ApproachRate:6.5
SliderMultiplier:1.4
SliderTickRate:1

[Events]
//Background and Video events
0,0,"pls.jpg",0,-75
//Break Periods
2,214198,221741
//Storyboard Layer 0 (Background)
//Storyboard Layer 1 (Fail)
//Storyboard Layer 2 (Pass)
//Storyboard Layer 3 (Foreground)
//Storyboard Sound Samples

[TimingPoints]
256,342.857142857143,4,1,0,20,1,0
256,-86.9565217391304,4,1,0,20,0,0
4370,342.857142857143,4,1,0,20,1,0
4370,-86.9565217391304,4,1,0,20,0,0
4627,-86.9565217391304,4,1,0,45,0,0
48255,-86.9565217391304,4,1,0,65,0,0
125055,-86.9565217391304,4,1,0,65,0,1
146312,-86.9565217391304,4,1,0,65,0,0
146998,-86.9565217391304,4,1,0,65,0,1
168941,-86.9565217391304,4,1,0,65,0,0
311570,-86.9565217391304,4,1,0,65,0,1
332827,-86.9565217391304,4,1,0,65,0,0
333512,-86.9565217391304,4,1,0,65,0,1
355455,-86.9565217391304,4,1,0,65,0,0

[HitObjects]
256,192,256,12,0,4027,0:0:0:0:
345,166,4370,5,4,0:0:0:0:
272,175,4712,1,2,0:0:0:0:
184,151,4884,1,0,0:0:0:0:
272,175,5055,1,2,0:0:0:0:
272,175,5398,1,2,0:0:0:0:
272,175,6084,1,2,0:0:0:0:
194,103,6255,1,0,0:0:0:0:
272,175,6427,1,2,0:0:0:0:
272,175,6598,1,2,0:0:0:0:
272,175,6941,1,2,0:0:0:0:
223,82,7798,1,2,0:0:0:0:
223,82,8141,1,2,0:0:0:0:
223,82,8827,1,0,0:0:0:0:
223,82,9170,1,2,0:0:0:0:
223,82,9341,1,0,0:0:0:0:
223,82,9512,1,0,0:0:0:0:
80,146,9684,1,2,0:0:0:0:
272,175,10541,1,0,0:0:0:0:
272,175,10884,1,2,0:0:0:0:
170,142,11570,1,0,0:0:0:0:
272,175,11912,1,2,0:0:0:0:
272,175,12255,1,2,0:0:0:0:
272,175,12426,1,0,0:0:0:0:
272,175,13284,1,2,0:0:0:0:
272,175,13455,1,0,0:0:0:0:
138,148,13798,1,0,0:0:0:0:
272,175,14312,1,2,0:0:0:0:
272,175,14655,1,2,0:0:0:0:
272,175,14998,1,2,0:0:0:0:
166,125,15170,1,0,0:0:0:0:
272,175,15341,1,4,0:0:0:0:
272,175,15684,1,2,0:0:0:0:
272,175,16027,1,0,0:0:0:0:
272,175,16198,1,2,0:0:0:0:
165,206,16541,1,2,0:0:0:0:
194,103,17227,1,2,0:0:0:0:
272,175,17570,1,0,0:0:0:0:
272,175,17741,1,2,0:0:0:0:
223,82,17912,1,0,0:0:0:0:
206,247,18427,1,2,0:0:0:0:
206,247,18598,1,0,0:0:0:0:
223,82,18941,1,2,0:0:0:0:
223,82,19284,1,2,0:0:0:0:
108,180,19798,1,2,0:0:0:0:
223,82,20142,1,2,0:0:0:0:
223,82,20313,1,0,0:0:0:0:
80,146,20656,1,2,0:0:0:0:
108,180,21341,1,0,0:0:0:0:
272,175,21684,1,0,0:0:0:0:
272,175,21856,1,2,0:0:0:0:
187,256,22027,1,0,0:0:0:0:
170,142,22542,1,0,0:0:0:0:
272,175,22884,1,2,0:0:0:0:
272,175,23227,1,2,0:0:0:0:
272,175,23398,1,0,0:0:0:0:
272,175,23913,1,0,0:0:0:0:
272,175,24256,1,2,0:0:0:0:
272,175,24427,1,0,0:0:0:0:
186,70,24512,1,2,0:0:0:0:
186,70,24598,1,0,0:0:0:0:
138,148,24770,1,2,0:0:0:0:
186,70,24941,1,4,0:0:0:0:
186,70,25455,1,0,0:0:0:0:
219,55,25970,1,0,0:0:0:0:
272,175,26313,1,6,0:0:0:0:
146,201,26655,1,2,0:0:0:0:
143,197,26827,1,0,0:0:0:0:
143,197,26998,1,0,0:0:0:0:
143,197,27170,1,2,0:0:0:0:
143,197,27341,1,2,0:0:0:0:
146,201,27427,1,0,0:0:0:0:
143,197,27512,1,2,0:0:0:0:
178,114,28027,1,0,0:0:0:0:
178,114,28370,1,2,0:0:0:0:
178,114,28541,1,2,0:0:0:0:
178,114,28712,1,0,0:0:0:0:
178,114,28798,1,2,0:0:0:0:
78,122,28884,1,2,0:0:0:0:
178,114,29055,1,0,0:0:0:0:
166,201,29312,1,0,0:0:0:0:
166,201,29398,1,2,0:0:0:0:
160,197,29570,1,0,0:0:0:0:
161,180,29741,1,2,0:0:0:0:
161,180,29827,1,2,0:0:0:0:
161,180,29912,1,0,0:0:0:0:
161,180,30084,1,2,0:0:0:0:
156,177,30255,1,0,0:0:0:0:
153,177,30598,1,0,0:0:0:0:
153,177,30770,1,2,0:0:0:0:
147,161,30941,1,0,0:0:0:0:
147,161,31027,1,2,0:0:0:0:
147,161,31112,1,0,0:0:0:0:
150,164,31198,1,2,0:0:0:0:
147,161,31284,1,2,0:0:0:0:
153,177,31455,1,2,0:0:0:0:
153,177,31541,1,0,0:0:0:0:
151,174,31798,1,6,0:0:0:0:
265,238,32141,1,0,0:0:0:0:
197,174,32312,1,0,0:0:0:0:
265,238,32398,1,0,0:0:0:0:
198,144,32484,1,2,0:0:0:0:
197,174,32655,1,0,0:0:0:0:
197,174,32827,1,2,0:0:0:0:
197,174,32998,1,0,0:0:0:0:
197,174,33341,1,0,0:0:0:0:
197,174,33512,1,2,0:0:0:0:
112,217,33855,1,2,0:0:0:0:
112,217,33941,1,2,0:0:0:0:
112,217,34027,1,0,0:0:0:0:
116,220,34112,1,2,0:0:0:0:
116,220,34198,1,0,0:0:0:0:
119,222,34541,1,0,0:0:0:0:
118,222,34798,1,0,0:0:0:0:
118,222,34884,1,2,0:0:0:0:
117,221,35055,1,0,0:0:0:0:
116,220,35227,1,2,0:0:0:0:
119,222,35398,1,2,0:0:0:0:
178,231,35570,1,0,0:0:0:0:
178,231,35655,1,2,0:0:0:0:
178,231,35741,1,2,0:0:0:0:
211,83,36084,1,0,0:0:0:0:
211,83,36255,1,2,0:0:0:0:
211,83,36598,1,2,0:0:0:0:
211,83,36684,1,2,0:0:0:0:
211,83,36770,1,0,0:0:0:0:
211,83,36941,1,2,0:0:0:0:
211,83,37198,1,0,0:0:0:0:
211,83,37284,1,6,0:0:0:0:
127,202,37627,1,0,0:0:0:0:
127,202,37970,1,2,0:0:0:0:
127,202,38055,1,0,0:0:0:0:
183,148,38141,1,0,0:0:0:0:
159,123,38227,1,0,0:0:0:0:
127,202,38312,1,2,0:0:0:0:
151,126,38484,1,0,0:0:0:0:
162,175,38827,1,0,0:0:0:0:
162,175,38998,1,2,0:0:0:0:
173,123,39170,1,0,0:0:0:0:
144,210,39341,1,0,0:0:0:0:
162,175,39427,1,2,0:0:0:0:
162,175,39512,1,2,0:0:0:0:
162,175,39598,1,2,0:0:0:0:
144,211,39684,1,0,0:0:0:0:
144,211,39855,1,2,0:0:0:0:
144,210,40027,1,0,0:0:0:0:
144,210,40370,1,2,0:0:0:0:
140,152,40627,1,2,0:0:0:0:
144,211,40712,1,0,0:0:0:0:
144,211,40884,1,0,0:0:0:0:
144,210,41055,1,2,0:0:0:0:
148,153,41141,1,2,0:0:0:0:
148,153,41227,1,0,0:0:0:0:
144,211,41570,1,0,0:0:0:0:
140,146,41741,1,2,0:0:0:0:
144,210,41998,1,2,0:0:0:0:
163,58,42084,1,0,0:0:0:0:
144,211,42170,1,2,0:0:0:0:
144,211,42256,1,0,0:0:0:0:
102,195,42341,1,0,0:0:0:0:
102,195,42427,1,2,0:0:0:0:
102,195,42512,1,0,0:0:0:0:
144,210,42770,1,0,0:0:0:0:
144,211,43112,1,2,0:0:0:0:
170,170,43198,1,2,0:0:0:0:
170,170,43284,1,0,0:0:0:0:
170,170,43455,1,0,0:0:0:0:
144,210,43627,1,0,0:0:0:0:
144,210,43712,1,0,0:0:0:0:
144,211,43798,1,2,0:0:0:0:
145,179,43884,1,2,0:0:0:0:
145,179,43970,1,0,0:0:0:0:
144,210,44312,1,0,0:0:0:0:
144,210,44484,1,2,0:0:0:0:
118,140,44570,1,0,0:0:0:0:
144,211,44827,1,2,0:0:0:0:
126,131,44912,1,2,0:0:0:0:
144,211,44998,1,0,0:0:0:0:
144,210,45084,1,0,0:0:0:0:
144,210,45170,1,2,0:0:0:0:
144,210,45512,1,0,0:0:0:0:
124,151,45770,1,0,0:0:0:0:
122,170,45855,1,2,0:0:0:0:
122,170,45941,1,2,0:0:0:0:
122,170,46027,1,0,0:0:0:0:
144,210,46198,1,0,0:0:0:0:
144,210,46370,1,2,0:0:0:0:
144,210,46455,1,2,0:0:0:0:
109,154,46541,1,0,0:0:0:0:
124,151,46712,1,6,0:0:0:0:
209,68,47570,2,0,L|361:264,1,241.500004606247
148,181,48255,1,4,0:0:0:0:
148,181,48598,1,2,0:0:0:0:
148,181,48770,1,4,0:0:0:0:
154,147,49112,1,2,0:0:0:0:
154,147,49198,1,0,0:0:0:0:
154,147,49284,1,2,0:0:0:0:
154,147,49370,1,2,0:0:0:0:
154,147,49455,1,2,0:0:0:0:
154,147,49541,1,2,0:0:0:0:
154,147,49627,1,0,0:0:0:0:
154,147,49798,1,0,0:0:0:0:
154,147,49884,1,0,0:0:0:0:
154,147,49970,1,2,0:0:0:0:
154,147,50055,1,2,0:0:0:0:
154,147,50141,1,0,0:0:0:0:
154,147,50227,1,0,0:0:0:0:
154,147,50312,1,2,0:0:0:0:
154,147,50484,1,0,0:0:0:0:
154,147,50655,1,6,0:0:0:0:
260,115,50998,1,4,0:0:0:0:
260,115,51341,1,2,0:0:0:0:
260,115,51513,1,4,0:0:0:0:
194,152,51855,1,2,0:0:0:0:
194,152,51941,1,2,0:0:0:0:
194,152,52027,1,2,0:0:0:0:
194,152,52112,1,2,0:0:0:0:
194,152,52198,1,0,0:0:0:0:
194,152,52284,1,0,0:0:0:0:
194,152,52370,1,2,0:0:0:0:
194,152,52541,1,0,0:0:0:0:
194,152,52627,1,0,0:0:0:0:
194,152,52712,1,2,0:0:0:0:
194,152,52798,1,2,0:0:0:0:
194,152,52884,1,0,0:0:0:0:
194,152,52970,1,2,0:0:0:0:
194,152,53055,1,0,0:0:0:0:
194,152,53227,1,0,0:0:0:0:
130,163,53398,1,2,0:0:0:0:
130,163,53484,1,0,0:0:0:0:
130,163,53741,1,4,0:0:0:0:
130,163,54084,1,2,0:0:0:0:
130,163,54255,1,4,0:0:0:0:
130,163,54598,1,2,0:0:0:0:
130,163,54684,1,0,0:0:0:0:
130,163,54770,1,2,0:0:0:0:
130,163,54855,1,2,0:0:0:0:
130,163,54941,1,0,0:0:0:0:
130,163,55027,1,0,0:0:0:0:
130,163,55112,1,2,0:0:0:0:
130,163,55284,1,0,0:0:0:0:
130,163,55370,1,0,0:0:0:0:
130,163,55455,1,2,0:0:0:0:
130,163,55541,1,0,0:0:0:0:
130,163,55627,1,2,0:0:0:0:
130,163,55712,1,2,0:0:0:0:
130,163,55798,1,0,0:0:0:0:
130,163,55884,1,2,0:0:0:0:
130,163,55970,1,0,0:0:0:0:
130,163,56141,1,6,0:0:0:0:
247,183,56312,1,0,0:0:0:0:
247,183,56398,1,2,0:0:0:0:
247,183,56484,1,4,0:0:0:0:
247,183,56827,1,2,0:0:0:0:
247,183,56998,1,4,0:0:0:0:
95,192,57341,1,2,0:0:0:0:
95,192,57427,1,2,0:0:0:0:
95,192,57512,1,2,0:0:0:0:
95,192,57598,1,2,0:0:0:0:
95,192,57684,1,0,0:0:0:0:
95,192,57770,1,2,0:0:0:0:
95,192,57855,1,0,0:0:0:0:
185,159,58027,1,2,0:0:0:0:
174,157,58198,1,0,0:0:0:0:
174,157,58370,1,0,0:0:0:0:
174,157,58455,1,0,0:0:0:0:
171,155,58541,1,2,0:0:0:0:
171,155,58627,1,0,0:0:0:0:
171,155,58712,1,0,0:0:0:0:
171,155,58798,1,0,0:0:0:0:
171,155,58884,1,2,0:0:0:0:
171,155,58970,1,2,0:0:0:0:
171,155,59055,1,0,0:0:0:0:
174,157,59141,1,2,0:0:0:0:
148,181,59227,1,4,0:0:0:0:
148,181,59570,1,2,0:0:0:0:
148,181,59742,1,4,0:0:0:0:
154,147,60084,1,2,0:0:0:0:
154,147,60170,1,0,0:0:0:0:
154,147,60256,1,2,0:0:0:0:
154,147,60342,1,2,0:0:0:0:
154,147,60427,1,2,0:0:0:0:
154,147,60513,1,2,0:0:0:0:
154,147,60599,1,0,0:0:0:0:
61,217,60684,1,2,0:0:0:0:
154,147,60770,1,0,0:0:0:0:
154,147,60856,1,0,0:0:0:0:
154,147,60942,1,2,0:0:0:0:
154,147,61027,1,2,0:0:0:0:
154,147,61113,1,0,0:0:0:0:
154,147,61199,1,0,0:0:0:0:
154,147,61284,1,2,0:0:0:0:
154,147,61456,1,0,0:0:0:0:
154,147,61627,1,6,0:0:0:0:
260,115,61970,1,4,0:0:0:0:
260,115,62313,1,2,0:0:0:0:
260,115,62485,1,4,0:0:0:0:
194,152,62827,1,2,0:0:0:0:
194,152,62913,1,2,0:0:0:0:
194,152,62999,1,2,0:0:0:0:
194,152,63084,1,2,0:0:0:0:
194,152,63170,1,0,0:0:0:0:
194,152,63256,1,0,0:0:0:0:
194,152,63342,1,2,0:0:0:0:
75,228,63427,1,2,0:0:0:0:
194,152,63513,1,0,0:0:0:0:
194,152,63599,1,0,0:0:0:0:
194,152,63684,1,2,0:0:0:0:
194,152,63770,1,2,0:0:0:0:
194,152,63856,1,0,0:0:0:0:
194,152,63942,1,2,0:0:0:0:
194,152,64027,1,0,0:0:0:0:
194,152,64199,1,0,0:0:0:0:
130,163,64370,1,2,0:0:0:0:
130,163,64456,1,0,0:0:0:0:
130,163,64713,1,4,0:0:0:0:
130,163,65056,1,2,0:0:0:0:
130,163,65227,1,4,0:0:0:0:
130,163,65570,1,2,0:0:0:0:
130,163,65656,1,0,0:0:0:0:
130,163,65742,1,2,0:0:0:0:
130,163,65827,1,2,0:0:0:0:
130,163,65913,1,0,0:0:0:0:
130,163,65999,1,0,0:0:0:0:
130,163,66084,1,2,0:0:0:0:
75,228,66170,1,2,0:0:0:0:
130,163,66256,1,0,0:0:0:0:
130,163,66342,1,0,0:0:0:0:
130,163,66427,1,2,0:0:0:0:
130,163,66513,1,0,0:0:0:0:
130,163,66599,1,2,0:0:0:0:
130,163,66684,1,2,0:0:0:0:
130,163,66770,1,0,0:0:0:0:
130,163,66856,1,2,0:0:0:0:
130,163,66942,1,0,0:0:0:0:
130,163,67113,1,6,0:0:0:0:
247,183,67284,1,0,0:0:0:0:
247,183,67370,1,2,0:0:0:0:
247,183,67456,1,4,0:0:0:0:
247,183,67799,1,2,0:0:0:0:
247,183,67970,1,4,0:0:0:0:
95,192,68313,1,2,0:0:0:0:
95,192,68399,1,2,0:0:0:0:
95,192,68484,1,2,0:0:0:0:
95,192,68570,1,2,0:0:0:0:
95,192,68656,1,0,0:0:0:0:
95,192,68742,1,2,0:0:0:0:
95,192,68827,1,0,0:0:0:0:
185,159,68999,1,2,0:0:0:0:
174,157,69170,1,0,0:0:0:0:
174,157,69342,1,0,0:0:0:0:
174,157,69427,1,0,0:0:0:0:
171,155,69513,1,2,0:0:0:0:
171,155,69599,1,2,0:0:0:0:
171,155,69684,1,2,0:0:0:0:
171,155,69770,1,0,0:0:0:0:
171,155,69856,1,2,0:0:0:0:
171,155,69942,1,2,0:0:0:0:
146,178,70027,1,0,0:0:0:0:
178,92,70112,1,2,0:0:0:0:
192,100,70198,1,4,0:0:0:0:
155,231,70541,1,2,0:0:0:0:
155,231,70712,1,0,0:0:0:0:
160,224,70798,1,0,0:0:0:0:
160,224,70884,1,2,0:0:0:0:
155,231,71055,1,0,0:0:0:0:
155,231,71227,1,2,0:0:0:0:
155,231,71312,1,2,0:0:0:0:
155,231,71398,1,0,0:0:0:0:
155,231,71570,1,0,0:0:0:0:
155,231,71655,1,2,0:0:0:0:
155,231,71741,1,0,0:0:0:0:
155,231,71827,1,0,0:0:0:0:
155,231,71912,1,2,0:0:0:0:
155,231,72084,1,2,0:0:0:0:
155,231,72255,1,0,0:0:0:0:
155,231,72341,1,2,0:0:0:0:
155,231,72427,1,2,0:0:0:0:
155,231,72598,1,0,0:0:0:0:
155,231,72770,1,2,0:0:0:0:
108,112,72855,1,2,0:0:0:0:
158,224,72941,1,0,0:0:0:0:
158,224,73284,1,2,0:0:0:0:
158,224,73370,1,2,0:0:0:0:
158,224,73455,1,0,0:0:0:0:
158,224,73627,1,2,0:0:0:0:
158,224,73798,1,0,0:0:0:0:
158,224,73884,1,0,0:0:0:0:
158,224,73970,1,2,0:0:0:0:
158,224,74055,1,2,0:0:0:0:
158,224,74141,1,0,0:0:0:0:
158,224,74312,1,2,0:0:0:0:
158,224,74398,1,2,0:0:0:0:
158,224,74570,1,0,0:0:0:0:
158,224,74655,1,2,0:0:0:0:
65,164,74827,1,0,0:0:0:0:
65,164,74912,1,0,0:0:0:0:
158,224,74998,1,2,0:0:0:0:
146,163,75170,1,0,0:0:0:0:
206,183,75255,1,0,0:0:0:0:
146,163,75341,1,2,0:0:0:0:
146,163,75427,1,0,0:0:0:0:
436,127,75598,1,0,0:0:0:0:
197,103,75684,1,0,0:0:0:0:
258,239,76027,1,2,0:0:0:0:
179,206,76198,1,0,0:0:0:0:
179,206,76370,1,2,0:0:0:0:
103,191,76455,1,0,0:0:0:0:
148,117,76627,1,0,0:0:0:0:
256,182,76712,1,2,0:0:0:0:
256,182,76798,1,2,0:0:0:0:
256,182,76884,1,0,0:0:0:0:
256,182,77055,1,2,0:0:0:0:
256,182,77141,1,2,0:0:0:0:
256,182,77227,1,0,0:0:0:0:
256,182,77312,1,2,0:0:0:0:
256,182,77398,1,0,0:0:0:0:
256,182,77570,1,0,0:0:0:0:
256,182,77741,1,2,0:0:0:0:
256,182,77827,1,2,0:0:0:0:
256,182,77912,1,2,0:0:0:0:
256,182,78084,1,0,0:0:0:0:
256,182,78170,1,2,0:0:0:0:
256,182,78255,1,0,0:0:0:0:
256,182,78341,1,0,0:0:0:0:
256,182,78427,1,0,0:0:0:0:
256,182,78770,1,2,0:0:0:0:
256,182,78941,1,0,0:0:0:0:
83,158,79027,1,0,0:0:0:0:
256,182,79112,1,0,0:0:0:0:
134,167,79284,1,0,0:0:0:0:
134,167,79455,1,2,0:0:0:0:
134,167,79627,1,0,0:0:0:0:
191,105,79884,1,0,0:0:0:0:
134,167,79970,1,2,0:0:0:0:
134,167,80055,1,2,0:0:0:0:
134,167,80141,1,0,0:0:0:0:
134,167,80312,1,0,0:0:0:0:
134,167,80484,1,2,0:0:0:0:
161,25,80655,1,0,0:0:0:0:
134,167,80741,1,0,0:0:0:0:
134,167,80827,1,2,0:0:0:0:
134,167,80912,1,0,0:0:0:0:
134,167,80998,1,2,0:0:0:0:
134,167,81084,1,2,0:0:0:0:
192,100,81170,1,4,0:0:0:0:
155,231,81513,1,2,0:0:0:0:
155,231,81684,1,0,0:0:0:0:
160,224,81856,1,2,0:0:0:0:
155,231,81941,1,0,0:0:0:0:
155,231,82027,1,2,0:0:0:0:
70,115,82198,1,0,0:0:0:0:
155,231,82284,1,2,0:0:0:0:
155,231,82370,1,0,0:0:0:0:
148,129,82455,1,2,0:0:0:0:
155,231,82542,1,0,0:0:0:0:
155,231,82713,1,2,0:0:0:0:
155,231,82799,1,2,0:0:0:0:
155,231,82884,1,0,0:0:0:0:
155,231,83056,1,2,0:0:0:0:
155,231,83227,1,0,0:0:0:0:
155,231,83399,1,2,0:0:0:0:
201,136,83484,1,2,0:0:0:0:
155,231,83570,1,0,0:0:0:0:
201,136,83655,1,2,0:0:0:0:
155,231,83741,1,0,0:0:0:0:
158,224,83913,1,0,0:0:0:0:
158,224,84256,1,2,0:0:0:0:
158,224,84427,1,0,0:0:0:0:
158,224,84599,1,2,0:0:0:0:
158,224,84684,1,0,0:0:0:0:
158,224,84856,1,0,0:0:0:0:
158,224,84942,1,2,0:0:0:0:
158,224,85113,1,2,0:0:0:0:
222,87,85198,1,2,0:0:0:0:
158,224,85284,1,0,0:0:0:0:
179,134,85370,1,2,0:0:0:0:
179,134,85455,1,0,0:0:0:0:
158,224,85542,1,0,0:0:0:0:
158,224,85627,1,2,0:0:0:0:
65,164,85799,1,0,0:0:0:0:
65,164,85884,1,0,0:0:0:0:
158,224,85970,1,2,0:0:0:0:
87,90,86055,1,2,0:0:0:0:
146,163,86142,1,0,0:0:0:0:
146,163,86313,1,2,0:0:0:0:
146,163,86399,1,0,0:0:0:0:
168,75,86570,1,0,0:0:0:0:
197,103,86656,1,0,0:0:0:0:
258,239,86999,1,2,0:0:0:0:
179,206,87170,1,0,0:0:0:0:
181,88,87255,1,0,0:0:0:0:
179,206,87342,1,2,0:0:0:0:
103,191,87512,1,0,0:0:0:0:
148,117,87599,1,2,0:0:0:0:
256,182,87684,1,2,0:0:0:0:
256,182,87770,1,0,0:0:0:0:
256,182,87855,1,2,0:0:0:0:
256,182,88027,1,2,0:0:0:0:
256,182,88113,1,2,0:0:0:0:
256,182,88199,1,0,0:0:0:0:
256,182,88370,1,2,0:0:0:0:
256,182,88542,1,0,0:0:0:0:
256,182,88713,1,2,0:0:0:0:
256,182,88799,1,2,0:0:0:0:
256,182,88884,1,0,0:0:0:0:
256,182,89056,1,2,0:0:0:0:
256,182,89142,1,2,0:0:0:0:
256,182,89227,1,0,0:0:0:0:
256,182,89313,1,0,0:0:0:0:
256,182,89399,1,0,0:0:0:0:
256,182,89742,1,2,0:0:0:0:
256,182,89913,1,0,0:0:0:0:
83,158,89999,1,0,0:0:0:0:
256,182,90084,1,0,0:0:0:0:
134,167,90256,1,2,0:0:0:0:
134,167,90427,1,0,0:0:0:0:
169,111,90512,1,2,0:0:0:0:
134,167,90599,1,0,0:0:0:0:
134,167,90942,1,2,0:0:0:0:
134,167,91027,1,2,0:0:0:0:
134,167,91113,1,0,0:0:0:0:
134,167,91284,1,0,0:0:0:0:
171,144,91370,1,0,0:0:0:0:
134,167,91456,1,2,0:0:0:0:
171,144,91541,1,0,0:0:0:0:
161,25,91627,1,2,0:0:0:0:
134,167,91713,1,0,0:0:0:0:
134,167,91799,1,2,0:0:0:0:
134,167,91884,1,0,0:0:0:0:
134,167,91970,1,2,0:0:0:0:
134,167,92056,1,2,0:0:0:0:
159,129,92141,1,4,0:0:0:0:
100,221,94884,1,0,0:0:0:0:
100,221,96255,1,2,0:0:0:0:
100,221,96770,1,0,0:0:0:0:
100,221,97284,1,2,0:0:0:0:
100,221,97627,1,0,0:0:0:0:
179,144,100370,1,0,0:0:0:0:
156,103,102084,1,0,0:0:0:0:
156,103,102170,1,2,0:0:0:0:
156,103,102255,1,0,0:0:0:0:
156,103,102427,1,6,0:0:0:0:
129,163,103112,1,4,0:0:0:0:
129,163,103455,1,2,0:0:0:0:
129,163,103627,1,0,0:0:0:0:
129,163,103798,1,2,0:0:0:0:
129,163,103970,1,0,0:0:0:0:
230,160,104312,1,2,0:0:0:0:
230,160,104655,1,2,0:0:0:0:
230,160,104827,1,0,0:0:0:0:
230,160,104998,1,0,0:0:0:0:
230,160,105170,1,2,0:0:0:0:
230,160,105341,1,0,0:0:0:0:
230,160,105512,1,2,0:0:0:0:
230,160,105684,1,2,0:0:0:0:
189,175,105770,1,2,0:0:0:0:
230,160,105855,1,0,0:0:0:0:
131,163,106198,1,2,0:0:0:0:
131,163,106370,1,0,0:0:0:0:
131,163,106541,1,2,0:0:0:0:
131,163,106712,1,0,0:0:0:0:
189,175,107055,1,0,0:0:0:0:
189,175,107398,1,2,0:0:0:0:
189,175,107570,1,0,0:0:0:0:
189,175,107741,1,0,0:0:0:0:
189,175,107912,1,2,0:0:0:0:
189,175,108084,1,0,0:0:0:0:
189,175,108255,1,2,0:0:0:0:
189,175,108341,1,0,0:0:0:0:
189,175,108427,1,0,0:0:0:0:
167,163,108512,1,0,0:0:0:0:
167,163,108598,1,0,0:0:0:0:
131,163,108941,1,2,0:0:0:0:
131,163,109112,1,0,0:0:0:0:
131,163,109284,1,2,0:0:0:0:
131,163,109455,1,0,0:0:0:0:
154,133,109798,1,0,0:0:0:0:
173,132,110141,1,2,0:0:0:0:
173,132,110312,1,0,0:0:0:0:
173,132,110484,1,0,0:0:0:0:
173,132,110655,1,2,0:0:0:0:
173,132,110827,1,0,0:0:0:0:
173,132,110998,1,2,0:0:0:0:
172,177,111084,1,2,0:0:0:0:
172,177,111170,1,2,0:0:0:0:
172,177,111255,1,2,0:0:0:0:
173,132,111341,1,0,0:0:0:0:
131,163,111684,1,2,0:0:0:0:
131,163,111855,1,0,0:0:0:0:
131,163,112027,1,2,0:0:0:0:
131,163,112198,1,0,0:0:0:0:
166,136,112370,1,2,0:0:0:0:
166,136,112455,1,2,0:0:0:0:
166,136,112541,1,0,0:0:0:0:
166,136,112627,1,2,0:0:0:0:
166,136,112712,1,0,0:0:0:0:
91,160,112884,1,2,0:0:0:0:
91,160,112970,1,0,0:0:0:0:
91,160,113055,1,2,0:0:0:0:
91,160,113141,1,2,0:0:0:0:
91,160,113227,1,0,0:0:0:0:
131,163,113398,1,6,0:0:0:0:
131,163,114084,1,4,0:0:0:0:
103,220,114770,1,2,0:0:0:0:
200,136,115455,1,0,0:0:0:0:
103,220,116141,1,2,0:0:0:0:
200,136,116827,1,0,0:0:0:0:
200,136,117512,1,2,0:0:0:0:
142,172,117855,1,0,0:0:0:0:
200,136,118198,1,0,0:0:0:0:
200,136,118884,1,2,0:0:0:0:
200,136,119570,1,0,0:0:0:0:
200,136,119912,1,0,0:0:0:0:
200,136,120255,1,2,0:0:0:0:
142,172,120427,1,0,0:0:0:0:
200,136,120598,1,0,0:0:0:0:
200,136,120941,1,0,0:0:0:0:
142,172,121112,1,0,0:0:0:0:
200,136,121284,1,0,0:0:0:0:
142,172,121455,1,0,0:0:0:0:
200,136,121627,1,2,0:0:0:0:
200,136,121970,1,0,0:0:0:0:
200,136,122312,1,0,0:0:0:0:
200,136,122484,1,0,0:0:0:0:
128,130,122570,1,2,0:0:0:0:
128,130,122655,1,0,0:0:0:0:
200,136,122827,1,0,0:0:0:0:
200,136,122998,1,2,0:0:0:0:
128,130,123084,1,0,0:0:0:0:
200,136,123170,1,0,0:0:0:0:
128,130,123255,1,2,0:0:0:0:
200,136,123341,1,0,0:0:0:0:
128,130,123427,1,2,0:0:0:0:
200,136,123512,1,2,0:0:0:0:
128,130,123598,1,2,0:0:0:0:
200,136,123684,1,0,0:0:0:0:
123,135,123770,1,2,0:0:0:0:
200,136,123856,1,0,0:0:0:0:
123,135,123941,1,2,0:0:0:0:
202,140,124027,1,0,0:0:0:0:
123,135,124112,1,0,0:0:0:0:
202,140,124198,1,2,0:0:0:0:
123,135,124284,1,0,0:0:0:0:
202,141,124370,1,2,0:0:0:0:
123,135,124455,1,2,0:0:0:0:
202,141,124541,1,0,0:0:0:0:
123,135,124627,1,0,0:0:0:0:
123,135,124712,1,2,0:0:0:0:
123,135,124798,1,0,0:0:0:0:
202,140,124884,1,0,0:0:0:0:
202,140,125055,1,6,0:0:0:0:
253,270,125312,1,0,0:0:0:0:
253,270,125398,1,2,0:0:0:0:
253,270,125455,1,2,0:0:0:0:
226,153,125512,1,2,0:0:0:0:
226,153,125570,1,0,0:0:0:0:
280,178,125741,1,2,0:0:0:0:
280,178,125912,1,0,0:0:0:0:
280,178,125998,1,2,0:0:0:0:
280,178,126084,1,2,0:0:0:0:
280,178,126255,1,0,0:0:0:0:
126,198,126598,1,2,0:0:0:0:
126,198,126684,1,2,0:0:0:0:
126,198,126770,1,0,0:0:0:0:
126,198,126941,1,0,0:0:0:0:
313,187,127112,1,0,0:0:0:0:
313,187,127170,1,2,0:0:0:0:
313,187,127227,1,2,0:0:0:0:
313,187,127284,1,0,0:0:0:0:
232,160,127370,1,0,0:0:0:0:
232,160,127455,1,2,0:0:0:0:
232,160,127541,1,2,0:0:0:0:
232,160,127627,1,0,0:0:0:0:
262,71,127798,1,2,0:0:0:0:
262,71,127855,1,2,0:0:0:0:
262,71,127912,1,0,0:0:0:0:
262,71,127970,1,0,0:0:0:0:
240,167,128141,1,2,0:0:0:0:
116,138,128312,1,0,0:0:0:0:
168,125,128398,1,2,0:0:0:0:
104,307,128484,1,0,0:0:0:0:
303,209,128655,1,0,0:0:0:0:
303,209,128698,1,0,0:0:0:0:
288,208,128827,1,2,0:0:0:0:
288,208,128870,1,2,0:0:0:0:
288,208,128998,1,0,0:0:0:0:
80,237,129341,1,2,0:0:0:0:
80,237,129427,1,0,0:0:0:0:
80,237,129512,1,2,0:0:0:0:
80,237,129598,1,2,0:0:0:0:
80,237,129684,1,0,0:0:0:0:
148,264,129855,1,2,0:0:0:0:
148,264,129941,1,2,0:0:0:0:
148,264,130027,1,0,0:0:0:0:
129,138,130112,1,0,0:0:0:0:
148,264,130198,1,2,0:0:0:0:
148,264,130284,1,0,0:0:0:0:
148,264,130455,1,2,0:0:0:0:
148,264,130541,1,0,0:0:0:0:
265,166,130598,1,0,0:0:0:0:
265,166,130655,1,0,0:0:0:0:
265,166,130712,1,2,0:0:0:0:
355,194,130884,1,2,0:0:0:0:
355,194,130941,1,2,0:0:0:0:
355,194,130998,1,2,0:0:0:0:
355,194,131055,1,0,0:0:0:0:
256,169,131398,1,2,0:0:0:0:
257,173,131484,1,0,0:0:0:0:
257,173,131570,1,2,0:0:0:0:
257,174,131741,1,0,0:0:0:0:
207,137,131827,1,0,0:0:0:0:
277,90,131912,1,0,0:0:0:0:
277,90,131998,1,0,0:0:0:0:
185,204,132084,1,2,0:0:0:0:
185,204,132255,1,0,0:0:0:0:
185,204,132341,1,2,0:0:0:0:
185,204,132427,1,0,0:0:0:0:
311,169,132598,1,0,0:0:0:0:
311,169,132655,1,0,0:0:0:0:
311,169,132712,1,0,0:0:0:0:
311,169,132770,1,0,0:0:0:0:
300,126,132855,1,0,0:0:0:0:
300,126,132941,1,2,0:0:0:0:
192,81,133027,1,2,0:0:0:0:
192,81,133112,1,0,0:0:0:0:
192,81,133284,1,0,0:0:0:0:
192,81,133455,1,0,0:0:0:0:
192,81,133541,1,2,0:0:0:0:
192,81,133627,1,2,0:0:0:0:
192,81,133798,1,0,0:0:0:0:
192,81,133970,1,2,0:0:0:0:
192,81,134055,1,0,0:0:0:0:
192,81,134141,1,2,0:0:0:0:
207,186,134227,1,0,0:0:0:0:
207,186,134312,1,2,0:0:0:0:
207,186,134398,1,2,0:0:0:0:
207,186,134484,1,0,0:0:0:0:
286,204,134655,1,2,0:0:0:0:
286,204,134698,1,2,0:0:0:0:
286,204,134827,1,0,0:0:0:0:
245,104,134998,1,0,0:0:0:0:
245,104,135055,1,0,0:0:0:0:
245,104,135112,1,0,0:0:0:0:
245,104,135170,1,2,0:0:0:0:
81,191,135255,1,0,0:0:0:0:
81,191,135341,1,2,0:0:0:0:
218,186,135512,1,0,0:0:0:0:
198,20,135598,1,0,0:0:0:0:
218,186,135684,1,2,0:0:0:0:
163,154,135770,1,2,0:0:0:0:
163,154,135855,1,0,0:0:0:0:
163,154,136027,1,4,0:0:0:0:
230,231,136284,1,0,0:0:0:0:
262,154,136370,1,2,0:0:0:0:
262,154,136427,1,2,0:0:0:0:
262,154,136484,1,2,0:0:0:0:
262,154,136541,1,0,0:0:0:0:
268,117,136712,1,2,0:0:0:0:
151,192,136884,1,2,0:0:0:0:
151,192,136970,1,0,0:0:0:0:
151,192,137055,1,2,0:0:0:0:
165,134,137227,1,0,0:0:0:0:
165,134,137570,1,0,0:0:0:0:
165,134,137655,1,0,0:0:0:0:
165,134,137741,1,2,0:0:0:0:
165,134,137912,1,0,0:0:0:0:
309,109,138084,1,0,0:0:0:0:
309,109,138170,1,0,0:0:0:0:
309,109,138255,1,2,0:0:0:0:
303,148,138312,1,2,0:0:0:0:
177,86,138370,1,0,0:0:0:0:
303,148,138427,1,2,0:0:0:0:
222,133,138512,1,0,0:0:0:0:
222,133,138598,1,2,0:0:0:0:
276,75,138770,1,2,0:0:0:0:
276,75,138827,1,2,0:0:0:0:
276,75,138884,1,0,0:0:0:0:
276,75,138941,1,0,0:0:0:0:
222,133,139112,1,2,0:0:0:0:
191,194,139284,1,0,0:0:0:0:
191,194,139370,1,0,0:0:0:0:
191,194,139455,1,0,0:0:0:0:
191,194,139541,1,2,0:0:0:0:
191,194,139627,1,0,0:0:0:0:
127,155,139798,1,2,0:0:0:0:
322,191,139970,1,0,0:0:0:0:
322,191,140027,1,0,0:0:0:0:
322,191,140084,1,0,0:0:0:0:
322,191,140141,1,0,0:0:0:0:
322,191,140312,1,2,0:0:0:0:
322,191,140484,1,0,0:0:0:0:
322,191,140541,1,0,0:0:0:0:
322,191,140598,1,0,0:0:0:0:
322,191,140655,1,0,0:0:0:0:
154,162,140741,1,2,0:0:0:0:
154,162,140827,1,0,0:0:0:0:
154,162,140912,1,0,0:0:0:0:
154,162,140998,1,2,0:0:0:0:
154,162,141170,1,2,0:0:0:0:
154,162,141255,1,0,0:0:0:0:
154,162,141427,1,2,0:0:0:0:
154,162,141512,1,0,0:0:0:0:
296,207,141570,1,0,0:0:0:0:
296,207,141627,1,0,0:0:0:0:
296,207,141684,1,2,0:0:0:0:
288,209,141855,1,2,0:0:0:0:
288,209,141912,1,2,0:0:0:0:
288,209,141970,1,2,0:0:0:0:
288,209,142027,1,0,0:0:0:0:
231,149,142370,1,2,0:0:0:0:
231,149,142455,1,0,0:0:0:0:
231,149,142541,1,2,0:0:0:0:
231,149,142627,1,2,0:0:0:0:
231,149,142712,1,0,0:0:0:0:
231,149,142884,1,0,0:0:0:0:
231,149,143055,1,2,0:0:0:0:
231,149,143141,1,2,0:0:0:0:
231,149,143227,1,0,0:0:0:0:
115,159,143398,1,0,0:0:0:0:
205,165,143570,1,0,0:0:0:0:
205,165,143627,1,0,0:0:0:0:
205,165,143684,1,0,0:0:0:0:
273,144,143741,1,0,0:0:0:0:
273,144,143827,1,0,0:0:0:0:
273,144,143912,1,2,0:0:0:0:
273,144,143998,1,2,0:0:0:0:
273,144,144084,1,0,0:0:0:0:
273,144,144255,1,0,0:0:0:0:
273,144,144341,1,0,0:0:0:0:
273,144,144427,1,2,0:0:0:0:
273,144,144512,1,2,0:0:0:0:
273,144,144598,1,0,0:0:0:0:
273,144,144770,1,2,0:0:0:0:
273,144,144855,1,0,0:0:0:0:
273,144,144941,1,2,0:0:0:0:
273,144,145027,1,2,0:0:0:0:
273,144,145112,1,2,0:0:0:0:
114,174,145198,1,0,0:0:0:0:
114,174,145284,1,2,0:0:0:0:
133,199,145455,1,0,0:0:0:0:
264,198,145627,1,2,0:0:0:0:
264,198,145670,1,2,0:0:0:0:
264,198,145798,1,2,0:0:0:0:
264,198,145970,1,0,0:0:0:0:
264,198,146012,1,0,0:0:0:0:
264,198,146141,1,0,0:0:0:0:
200,183,146312,1,6,0:0:0:0:
200,183,146998,1,4,0:0:0:0:
192,138,147341,1,2,0:0:0:0:
209,133,147512,1,0,0:0:0:0:
209,133,147598,1,2,0:0:0:0:
162,167,147770,1,2,0:0:0:0:
162,167,147855,1,0,0:0:0:0:
162,167,147941,1,0,0:0:0:0:
218,173,148027,1,2,0:0:0:0:
218,173,148084,1,2,0:0:0:0:
218,173,148141,1,2,0:0:0:0:
168,160,148198,1,0,0:0:0:0:
168,160,148284,1,0,0:0:0:0:
168,160,148455,1,2,0:0:0:0:
168,160,148541,1,0,0:0:0:0:
168,160,148712,1,2,0:0:0:0:
168,160,148798,1,2,0:0:0:0:
154,150,148884,1,0,0:0:0:0:
154,150,148970,1,2,0:0:0:0:
168,160,149141,1,2,0:0:0:0:
168,160,149227,1,0,0:0:0:0:
168,160,149312,1,0,0:0:0:0:
168,160,149398,1,2,0:0:0:0:
282,154,149455,1,0,0:0:0:0:
282,154,149512,1,0,0:0:0:0:
282,154,149570,1,2,0:0:0:0:
281,74,149655,1,2,0:0:0:0:
150,234,149741,1,0,0:0:0:0:
231,160,149912,1,0,0:0:0:0:
231,160,149998,1,0,0:0:0:0:
231,160,150084,1,2,0:0:0:0:
344,169,150127,1,2,0:0:0:0:
67,157,150255,1,0,0:0:0:0:
238,154,150427,1,0,0:0:0:0:
199,138,150512,1,2,0:0:0:0:
199,138,150598,1,0,0:0:0:0:
199,138,150684,1,0,0:0:0:0:
328,198,150770,1,2,0:0:0:0:
328,198,150812,1,0,0:0:0:0:
328,198,150855,1,2,0:0:0:0:
328,198,150941,1,0,0:0:0:0:
63,180,151112,1,2,0:0:0:0:
205,132,151284,1,0,0:0:0:0:
205,132,151370,1,0,0:0:0:0:
205,132,151455,1,2,0:0:0:0:
205,132,151541,1,2,0:0:0:0:
205,132,151627,1,0,0:0:0:0:
205,132,151712,1,2,0:0:0:0:
205,132,151798,1,2,0:0:0:0:
205,132,151884,1,0,0:0:0:0:
205,132,151970,1,2,0:0:0:0:
205,132,152055,1,0,0:0:0:0:
205,132,152141,1,2,0:0:0:0:
205,132,152227,1,0,0:0:0:0:
93,189,152398,1,2,0:0:0:0:
118,198,152484,1,0,0:0:0:0:
172,174,152741,1,0,0:0:0:0:
172,174,152827,1,2,0:0:0:0:
172,174,152998,1,2,0:0:0:0:
172,174,153084,1,0,0:0:0:0:
172,174,153255,1,2,0:0:0:0:
172,174,153341,1,0,0:0:0:0:
172,174,153427,1,0,0:0:0:0:
172,174,153512,1,2,0:0:0:0:
172,174,153570,1,2,0:0:0:0:
172,174,153627,1,2,0:0:0:0:
138,153,153684,1,0,0:0:0:0:
172,174,153770,1,0,0:0:0:0:
172,174,153941,1,2,0:0:0:0:
172,174,154027,1,0,0:0:0:0:
172,174,154198,1,2,0:0:0:0:
172,174,154370,1,2,0:0:0:0:
172,174,154455,1,2,0:0:0:0:
172,174,154541,1,0,0:0:0:0:
149,144,154598,1,2,0:0:0:0:
172,174,154655,1,2,0:0:0:0:
172,174,154712,1,0,0:0:0:0:
172,174,154798,1,0,0:0:0:0:
172,174,154884,1,2,0:0:0:0:
172,174,154970,1,2,0:0:0:0:
172,174,155055,1,2,0:0:0:0:
172,174,155141,1,2,0:0:0:0:
172,174,155227,1,0,0:0:0:0:
200,188,155398,1,2,0:0:0:0:
200,188,155484,1,2,0:0:0:0:
200,188,155570,1,0,0:0:0:0:
200,188,155612,1,0,0:0:0:0:
200,188,155741,1,2,0:0:0:0:
150,181,155912,1,0,0:0:0:0:
150,181,155998,1,0,0:0:0:0:
161,194,156084,1,2,0:0:0:0:
163,194,156170,1,2,0:0:0:0:
176,183,156255,1,0,0:0:0:0:
176,183,156298,1,2,0:0:0:0:
176,183,156341,1,0,0:0:0:0:
176,183,156427,1,2,0:0:0:0:
242,176,156598,1,6,0:0:0:0:
242,176,156770,1,0,0:0:0:0:
192,135,156941,1,4,0:0:0:0:
192,135,157112,1,0,0:0:0:0:
185,210,157284,1,6,0:0:0:0:
300,223,157541,1,0,0:0:0:0:
300,223,157627,1,2,0:0:0:0:
300,223,157712,1,2,0:0:0:0:
300,223,157798,1,2,0:0:0:0:
300,223,157884,1,2,0:0:0:0:
300,223,157970,1,4,0:0:0:0:
192,138,158312,5,2,0:0:0:0:
209,133,158398,1,2,0:0:0:0:
209,133,158483,1,0,0:0:0:0:
209,133,158569,1,2,0:0:0:0:
162,167,158741,1,2,0:0:0:0:
162,167,158826,1,0,0:0:0:0:
162,167,158912,1,0,0:0:0:0:
218,173,158998,1,2,0:0:0:0:
218,173,159055,1,2,0:0:0:0:
218,173,159112,1,2,0:0:0:0:
168,160,159169,1,0,0:0:0:0:
168,160,159255,1,0,0:0:0:0:
168,160,159341,1,0,0:0:0:0:
191,103,159398,1,2,0:0:0:0:
168,160,159455,1,2,0:0:0:0:
168,160,159512,1,0,0:0:0:0:
168,160,159683,1,2,0:0:0:0:
168,160,159769,1,2,0:0:0:0:
154,150,159941,1,2,0:0:0:0:
168,160,160026,1,0,0:0:0:0:
168,160,160084,1,2,0:0:0:0:
191,103,160141,1,2,0:0:0:0:
168,160,160198,1,0,0:0:0:0:
168,160,160283,1,0,0:0:0:0:
168,160,160369,1,2,0:0:0:0:
282,154,160426,1,0,0:0:0:0:
282,154,160483,1,0,0:0:0:0:
282,154,160541,1,2,0:0:0:0:
252,67,160627,1,2,0:0:0:0:
150,234,160712,1,0,0:0:0:0:
231,160,160883,1,0,0:0:0:0:
231,160,160969,1,0,0:0:0:0:
231,160,161055,1,2,0:0:0:0:
344,169,161098,1,2,0:0:0:0:
67,157,161226,1,0,0:0:0:0:
238,154,161398,1,2,0:0:0:0:
199,138,161483,1,2,0:0:0:0:
199,138,161569,1,0,0:0:0:0:
199,138,161655,1,0,0:0:0:0:
328,198,161741,1,2,0:0:0:0:
328,198,161783,1,0,0:0:0:0:
328,198,161826,1,2,0:0:0:0:
328,198,161912,1,0,0:0:0:0:
63,180,162083,1,2,0:0:0:0:
205,132,162255,1,0,0:0:0:0:
205,132,162341,1,0,0:0:0:0:
205,132,162426,1,2,0:0:0:0:
205,132,162512,1,2,0:0:0:0:
205,132,162598,1,0,0:0:0:0:
205,132,162683,1,2,0:0:0:0:
205,132,162769,1,0,0:0:0:0:
205,132,162855,1,0,0:0:0:0:
205,132,162941,1,2,0:0:0:0:
205,132,163026,1,0,0:0:0:0:
205,132,163112,1,2,0:0:0:0:
205,132,163198,1,0,0:0:0:0:
93,189,163369,1,2,0:0:0:0:
118,198,163455,1,0,0:0:0:0:
188,104,163627,1,0,0:0:0:0:
172,174,163712,1,0,0:0:0:0:
172,174,163798,1,2,0:0:0:0:
172,174,163969,1,2,0:0:0:0:
172,174,164055,1,0,0:0:0:0:
172,174,164226,1,2,0:0:0:0:
172,174,164312,1,0,0:0:0:0:
172,174,164398,1,0,0:0:0:0:
172,174,164483,1,2,0:0:0:0:
172,174,164541,1,2,0:0:0:0:
172,174,164598,1,2,0:0:0:0:
138,153,164655,1,0,0:0:0:0:
172,174,164741,1,0,0:0:0:0:
172,174,164826,1,0,0:0:0:0:
201,93,164884,1,2,0:0:0:0:
172,174,164941,1,2,0:0:0:0:
172,174,164998,1,0,0:0:0:0:
172,174,165169,1,2,0:0:0:0:
172,174,165255,1,2,0:0:0:0:
172,174,165426,1,2,0:0:0:0:
172,174,165512,1,0,0:0:0:0:
149,144,165569,1,2,0:0:0:0:
172,174,165626,1,2,0:0:0:0:
172,174,165683,1,0,0:0:0:0:
172,174,165741,1,2,0:0:0:0:
172,174,165798,1,2,0:0:0:0:
120,129,165855,1,0,0:0:0:0:
172,174,165941,1,2,0:0:0:0:
172,174,166026,1,2,0:0:0:0:
172,174,166112,1,2,0:0:0:0:
172,174,166198,1,0,0:0:0:0:
200,188,166369,1,2,0:0:0:0:
200,188,166455,1,2,0:0:0:0:
200,188,166541,1,0,0:0:0:0:
200,188,166583,1,0,0:0:0:0:
200,188,166712,1,2,0:0:0:0:
150,181,166883,1,2,0:0:0:0:
150,181,166969,1,2,0:0:0:0:
161,194,167055,1,0,0:0:0:0:
163,194,167141,1,2,0:0:0:0:
176,183,167226,1,0,0:0:0:0:
176,183,167269,1,2,0:0:0:0:
176,183,167312,1,0,0:0:0:0:
176,183,167398,1,2,0:0:0:0:
242,176,167569,1,6,0:0:0:0:
242,176,167741,1,0,0:0:0:0:
192,135,167912,1,4,0:0:0:0:
192,135,168083,1,0,0:0:0:0:
119,76,168255,2,0,L|350:157,1,241.500004606247
244,154,168941,5,4,0:0:0:0:
131,216,169370,1,0,0:0:0:0:
124,169,169455,1,0,0:0:0:0:
124,169,169627,1,2,0:0:0:0:
143,162,169970,1,2,0:0:0:0:
143,162,170141,1,0,0:0:0:0:
143,162,170484,1,0,0:0:0:0:
235,72,170655,1,2,0:0:0:0:
151,199,170741,1,0,0:0:0:0:
143,162,170998,1,2,0:0:0:0:
143,162,171055,1,2,0:0:0:0:
143,162,171112,1,2,0:0:0:0:
143,162,171170,1,2,0:0:0:0:
220,190,171255,1,2,0:0:0:0:
220,190,171341,1,2,0:0:0:0:
220,190,171427,1,2,0:0:0:0:
220,190,171512,1,2,0:0:0:0:
220,190,171598,1,2,0:0:0:0:
143,162,171684,1,0,0:0:0:0:
217,147,172027,1,0,0:0:0:0:
97,157,172112,1,0,0:0:0:0:
97,157,172198,1,0,0:0:0:0:
217,147,172370,1,2,0:0:0:0:
217,147,172884,1,0,0:0:0:0:
217,147,173141,1,2,0:0:0:0:
217,147,173227,1,0,0:0:0:0:
80,181,173398,1,0,0:0:0:0:
117,162,173655,1,0,0:0:0:0:
117,162,173741,1,2,0:0:0:0:
117,162,173912,1,0,0:0:0:0:
117,162,174084,1,0,0:0:0:0:
117,162,174170,1,0,0:0:0:0:
192,201,174427,1,0,0:0:0:0:
192,201,174484,1,0,0:0:0:0:
186,199,174541,1,0,0:0:0:0:
186,199,174598,1,2,0:0:0:0:
186,199,174770,1,2,0:0:0:0:
186,199,174827,1,2,0:0:0:0:
186,199,174884,1,2,0:0:0:0:
186,199,174941,1,0,0:0:0:0:
217,147,175112,1,6,0:0:0:0:
63,178,175370,1,2,0:0:0:0:
63,178,175455,1,0,0:0:0:0:
217,147,175627,1,6,0:0:0:0:
63,178,175970,1,0,0:0:0:0:
217,147,176141,1,6,0:0:0:0:
108,170,176398,1,0,0:0:0:0:
108,170,176484,1,2,0:0:0:0:
108,170,176570,1,0,0:0:0:0:
217,147,176655,1,6,0:0:0:0:
108,170,176998,1,0,0:0:0:0:
108,170,177084,1,0,0:0:0:0:
263,186,177170,1,2,0:0:0:0:
263,186,177227,1,2,0:0:0:0:
263,186,177284,1,2,0:0:0:0:
263,186,177341,1,0,0:0:0:0:
263,186,177427,1,0,0:0:0:0:
263,186,177512,1,2,0:0:0:0:
181,208,177570,1,0,0:0:0:0:
181,208,177627,1,0,0:0:0:0:
181,208,177684,1,0,0:0:0:0:
217,147,177855,1,6,0:0:0:0:
264,117,178027,1,0,0:0:0:0:
264,117,178112,1,2,0:0:0:0:
264,117,178198,1,0,0:0:0:0:
217,147,178370,1,6,0:0:0:0:
264,117,178627,1,0,0:0:0:0:
264,117,178712,1,0,0:0:0:0:
217,147,178884,1,6,0:0:0:0:
125,184,179055,1,0,0:0:0:0:
264,117,179227,1,2,0:0:0:0:
264,117,179312,1,0,0:0:0:0:
217,147,179398,1,6,0:0:0:0:
264,117,179655,1,0,0:0:0:0:
264,117,179740,1,2,0:0:0:0:
264,117,179826,1,2,0:0:0:0:
264,117,179912,1,4,0:0:0:0:
154,92,180084,1,0,0:0:0:0:
131,216,180341,1,0,0:0:0:0:
124,169,180426,1,0,0:0:0:0:
124,169,180598,1,2,0:0:0:0:
183,94,180855,1,2,0:0:0:0:
143,162,180941,1,2,0:0:0:0:
143,162,181112,1,0,0:0:0:0:
183,94,181370,1,2,0:0:0:0:
143,162,181455,1,0,0:0:0:0:
143,162,181626,1,0,0:0:0:0:
183,94,181712,1,2,0:0:0:0:
151,199,181798,1,0,0:0:0:0:
143,162,181969,1,2,0:0:0:0:
143,162,182026,1,0,0:0:0:0:
143,162,182083,1,0,0:0:0:0:
143,162,182141,1,2,0:0:0:0:
220,190,182226,1,2,0:0:0:0:
220,190,182312,1,2,0:0:0:0:
220,190,182398,1,2,0:0:0:0:
220,190,182483,1,2,0:0:0:0:
220,190,182569,1,2,0:0:0:0:
143,162,182655,1,0,0:0:0:0:
189,60,182912,1,2,0:0:0:0:
217,147,182998,1,0,0:0:0:0:
97,157,183083,1,2,0:0:0:0:
97,157,183169,1,0,0:0:0:0:
217,147,183341,1,2,0:0:0:0:
193,95,183427,1,0,0:0:0:0:
213,304,183598,1,0,0:0:0:0:
193,95,183770,1,0,0:0:0:0:
217,147,183855,1,0,0:0:0:0:
193,95,184027,1,2,0:0:0:0:
217,147,184112,1,2,0:0:0:0:
217,147,184198,1,0,0:0:0:0:
80,181,184369,1,0,0:0:0:0:
117,162,184626,1,0,0:0:0:0:
117,162,184712,1,2,0:0:0:0:
117,162,184883,1,0,0:0:0:0:
117,162,185055,1,0,0:0:0:0:
117,162,185141,1,2,0:0:0:0:
196,94,185227,1,0,0:0:0:0:
182,51,185398,2,0,L|411:157,1,241.500004606247
217,147,186083,1,6,0:0:0:0:
63,178,186341,1,2,0:0:0:0:
63,178,186426,1,0,0:0:0:0:
217,147,186598,1,6,0:0:0:0:
142,168,186770,1,2,0:0:0:0:
63,178,186855,1,0,0:0:0:0:
217,147,187112,1,6,0:0:0:0:
108,170,187369,1,0,0:0:0:0:
108,170,187455,1,2,0:0:0:0:
108,170,187541,1,0,0:0:0:0:
217,147,187626,1,6,0:0:0:0:
142,168,187884,1,2,0:0:0:0:
203,63,187970,1,0,0:0:0:0:
263,186,188141,1,2,0:0:0:0:
263,186,188198,1,0,0:0:0:0:
263,186,188255,1,0,0:0:0:0:
263,186,188312,1,2,0:0:0:0:
263,186,188398,1,0,0:0:0:0:
263,186,188483,1,2,0:0:0:0:
181,208,188541,1,2,0:0:0:0:
181,208,188598,1,2,0:0:0:0:
181,208,188655,1,0,0:0:0:0:
217,147,188826,1,6,0:0:0:0:
264,117,188998,1,0,0:0:0:0:
264,117,189083,1,0,0:0:0:0:
217,147,189341,1,6,0:0:0:0:
264,117,189512,1,0,0:0:0:0:
264,117,189598,1,0,0:0:0:0:
217,147,189855,1,6,0:0:0:0:
125,184,190026,1,0,0:0:0:0:
264,117,190198,1,2,0:0:0:0:
264,117,190283,1,0,0:0:0:0:
217,147,190369,1,2,0:0:0:0:
264,117,190455,1,0,0:0:0:0:
264,117,190541,1,2,0:0:0:0:
264,117,190712,1,0,0:0:0:0:
264,117,190798,1,2,0:0:0:0:
162,120,190884,1,4,0:0:0:0:
159,232,191141,1,0,0:0:0:0:
159,232,191227,1,0,0:0:0:0:
126,206,191398,1,0,0:0:0:0:
159,232,191570,1,2,0:0:0:0:
188,63,191827,1,0,0:0:0:0:
246,44,191912,1,2,0:0:0:0:
188,63,192084,1,0,0:0:0:0:
188,63,192427,1,2,0:0:0:0:
188,63,192512,1,2,0:0:0:0:
130,201,192598,1,0,0:0:0:0:
188,63,192684,1,2,0:0:0:0:
203,156,192770,1,0,0:0:0:0:
279,197,192941,1,2,0:0:0:0:
279,197,192998,1,2,0:0:0:0:
284,198,193055,1,2,0:0:0:0:
284,198,193112,1,2,0:0:0:0:
388,190,193198,1,2,0:0:0:0:
388,190,193284,1,2,0:0:0:0:
388,190,193370,1,2,0:0:0:0:
388,190,193455,1,2,0:0:0:0:
388,190,193541,1,2,0:0:0:0:
388,190,193627,1,0,0:0:0:0:
294,201,193884,1,2,0:0:0:0:
294,201,193970,1,0,0:0:0:0:
294,201,194055,1,2,0:0:0:0:
294,201,194141,1,0,0:0:0:0:
294,201,194312,1,2,0:0:0:0:
294,201,194570,1,2,0:0:0:0:
294,201,194655,1,0,0:0:0:0:
294,201,194827,1,0,0:0:0:0:
150,232,194998,1,2,0:0:0:0:
150,232,195084,1,0,0:0:0:0:
150,232,195255,1,2,0:0:0:0:
150,232,195427,1,0,0:0:0:0:
150,232,195512,1,0,0:0:0:0:
150,232,195684,1,2,0:0:0:0:
150,232,195855,1,0,0:0:0:0:
150,232,195941,1,0,0:0:0:0:
150,232,196027,1,2,0:0:0:0:
150,232,196112,1,0,0:0:0:0:
150,232,196198,1,2,0:0:0:0:
150,232,196370,1,0,0:0:0:0:
211,242,196541,1,0,0:0:0:0:
211,242,196627,1,0,0:0:0:0:
211,242,196712,1,2,0:0:0:0:
211,242,196770,1,2,0:0:0:0:
211,242,196827,1,2,0:0:0:0:
211,242,196884,1,0,0:0:0:0:
224,186,197055,1,6,0:0:0:0:
198,228,197312,1,2,0:0:0:0:
198,228,197398,1,0,0:0:0:0:
224,186,197570,1,6,0:0:0:0:
141,218,197912,1,0,0:0:0:0:
224,186,198084,1,6,0:0:0:0:
174,165,198255,1,0,0:0:0:0:
174,165,198341,1,2,0:0:0:0:
141,218,198427,1,0,0:0:0:0:
224,186,198598,1,6,0:0:0:0:
258,163,198856,1,2,0:0:0:0:
196,85,198941,1,0,0:0:0:0:
332,161,199112,1,0,0:0:0:0:
332,161,199170,1,0,0:0:0:0:
332,161,199227,1,0,0:0:0:0:
332,161,199284,1,2,0:0:0:0:
379,155,199370,1,0,0:0:0:0:
332,161,199455,1,2,0:0:0:0:
332,161,199512,1,2,0:0:0:0:
332,161,199570,1,2,0:0:0:0:
332,161,199627,1,0,0:0:0:0:
224,186,199798,1,6,0:0:0:0:
379,155,199970,1,0,0:0:0:0:
379,155,200055,1,2,0:0:0:0:
379,155,200141,1,0,0:0:0:0:
379,155,200227,1,0,0:0:0:0:
224,186,200312,1,6,0:0:0:0:
379,155,200570,1,2,0:0:0:0:
379,155,200655,1,0,0:0:0:0:
224,186,200827,1,6,0:0:0:0:
379,155,200998,1,0,0:0:0:0:
379,155,201170,1,0,0:0:0:0:
126,183,201255,1,0,0:0:0:0:
225,194,201341,1,6,0:0:0:0:
231,264,201598,1,0,0:0:0:0:
231,264,201684,1,2,0:0:0:0:
231,264,201855,1,4,0:0:0:0:
195,171,202027,1,0,0:0:0:0:
195,171,202113,1,0,0:0:0:0:
195,171,202370,1,0,0:0:0:0:
167,132,202541,1,2,0:0:0:0:
16,198,202712,1,0,0:0:0:0:
209,132,202798,1,2,0:0:0:0:
209,132,202884,1,0,0:0:0:0:
209,132,202970,1,2,0:0:0:0:
209,132,203055,1,0,0:0:0:0:
209,132,203227,1,2,0:0:0:0:
252,125,203484,1,0,0:0:0:0:
252,125,203570,1,0,0:0:0:0:
252,125,203741,1,0,0:0:0:0:
252,125,203912,1,2,0:0:0:0:
357,170,203970,1,0,0:0:0:0:
357,170,204027,1,0,0:0:0:0:
357,170,204084,1,2,0:0:0:0:
357,170,204170,1,2,0:0:0:0:
357,170,204255,1,2,0:0:0:0:
88,180,204341,1,2,0:0:0:0:
96,179,204427,1,2,0:0:0:0:
96,179,204512,1,2,0:0:0:0:
96,179,204598,1,0,0:0:0:0:
233,177,204855,1,0,0:0:0:0:
137,189,204941,1,2,0:0:0:0:
137,189,205027,1,0,0:0:0:0:
137,189,205112,1,0,0:0:0:0:
137,189,205284,1,2,0:0:0:0:
205,170,205455,1,0,0:0:0:0:
205,170,205541,1,0,0:0:0:0:
205,170,205627,1,2,0:0:0:0:
205,170,205712,1,0,0:0:0:0:
205,170,205798,1,0,0:0:0:0:
205,170,205970,1,2,0:0:0:0:
205,170,206141,1,0,0:0:0:0:
205,170,206227,1,2,0:0:0:0:
205,170,206398,1,2,0:0:0:0:
205,170,206484,1,0,0:0:0:0:
205,170,206655,1,2,0:0:0:0:
205,170,206741,1,2,0:0:0:0:
205,170,206827,1,0,0:0:0:0:
205,170,206998,1,0,0:0:0:0:
205,170,207084,1,2,0:0:0:0:
205,170,207170,1,0,0:0:0:0:
205,170,207255,1,2,0:0:0:0:
205,170,207341,1,4,0:0:0:0:
273,144,208027,5,6,0:0:0:0:
107,144,208370,1,0,0:0:0:0:
273,144,208541,1,6,0:0:0:0:
138,142,208798,1,0,0:0:0:0:
138,142,208884,1,0,0:0:0:0:
273,144,209055,1,6,0:0:0:0:
138,142,209312,1,0,0:0:0:0:
138,142,209398,1,0,0:0:0:0:
138,142,209484,1,0,0:0:0:0:
273,144,209570,1,6,0:0:0:0:
138,142,209741,1,2,0:0:0:0:
138,142,209827,1,2,0:0:0:0:
332,143,210084,1,0,0:0:0:0:
332,143,210141,1,0,0:0:0:0:
332,143,210198,1,0,0:0:0:0:
332,143,210255,1,2,0:0:0:0:
332,143,210341,1,0,0:0:0:0:
332,143,210427,1,2,0:0:0:0:
332,143,210484,1,2,0:0:0:0:
332,143,210541,1,2,0:0:0:0:
332,143,210598,1,0,0:0:0:0:
273,144,210770,1,6,0:0:0:0:
149,171,211027,1,0,0:0:0:0:
273,144,211284,1,6,0:0:0:0:
149,171,211541,1,0,0:0:0:0:
149,171,211712,1,0,0:0:0:0:
273,144,211798,1,6,0:0:0:0:
149,171,211970,1,0,0:0:0:0:
149,171,212055,1,0,0:0:0:0:
149,171,212141,1,0,0:0:0:0:
273,144,212312,1,6,0:0:0:0:
154,171,212570,1,0,0:0:0:0:
149,171,212655,1,2,0:0:0:0:
273,144,212827,1,4,0:0:0:0:
200,160,223798,5,2,0:0:0:0:
163,144,224655,1,2,0:0:0:0:
171,144,224998,1,2,0:0:0:0:
186,149,225170,1,0,0:0:0:0:
212,147,226541,1,0,0:0:0:0:
212,147,227398,1,0,0:0:0:0:
212,147,227741,1,0,0:0:0:0:
186,149,227912,1,2,0:0:0:0:
212,147,229284,1,2,0:0:0:0:
132,198,229798,1,0,0:0:0:0:
212,147,230141,1,0,0:0:0:0:
212,147,230312,1,2,0:0:0:0:
212,147,230655,1,0,0:0:0:0:
212,147,230998,1,0,0:0:0:0:
212,147,231341,1,2,0:0:0:0:
212,147,231684,1,2,0:0:0:0:
212,147,231855,1,0,0:0:0:0:
212,147,232027,1,2,0:0:0:0:
212,147,232370,1,2,0:0:0:0:
212,147,232712,1,2,0:0:0:0:
146,156,232884,1,0,0:0:0:0:
146,156,232970,1,2,0:0:0:0:
212,147,233055,1,0,0:0:0:0:
146,156,233227,1,2,0:0:0:0:
212,147,233398,1,0,0:0:0:0:
179,38,233570,1,2,0:0:0:0:
117,195,233655,1,0,0:0:0:0:
117,195,233912,1,2,0:0:0:0:
212,147,234255,1,0,0:0:0:0:
212,147,234341,1,0,0:0:0:0:
117,195,234427,1,2,0:0:0:0:
212,147,234770,1,4,0:0:0:0:
137,186,235112,1,2,0:0:0:0:
137,186,235198,1,2,0:0:0:0:
137,186,235284,1,0,0:0:0:0:
137,186,235455,1,2,0:0:0:0:
137,186,235541,1,2,0:0:0:0:
137,186,235627,1,0,0:0:0:0:
200,154,235798,1,0,0:0:0:0:
200,154,235970,1,2,0:0:0:0:
200,154,236312,1,2,0:0:0:0:
191,166,236398,1,0,0:0:0:0:
200,154,236484,1,0,0:0:0:0:
188,158,236655,1,0,0:0:0:0:
200,154,236827,1,2,0:0:0:0:
200,154,236912,1,0,0:0:0:0:
102,172,237084,1,0,0:0:0:0:
109,175,237170,1,2,0:0:0:0:
200,154,237512,1,0,0:0:0:0:
162,176,237855,1,2,0:0:0:0:
162,176,237941,1,0,0:0:0:0:
162,176,238027,1,0,0:0:0:0:
162,176,238198,1,2,0:0:0:0:
162,176,238284,1,0,0:0:0:0:
162,176,238370,1,0,0:0:0:0:
167,174,238541,1,0,0:0:0:0:
167,174,238712,1,0,0:0:0:0:
167,174,238798,1,2,0:0:0:0:
167,121,238884,1,2,0:0:0:0:
167,121,239055,1,0,0:0:0:0:
167,174,239227,1,2,0:0:0:0:
167,174,239312,1,0,0:0:0:0:
167,174,239484,1,0,0:0:0:0:
167,174,239570,1,2,0:0:0:0:
88,192,239655,1,2,0:0:0:0:
88,192,239741,1,0,0:0:0:0:
88,192,239912,1,2,0:0:0:0:
88,192,239998,1,0,0:0:0:0:
167,174,240255,1,0,0:0:0:0:
137,186,240598,1,2,0:0:0:0:
137,186,240684,1,0,0:0:0:0:
137,186,240770,1,2,0:0:0:0:
137,186,240941,1,2,0:0:0:0:
137,186,241027,1,0,0:0:0:0:
137,186,241113,1,0,0:0:0:0:
200,154,241284,1,0,0:0:0:0:
200,154,241456,1,2,0:0:0:0:
262,93,241541,1,0,0:0:0:0:
200,154,241798,1,2,0:0:0:0:
191,166,241970,1,0,0:0:0:0:
200,154,242055,1,0,0:0:0:0:
188,158,242141,1,0,0:0:0:0:
200,154,242313,1,2,0:0:0:0:
200,154,242484,1,0,0:0:0:0:
102,172,242570,1,0,0:0:0:0:
109,175,242656,1,2,0:0:0:0:
200,154,242998,1,0,0:0:0:0:
162,176,243341,1,2,0:0:0:0:
162,176,243427,1,0,0:0:0:0:
162,176,243513,1,2,0:0:0:0:
162,176,243684,1,2,0:0:0:0:
162,176,243770,1,0,0:0:0:0:
162,176,243856,1,0,0:0:0:0:
167,174,244027,1,0,0:0:0:0:
167,174,244198,1,0,0:0:0:0:
207,78,244541,1,0,0:0:0:0:
167,174,244713,1,2,0:0:0:0:
167,174,244798,1,0,0:0:0:0:
167,174,244884,1,0,0:0:0:0:
167,174,244970,1,0,0:0:0:0:
88,192,245055,1,2,0:0:0:0:
88,192,245227,1,2,0:0:0:0:
88,192,245398,1,2,0:0:0:0:
88,192,245484,1,0,0:0:0:0:
167,174,245741,1,4,0:0:0:0:
137,186,246084,1,2,0:0:0:0:
137,186,246170,1,2,0:0:0:0:
137,186,246256,1,0,0:0:0:0:
137,186,246341,1,0,0:0:0:0:
137,186,246427,1,2,0:0:0:0:
137,186,246599,1,0,0:0:0:0:
200,154,246770,1,0,0:0:0:0:
200,154,246942,1,2,0:0:0:0:
200,154,247284,1,2,0:0:0:0:
191,166,247370,1,0,0:0:0:0:
200,154,247456,1,0,0:0:0:0:
188,158,247627,1,0,0:0:0:0:
200,154,247799,1,2,0:0:0:0:
108,85,247884,1,2,0:0:0:0:
200,154,247970,1,0,0:0:0:0:
109,175,248142,1,2,0:0:0:0:
200,154,248484,1,0,0:0:0:0:
162,176,248827,1,2,0:0:0:0:
162,176,248913,1,0,0:0:0:0:
162,176,248999,1,0,0:0:0:0:
212,73,249084,1,0,0:0:0:0:
162,176,249170,1,2,0:0:0:0:
162,176,249342,1,0,0:0:0:0:
167,174,249513,1,0,0:0:0:0:
167,174,249684,1,0,0:0:0:0:
167,174,249770,1,2,0:0:0:0:
167,121,249856,1,2,0:0:0:0:
167,121,250027,1,0,0:0:0:0:
167,174,250199,1,2,0:0:0:0:
167,174,250284,1,0,0:0:0:0:
167,174,250456,1,0,0:0:0:0:
167,174,250542,1,2,0:0:0:0:
88,192,250627,1,0,0:0:0:0:
88,192,250713,1,2,0:0:0:0:
88,192,250884,1,2,0:0:0:0:
88,192,250970,1,0,0:0:0:0:
167,174,251227,1,0,0:0:0:0:
137,186,251570,1,2,0:0:0:0:
137,186,251656,1,0,0:0:0:0:
137,186,251742,1,2,0:0:0:0:
137,186,251827,1,2,0:0:0:0:
137,186,251912,1,0,0:0:0:0:
137,186,252085,1,0,0:0:0:0:
200,154,252256,1,0,0:0:0:0:
200,154,252428,1,2,0:0:0:0:
262,93,252513,1,0,0:0:0:0:
200,154,252770,1,2,0:0:0:0:
191,166,252942,1,0,0:0:0:0:
188,158,253113,1,0,0:0:0:0:
200,154,253198,1,0,0:0:0:0:
200,154,253285,1,2,0:0:0:0:
200,154,253456,1,0,0:0:0:0:
109,175,253628,1,2,0:0:0:0:
160,87,253712,1,0,0:0:0:0:
160,87,253798,1,2,0:0:0:0:
200,154,253970,1,0,0:0:0:0:
214,184,254227,1,0,0:0:0:0:
214,184,254312,1,2,0:0:0:0:
214,184,254484,1,2,0:0:0:0:
214,184,254570,1,0,0:0:0:0:
214,184,254655,1,0,0:0:0:0:
214,184,254827,1,2,0:0:0:0:
214,184,255084,1,2,0:0:0:0:
214,184,255170,1,0,0:0:0:0:
214,184,255341,1,2,0:0:0:0:
214,184,255512,1,0,0:0:0:0:
214,184,255598,1,2,0:0:0:0:
214,184,255684,1,0,0:0:0:0:
214,184,255855,1,2,0:0:0:0:
214,184,256112,1,2,0:0:0:0:
214,184,256198,1,0,0:0:0:0:
214,184,256284,1,0,0:0:0:0:
214,184,256370,1,2,0:0:0:0:
214,184,256541,1,2,0:0:0:0:
214,184,256712,1,4,0:0:0:0:
214,184,257055,1,2,0:0:0:0:
214,184,257227,1,4,0:0:0:0:
256,192,257741,12,0,258941,0:0:0:0:
96,151,259112,5,6,0:0:0:0:
62,253,259284,1,2,0:0:0:0:
214,184,259455,5,4,0:0:0:0:
214,184,259798,1,2,0:0:0:0:
214,184,259970,1,4,0:0:0:0:
256,192,260484,12,2,261255,0:0:0:0:
49,149,261427,5,2,0:0:0:0:
167,272,261512,1,0,0:0:0:0:
96,193,261684,1,0,0:0:0:0:
96,193,261855,1,2,0:0:0:0:
96,193,261941,1,0,0:0:0:0:
214,184,262198,5,4,0:0:0:0:
214,184,262541,1,2,0:0:0:0:
214,184,262712,1,4,0:0:0:0:
256,192,263227,12,0,264427,0:0:0:0:
242,80,264598,5,6,0:0:0:0:
258,146,264770,1,0,0:0:0:0:
258,146,264855,1,2,0:0:0:0:
214,184,264941,5,4,0:0:0:0:
214,184,265284,1,2,0:0:0:0:
214,184,265455,1,4,0:0:0:0:
258,146,265970,1,0,0:0:0:0:
258,146,266312,1,0,0:0:0:0:
258,146,266484,1,2,0:0:0:0:
258,146,266655,1,0,0:0:0:0:
112,204,266912,1,0,0:0:0:0:
112,204,266998,1,2,0:0:0:0:
112,204,267170,1,0,0:0:0:0:
112,204,267255,1,0,0:0:0:0:
112,204,267341,1,2,0:0:0:0:
112,204,267427,1,2,0:0:0:0:
112,204,267512,1,0,0:0:0:0:
112,204,267598,1,2,0:0:0:0:
187,94,267684,1,4,0:0:0:0:
187,94,268027,1,2,0:0:0:0:
187,94,268198,1,4,0:0:0:0:
154,147,268541,1,2,0:0:0:0:
154,147,268627,1,0,0:0:0:0:
154,147,268713,1,2,0:0:0:0:
154,147,268799,1,2,0:0:0:0:
154,147,268884,1,2,0:0:0:0:
154,147,268970,1,2,0:0:0:0:
154,147,269056,1,0,0:0:0:0:
61,217,269141,1,2,0:0:0:0:
154,147,269227,1,0,0:0:0:0:
154,147,269313,1,0,0:0:0:0:
154,147,269399,1,2,0:0:0:0:
154,147,269484,1,2,0:0:0:0:
154,147,269570,1,0,0:0:0:0:
154,147,269656,1,0,0:0:0:0:
154,147,269741,1,2,0:0:0:0:
120,213,269827,1,0,0:0:0:0:
154,147,269913,1,0,0:0:0:0:
154,147,270084,1,6,0:0:0:0:
260,115,270427,1,4,0:0:0:0:
260,115,270770,1,2,0:0:0:0:
260,115,270942,1,4,0:0:0:0:
194,152,271284,1,2,0:0:0:0:
194,152,271370,1,2,0:0:0:0:
194,152,271456,1,2,0:0:0:0:
194,152,271541,1,2,0:0:0:0:
194,152,271627,1,0,0:0:0:0:
194,152,271713,1,0,0:0:0:0:
194,152,271799,1,2,0:0:0:0:
75,228,271884,1,2,0:0:0:0:
194,152,271970,1,0,0:0:0:0:
194,152,272056,1,0,0:0:0:0:
194,152,272141,1,2,0:0:0:0:
194,152,272227,1,2,0:0:0:0:
194,152,272313,1,0,0:0:0:0:
194,152,272399,1,2,0:0:0:0:
194,152,272484,1,0,0:0:0:0:
193,176,272570,1,2,0:0:0:0:
194,152,272656,1,0,0:0:0:0:
130,163,272827,1,2,0:0:0:0:
130,163,272913,1,0,0:0:0:0:
193,176,272998,1,0,0:0:0:0:
130,163,273170,1,4,0:0:0:0:
130,163,273513,1,2,0:0:0:0:
130,163,273684,1,4,0:0:0:0:
130,163,274027,1,2,0:0:0:0:
130,163,274113,1,0,0:0:0:0:
130,163,274199,1,2,0:0:0:0:
130,163,274284,1,2,0:0:0:0:
130,163,274370,1,0,0:0:0:0:
130,163,274456,1,0,0:0:0:0:
130,163,274541,1,2,0:0:0:0:
75,228,274627,1,2,0:0:0:0:
130,163,274713,1,0,0:0:0:0:
130,163,274799,1,0,0:0:0:0:
130,163,274884,1,2,0:0:0:0:
130,163,274970,1,0,0:0:0:0:
130,163,275056,1,2,0:0:0:0:
130,163,275141,1,2,0:0:0:0:
130,163,275227,1,0,0:0:0:0:
130,163,275313,1,2,0:0:0:0:
130,163,275399,1,0,0:0:0:0:
130,163,275570,1,6,0:0:0:0:
247,183,275741,1,0,0:0:0:0:
247,183,275827,1,2,0:0:0:0:
247,183,275913,1,4,0:0:0:0:
247,183,276256,1,2,0:0:0:0:
247,183,276427,1,4,0:0:0:0:
95,192,276770,1,2,0:0:0:0:
95,192,276856,1,2,0:0:0:0:
95,192,276941,1,2,0:0:0:0:
95,192,277027,1,2,0:0:0:0:
95,192,277113,1,0,0:0:0:0:
95,192,277199,1,2,0:0:0:0:
95,192,277284,1,0,0:0:0:0:
227,205,277370,1,0,0:0:0:0:
185,159,277456,1,2,0:0:0:0:
174,157,277627,1,0,0:0:0:0:
174,157,277799,1,0,0:0:0:0:
174,157,277884,1,0,0:0:0:0:
171,155,277970,1,2,0:0:0:0:
171,155,278056,1,2,0:0:0:0:
171,155,278141,1,2,0:0:0:0:
171,155,278227,1,0,0:0:0:0:
171,155,278313,1,2,0:0:0:0:
171,155,278399,1,2,0:0:0:0:
146,178,278484,1,0,0:0:0:0:
178,92,278569,1,2,0:0:0:0:
192,100,278655,1,4,0:0:0:0:
276,245,278998,1,2,0:0:0:0:
276,245,279170,1,0,0:0:0:0:
276,245,279255,1,0,0:0:0:0:
276,245,279341,1,2,0:0:0:0:
276,245,279512,1,0,0:0:0:0:
276,245,279684,1,2,0:0:0:0:
276,245,279770,1,0,0:0:0:0:
276,245,279855,1,2,0:0:0:0:
276,245,279941,1,2,0:0:0:0:
276,245,280027,1,2,0:0:0:0:
276,245,280198,1,0,0:0:0:0:
205,166,280370,1,0,0:0:0:0:
205,166,280455,1,2,0:0:0:0:
205,166,280541,1,2,0:0:0:0:
214,166,280712,1,0,0:0:0:0:
214,166,280798,1,2,0:0:0:0:
214,166,280970,1,0,0:0:0:0:
214,166,281055,1,2,0:0:0:0:
214,166,281227,1,2,0:0:0:0:
214,166,281312,1,2,0:0:0:0:
214,166,281398,1,0,0:0:0:0:
163,137,281741,1,2,0:0:0:0:
163,129,281827,1,0,0:0:0:0:
163,129,281998,1,0,0:0:0:0:
163,129,282084,1,0,0:0:0:0:
163,129,282170,1,2,0:0:0:0:
163,129,282255,1,0,0:0:0:0:
163,129,282427,1,2,0:0:0:0:
163,129,282598,1,0,0:0:0:0:
161,128,282684,1,2,0:0:0:0:
161,128,282770,1,0,0:0:0:0:
163,129,282941,1,0,0:0:0:0:
163,129,283112,1,2,0:0:0:0:
81,194,283198,1,2,0:0:0:0:
81,194,283284,1,0,0:0:0:0:
81,194,283370,1,2,0:0:0:0:
81,194,283455,1,0,0:0:0:0:
94,197,283627,1,0,0:0:0:0:
94,197,283798,1,2,0:0:0:0:
94,197,283884,1,0,0:0:0:0:
185,211,284055,1,2,0:0:0:0:
185,211,284141,1,0,0:0:0:0:
142,192,284484,1,2,0:0:0:0:
191,184,284570,1,2,0:0:0:0:
186,181,284655,1,0,0:0:0:0:
186,181,284827,1,2,0:0:0:0:
186,181,284998,1,0,0:0:0:0:
186,181,285170,1,2,0:0:0:0:
186,181,285255,1,0,0:0:0:0:
186,181,285341,1,0,0:0:0:0:
186,181,285427,1,0,0:0:0:0:
186,181,285512,1,2,0:0:0:0:
190,201,285684,1,0,0:0:0:0:
190,201,285855,1,2,0:0:0:0:
190,201,285941,1,0,0:0:0:0:
190,201,286027,1,0,0:0:0:0:
190,201,286198,1,0,0:0:0:0:
190,201,286284,1,2,0:0:0:0:
190,201,286455,1,0,0:0:0:0:
190,201,286541,1,2,0:0:0:0:
190,201,286712,1,0,0:0:0:0:
190,201,286798,1,0,0:0:0:0:
190,201,286884,1,0,0:0:0:0:
190,201,287141,1,0,0:0:0:0:
190,201,287227,1,2,0:0:0:0:
190,201,287398,1,0,0:0:0:0:
190,201,287655,1,2,0:0:0:0:
190,201,287741,1,0,0:0:0:0:
190,201,287912,1,2,0:0:0:0:
190,201,288084,1,0,0:0:0:0:
122,163,288255,1,0,0:0:0:0:
122,163,288341,1,0,0:0:0:0:
122,163,288427,1,2,0:0:0:0:
122,163,288598,1,0,0:0:0:0:
122,163,288684,1,0,0:0:0:0:
122,163,288770,1,0,0:0:0:0:
122,163,288855,1,0,0:0:0:0:
122,163,288941,1,2,0:0:0:0:
122,163,289112,1,0,0:0:0:0:
122,163,289198,1,0,0:0:0:0:
122,163,289284,1,2,0:0:0:0:
119,178,289370,1,0,0:0:0:0:
119,178,289455,1,2,0:0:0:0:
119,178,289541,1,2,0:0:0:0:
119,178,289627,1,4,0:0:0:0:
276,245,289970,1,2,0:0:0:0:
276,245,290055,1,0,0:0:0:0:
276,245,290227,1,2,0:0:0:0:
276,245,290313,1,0,0:0:0:0:
276,245,290484,1,2,0:0:0:0:
276,245,290570,1,2,0:0:0:0:
276,245,290655,1,0,0:0:0:0:
276,245,290827,1,2,0:0:0:0:
276,245,290999,1,0,0:0:0:0:
276,245,291170,1,2,0:0:0:0:
205,166,291255,1,2,0:0:0:0:
89,153,291341,1,0,0:0:0:0:
205,166,291427,1,0,0:0:0:0:
205,166,291513,1,2,0:0:0:0:
214,166,291684,1,0,0:0:0:0:
214,166,291770,1,0,0:0:0:0:
214,166,291855,1,2,0:0:0:0:
214,166,291941,1,2,0:0:0:0:
214,166,292027,1,0,0:0:0:0:
214,166,292112,1,2,0:0:0:0:
70,246,292198,1,0,0:0:0:0:
214,166,292370,1,0,0:0:0:0:
185,240,292627,1,0,0:0:0:0:
163,137,292713,1,2,0:0:0:0:
163,129,292884,1,0,0:0:0:0:
163,129,293056,1,0,0:0:0:0:
163,129,293142,1,2,0:0:0:0:
163,129,293227,1,0,0:0:0:0:
163,129,293399,1,2,0:0:0:0:
163,129,293570,1,0,0:0:0:0:
161,128,293656,1,2,0:0:0:0:
161,128,293742,1,2,0:0:0:0:
163,129,293827,1,2,0:0:0:0:
201,94,293912,1,0,0:0:0:0:
163,129,294084,1,2,0:0:0:0:
81,194,294170,1,2,0:0:0:0:
81,194,294256,1,0,0:0:0:0:
81,194,294427,1,0,0:0:0:0:
216,95,294512,1,2,0:0:0:0:
94,197,294599,1,0,0:0:0:0:
216,95,294684,1,0,0:0:0:0:
94,197,294770,1,2,0:0:0:0:
94,197,294856,1,0,0:0:0:0:
185,211,295027,1,2,0:0:0:0:
185,211,295113,1,0,0:0:0:0:
142,192,295455,1,0,0:0:0:0:
191,184,295542,1,2,0:0:0:0:
186,181,295627,1,0,0:0:0:0:
186,181,295799,1,2,0:0:0:0:
186,181,295970,1,0,0:0:0:0:
186,181,296142,1,2,0:0:0:0:
186,181,296227,1,0,0:0:0:0:
186,181,296313,1,0,0:0:0:0:
186,181,296484,1,2,0:0:0:0:
157,90,296570,1,0,0:0:0:0:
190,201,296741,1,0,0:0:0:0:
190,201,296827,1,2,0:0:0:0:
190,201,296913,1,0,0:0:0:0:
190,201,296999,1,0,0:0:0:0:
190,201,297170,1,0,0:0:0:0:
190,201,297256,1,2,0:0:0:0:
190,201,297341,1,2,0:0:0:0:
190,201,297427,1,0,0:0:0:0:
94,148,297512,1,2,0:0:0:0:
190,201,297684,1,0,0:0:0:0:
190,201,297770,1,0,0:0:0:0:
190,201,297856,1,0,0:0:0:0:
190,201,298113,1,0,0:0:0:0:
190,201,298199,1,2,0:0:0:0:
72,120,298284,1,2,0:0:0:0:
190,201,298370,1,0,0:0:0:0:
190,201,298627,1,2,0:0:0:0:
190,201,298713,1,0,0:0:0:0:
186,131,298798,1,0,0:0:0:0:
190,201,298884,1,2,0:0:0:0:
190,201,299056,1,0,0:0:0:0:
122,163,299227,1,0,0:0:0:0:
122,163,299313,1,0,0:0:0:0:
122,163,299399,1,2,0:0:0:0:
122,163,299570,1,0,0:0:0:0:
122,163,299742,1,0,0:0:0:0:
122,163,299827,1,0,0:0:0:0:
122,163,299913,1,2,0:0:0:0:
208,95,299998,1,0,0:0:0:0:
122,163,300084,1,2,0:0:0:0:
122,163,300170,1,0,0:0:0:0:
122,163,300256,1,2,0:0:0:0:
119,178,300342,1,2,0:0:0:0:
119,178,300427,1,0,0:0:0:0:
119,178,300513,1,2,0:0:0:0:
119,178,300599,1,4,0:0:0:0:
103,220,301284,1,2,0:0:0:0:
200,136,301969,1,0,0:0:0:0:
145,179,302312,1,0,0:0:0:0:
103,220,302655,1,2,0:0:0:0:
200,136,303341,1,0,0:0:0:0:
200,136,304026,1,2,0:0:0:0:
142,172,304369,1,0,0:0:0:0:
200,136,304712,1,0,0:0:0:0:
240,204,304884,1,2,0:0:0:0:
240,204,305055,1,0,0:0:0:0:
200,136,305398,1,2,0:0:0:0:
200,136,306084,1,0,0:0:0:0:
180,164,306341,1,0,0:0:0:0:
200,136,306426,1,0,0:0:0:0:
223,84,306598,1,0,0:0:0:0:
200,136,306769,1,2,0:0:0:0:
142,172,306941,1,0,0:0:0:0:
200,136,307112,1,0,0:0:0:0:
200,136,307455,1,0,0:0:0:0:
142,172,307627,1,2,0:0:0:0:
183,210,307712,1,2,0:0:0:0:
200,136,307798,1,0,0:0:0:0:
142,172,307969,1,0,0:0:0:0:
200,136,308141,1,2,0:0:0:0:
101,214,308227,1,2,0:0:0:0:
101,214,308312,1,0,0:0:0:0:
200,136,308484,1,0,0:0:0:0:
238,212,308655,1,0,0:0:0:0:
238,212,308741,1,2,0:0:0:0:
238,212,308827,1,0,0:0:0:0:
200,136,308998,1,0,0:0:0:0:
128,130,309169,1,2,0:0:0:0:
188,145,309255,1,0,0:0:0:0:
200,136,309341,1,0,0:0:0:0:
188,145,309427,1,0,0:0:0:0:
200,136,309512,1,2,0:0:0:0:
128,130,309598,1,0,0:0:0:0:
200,136,309684,1,0,0:0:0:0:
128,130,309769,1,2,0:0:0:0:
200,136,309855,1,0,0:0:0:0:
128,130,309941,1,2,0:0:0:0:
200,136,310026,1,2,0:0:0:0:
128,130,310112,1,2,0:0:0:0:
200,136,310198,1,0,0:0:0:0:
123,135,310284,1,0,0:0:0:0:
200,136,310370,1,2,0:0:0:0:
123,135,310455,1,2,0:0:0:0:
202,140,310541,1,0,0:0:0:0:
123,135,310626,1,0,0:0:0:0:
202,140,310712,1,2,0:0:0:0:
123,135,310798,1,0,0:0:0:0:
202,141,310884,1,2,0:0:0:0:
123,135,310969,1,2,0:0:0:0:
202,141,311055,1,0,0:0:0:0:
123,135,311141,1,2,0:0:0:0:
123,135,311226,1,2,0:0:0:0:
123,135,311312,1,0,0:0:0:0:
202,140,311398,1,2,0:0:0:0:
202,140,311569,1,6,0:0:0:0:
296,224,311827,1,0,0:0:0:0:
306,178,311912,1,2,0:0:0:0:
306,178,311970,1,2,0:0:0:0:
306,178,312027,1,2,0:0:0:0:
306,178,312084,1,0,0:0:0:0:
161,222,312255,1,2,0:0:0:0:
219,271,312427,1,0,0:0:0:0:
219,271,312512,1,0,0:0:0:0:
219,271,312598,1,2,0:0:0:0:
219,271,312684,1,2,0:0:0:0:
219,271,312770,1,0,0:0:0:0:
163,211,313112,1,0,0:0:0:0:
157,215,313284,1,2,0:0:0:0:
302,218,313370,1,2,0:0:0:0:
302,218,313455,1,0,0:0:0:0:
363,254,313627,1,0,0:0:0:0:
363,254,313712,1,0,0:0:0:0:
283,207,313798,1,2,0:0:0:0:
288,205,313855,1,0,0:0:0:0:
288,205,313912,1,0,0:0:0:0:
288,205,313970,1,2,0:0:0:0:
288,205,314055,1,2,0:0:0:0:
288,205,314141,1,0,0:0:0:0:
378,151,314312,1,2,0:0:0:0:
362,267,314370,1,2,0:0:0:0:
340,268,314427,1,0,0:0:0:0:
104,197,314484,1,2,0:0:0:0:
363,267,314656,1,2,0:0:0:0:
174,244,314827,1,0,0:0:0:0:
161,238,314912,1,0,0:0:0:0:
161,238,314998,1,0,0:0:0:0:
226,170,315170,1,0,0:0:0:0:
226,170,315212,1,0,0:0:0:0:
85,175,315341,1,2,0:0:0:0:
85,175,315384,1,2,0:0:0:0:
85,175,315512,1,0,0:0:0:0:
182,258,315855,1,0,0:0:0:0:
182,258,315941,1,0,0:0:0:0:
182,258,316027,1,2,0:0:0:0:
182,258,316198,1,2,0:0:0:0:
182,258,316284,1,2,0:0:0:0:
182,258,316370,1,0,0:0:0:0:
182,258,316455,1,2,0:0:0:0:
182,258,316541,1,0,0:0:0:0:
182,258,316627,1,0,0:0:0:0:
182,258,316712,1,2,0:0:0:0:
182,258,316798,1,0,0:0:0:0:
182,258,316970,1,2,0:0:0:0:
182,258,317055,1,0,0:0:0:0:
296,265,317112,1,0,0:0:0:0:
296,265,317170,1,0,0:0:0:0:
296,265,317227,1,2,0:0:0:0:
296,265,317398,1,2,0:0:0:0:
296,265,317455,1,2,0:0:0:0:
296,265,317512,1,2,0:0:0:0:
296,265,317570,1,0,0:0:0:0:
318,224,317912,1,2,0:0:0:0:
318,224,317998,1,2,0:0:0:0:
318,224,318084,1,0,0:0:0:0:
318,224,318255,1,0,0:0:0:0:
308,140,318341,1,0,0:0:0:0:
318,224,318427,1,2,0:0:0:0:
45,166,318512,1,0,0:0:0:0:
308,140,318598,1,2,0:0:0:0:
308,140,318770,1,0,0:0:0:0:
308,140,318855,1,0,0:0:0:0:
308,140,318941,1,0,0:0:0:0:
271,136,319112,1,0,0:0:0:0:
102,151,319170,1,2,0:0:0:0:
102,151,319227,1,2,0:0:0:0:
271,136,319284,1,0,0:0:0:0:
271,136,319370,1,0,0:0:0:0:
271,136,319455,1,2,0:0:0:0:
271,136,319541,1,2,0:0:0:0:
271,136,319627,1,0,0:0:0:0:
192,177,319798,1,0,0:0:0:0:
192,177,319884,1,2,0:0:0:0:
192,177,319970,1,0,0:0:0:0:
192,177,320055,1,0,0:0:0:0:
192,177,320141,1,2,0:0:0:0:
192,177,320312,1,0,0:0:0:0:
192,177,320398,1,2,0:0:0:0:
192,177,320484,1,2,0:0:0:0:
192,177,320570,1,0,0:0:0:0:
192,177,320655,1,2,0:0:0:0:
192,177,320741,1,0,0:0:0:0:
192,177,320827,1,2,0:0:0:0:
192,177,320998,1,0,0:0:0:0:
358,186,321170,1,2,0:0:0:0:
358,186,321212,1,2,0:0:0:0:
358,186,321341,1,0,0:0:0:0:
358,186,321512,1,0,0:0:0:0:
358,186,321570,1,0,0:0:0:0:
358,186,321627,1,0,0:0:0:0:
358,186,321684,1,0,0:0:0:0:
233,194,321855,1,2,0:0:0:0:
233,194,321941,1,2,0:0:0:0:
233,194,322027,1,0,0:0:0:0:
233,194,322112,1,0,0:0:0:0:
233,194,322198,1,2,0:0:0:0:
138,200,322370,1,0,0:0:0:0:
138,200,322541,1,6,0:0:0:0:
132,188,322798,1,0,0:0:0:0:
274,211,322884,1,2,0:0:0:0:
274,211,322941,1,2,0:0:0:0:
274,211,322998,1,2,0:0:0:0:
274,211,323055,1,0,0:0:0:0:
365,185,323227,1,2,0:0:0:0:
365,185,323398,1,0,0:0:0:0:
365,185,323484,1,2,0:0:0:0:
365,185,323570,1,0,0:0:0:0:
365,185,323655,1,2,0:0:0:0:
365,185,323741,1,0,0:0:0:0:
243,295,324084,1,0,0:0:0:0:
243,295,324255,1,2,0:0:0:0:
243,295,324427,1,2,0:0:0:0:
89,183,324512,1,2,0:0:0:0:
243,295,324598,1,0,0:0:0:0:
285,235,324684,1,0,0:0:0:0:
285,235,324770,1,2,0:0:0:0:
285,235,324827,1,2,0:0:0:0:
285,235,324884,1,0,0:0:0:0:
285,235,324941,1,2,0:0:0:0:
285,235,325112,1,0,0:0:0:0:
348,258,325284,1,2,0:0:0:0:
348,258,325341,1,0,0:0:0:0:
348,258,325398,1,0,0:0:0:0:
348,258,325455,1,0,0:0:0:0:
348,258,325627,1,0,0:0:0:0:
351,248,325798,1,0,0:0:0:0:
350,304,325884,1,0,0:0:0:0:
350,304,325970,1,0,0:0:0:0:
281,184,326055,1,0,0:0:0:0:
109,91,326141,1,2,0:0:0:0:
281,184,326312,1,0,0:0:0:0:
197,216,326484,1,0,0:0:0:0:
197,216,326541,1,2,0:0:0:0:
197,216,326598,1,2,0:0:0:0:
197,216,326655,1,0,0:0:0:0:
197,216,326827,1,0,0:0:0:0:
197,216,326998,1,0,0:0:0:0:
197,216,327055,1,2,0:0:0:0:
197,216,327112,1,2,0:0:0:0:
197,216,327170,1,0,0:0:0:0:
218,158,327255,1,0,0:0:0:0:
102,197,327341,1,2,0:0:0:0:
102,197,327427,1,2,0:0:0:0:
102,197,327512,1,0,0:0:0:0:
204,172,327684,1,2,0:0:0:0:
204,172,327770,1,0,0:0:0:0:
175,98,327941,1,2,0:0:0:0:
298,176,328027,1,0,0:0:0:0:
298,176,328084,1,0,0:0:0:0:
298,176,328141,1,0,0:0:0:0:
298,176,328198,1,2,0:0:0:0:
298,176,328370,1,2,0:0:0:0:
298,176,328427,1,2,0:0:0:0:
298,176,328484,1,2,0:0:0:0:
298,176,328541,1,0,0:0:0:0:
174,173,328884,1,2,0:0:0:0:
174,173,328970,1,2,0:0:0:0:
174,173,329055,1,0,0:0:0:0:
226,238,329141,1,0,0:0:0:0:
174,173,329227,1,2,0:0:0:0:
174,173,329398,1,0,0:0:0:0:
174,173,329570,1,0,0:0:0:0:
174,173,329655,1,0,0:0:0:0:
174,173,329741,1,2,0:0:0:0:
174,173,329912,1,2,0:0:0:0:
325,216,330084,1,0,0:0:0:0:
325,216,330141,1,0,0:0:0:0:
325,216,330198,1,0,0:0:0:0:
325,216,330255,1,0,0:0:0:0:
325,216,330341,1,0,0:0:0:0:
325,216,330427,1,2,0:0:0:0:
325,216,330512,1,2,0:0:0:0:
325,216,330598,1,0,0:0:0:0:
325,216,330770,1,0,0:0:0:0:
204,101,330855,1,0,0:0:0:0:
132,153,330941,1,2,0:0:0:0:
132,153,331027,1,2,0:0:0:0:
132,153,331112,1,0,0:0:0:0:
132,153,331284,1,2,0:0:0:0:
132,153,331370,1,0,0:0:0:0:
132,153,331455,1,2,0:0:0:0:
132,153,331541,1,0,0:0:0:0:
132,153,331627,1,2,0:0:0:0:
132,153,331712,1,2,0:0:0:0:
206,203,331798,1,0,0:0:0:0:
206,203,331970,1,0,0:0:0:0:
182,175,332141,1,2,0:0:0:0:
362,93,332184,1,2,0:0:0:0:
132,191,332312,1,0,0:0:0:0:
132,191,332484,1,0,0:0:0:0:
132,191,332527,1,0,0:0:0:0:
132,191,332655,1,0,0:0:0:0:
144,66,332827,2,4,L|384:198,1,241.500004606247
247,146,333512,1,4,0:0:0:0:
108,248,333855,1,0,0:0:0:0:
108,248,334198,1,2,0:0:0:0:
161,174,334455,1,2,0:0:0:0:
161,174,334541,1,0,0:0:0:0:
161,174,334712,1,2,0:0:0:0:
161,174,334798,1,0,0:0:0:0:
161,174,334884,1,0,0:0:0:0:
148,174,335141,1,0,0:0:0:0:
153,169,335227,1,0,0:0:0:0:
148,174,335398,1,0,0:0:0:0:
153,169,335570,1,2,0:0:0:0:
148,174,335655,1,2,0:0:0:0:
148,174,335741,1,0,0:0:0:0:
153,169,335912,1,2,0:0:0:0:
248,182,336255,1,0,0:0:0:0:
248,182,336341,1,0,0:0:0:0:
248,182,336427,1,0,0:0:0:0:
248,182,336512,1,0,0:0:0:0:
287,211,336598,1,2,0:0:0:0:
287,211,336641,1,2,0:0:0:0:
287,211,336770,1,0,0:0:0:0:
287,211,336941,1,2,0:0:0:0:
287,211,337027,1,2,0:0:0:0:
287,211,337112,1,0,0:0:0:0:
287,211,337198,1,0,0:0:0:0:
287,211,337284,1,2,0:0:0:0:
287,211,337327,1,0,0:0:0:0:
287,211,337370,1,2,0:0:0:0:
287,211,337455,1,0,0:0:0:0:
271,151,337627,1,0,0:0:0:0:
278,172,337798,1,0,0:0:0:0:
278,172,337884,1,2,0:0:0:0:
278,172,337970,1,0,0:0:0:0:
279,173,338141,1,2,0:0:0:0:
279,173,338227,1,0,0:0:0:0:
279,173,338312,1,2,0:0:0:0:
279,173,338398,1,2,0:0:0:0:
279,173,338484,1,0,0:0:0:0:
279,173,338655,1,2,0:0:0:0:
278,172,338741,1,0,0:0:0:0:
136,87,338998,2,0,L|375:233,1,241.500004606247
279,173,339684,1,2,0:0:0:0:
116,203,339941,1,2,0:0:0:0:
116,203,340027,1,0,0:0:0:0:
116,203,340198,1,2,0:0:0:0:
116,203,340284,1,0,0:0:0:0:
116,203,340370,1,0,0:0:0:0:
116,203,340541,1,0,0:0:0:0:
116,203,340712,1,0,0:0:0:0:
116,203,340798,1,2,0:0:0:0:
116,203,340884,1,0,0:0:0:0:
272,246,341055,1,2,0:0:0:0:
272,246,341112,1,2,0:0:0:0:
272,246,341170,1,2,0:0:0:0:
288,228,341227,1,0,0:0:0:0:
209,111,341312,1,0,0:0:0:0:
288,228,341398,1,2,0:0:0:0:
288,228,341484,1,0,0:0:0:0:
288,228,341570,1,2,0:0:0:0:
288,228,341741,1,0,0:0:0:0:
62,223,341827,1,0,0:0:0:0:
280,228,341912,1,2,0:0:0:0:
280,228,341998,1,2,0:0:0:0:
209,111,342084,1,0,0:0:0:0:
88,186,342127,1,0,0:0:0:0:
157,143,342255,1,2,0:0:0:0:
88,186,342427,1,0,0:0:0:0:
88,186,342512,1,2,0:0:0:0:
88,186,342598,1,0,0:0:0:0:
88,186,342684,1,2,0:0:0:0:
88,186,342770,1,0,0:0:0:0:
88,186,342812,1,2,0:0:0:0:
88,186,342855,1,0,0:0:0:0:
149,184,342941,1,2,0:0:0:0:
165,212,343112,1,2,0:0:0:0:
165,212,343284,1,0,0:0:0:0:
165,212,343455,1,2,0:0:0:0:
165,212,343541,1,2,0:0:0:0:
165,212,343627,1,0,0:0:0:0:
165,212,343798,1,6,0:0:0:0:
165,212,343970,1,0,0:0:0:0:
165,212,344141,1,0,0:0:0:0:
165,212,344227,1,0,0:0:0:0:
165,212,344312,1,0,0:0:0:0:
165,212,344398,1,0,0:0:0:0:
165,212,344484,1,6,0:0:0:0:
189,174,344827,1,0,0:0:0:0:
189,174,345170,1,2,0:0:0:0:
189,174,345427,1,2,0:0:0:0:
189,174,345512,1,0,0:0:0:0:
189,174,345684,1,0,0:0:0:0:
189,174,345770,1,2,0:0:0:0:
189,174,345855,1,0,0:0:0:0:
189,174,346112,1,0,0:0:0:0:
189,174,346198,1,0,0:0:0:0:
134,192,346370,1,0,0:0:0:0:
134,192,346541,1,2,0:0:0:0:
114,168,346712,1,0,0:0:0:0:
114,168,346798,1,0,0:0:0:0:
114,168,346884,1,2,0:0:0:0:
297,169,346970,1,0,0:0:0:0:
297,169,347055,1,0,0:0:0:0:
165,209,347227,1,0,0:0:0:0:
165,209,347312,1,0,0:0:0:0:
165,209,347398,1,0,0:0:0:0:
165,209,347484,1,0,0:0:0:0:
320,147,347570,1,2,0:0:0:0:
320,147,347612,1,2,0:0:0:0:
320,147,347741,1,0,0:0:0:0:
86,212,347912,1,2,0:0:0:0:
86,212,347998,1,2,0:0:0:0:
86,212,348084,1,0,0:0:0:0:
86,212,348170,1,0,0:0:0:0:
280,146,348255,1,2,0:0:0:0:
280,146,348298,1,0,0:0:0:0:
280,146,348341,1,2,0:0:0:0:
218,91,348427,1,0,0:0:0:0:
177,187,348598,1,0,0:0:0:0:
177,187,348770,1,0,0:0:0:0:
177,187,348855,1,2,0:0:0:0:
177,187,348941,1,0,0:0:0:0:
177,187,349112,1,2,0:0:0:0:
177,187,349198,1,0,0:0:0:0:
177,187,349284,1,0,0:0:0:0:
177,187,349370,1,2,0:0:0:0:
177,187,349455,1,0,0:0:0:0:
177,187,349541,1,2,0:0:0:0:
177,187,349627,1,2,0:0:0:0:
177,187,349712,1,0,0:0:0:0:
215,72,349970,2,0,L|425:214,1,241.500004606247
88,250,350655,1,2,0:0:0:0:
88,250,350741,1,2,0:0:0:0:
88,250,350827,1,2,0:0:0:0:
88,250,350912,1,2,0:0:0:0:
88,250,350998,1,0,0:0:0:0:
88,250,351170,1,0,0:0:0:0:
88,250,351255,1,2,0:0:0:0:
88,250,351341,1,0,0:0:0:0:
88,250,351684,1,0,0:0:0:0:
88,250,351855,1,0,0:0:0:0:
188,214,351941,1,0,0:0:0:0:
88,250,352027,1,2,0:0:0:0:
88,250,352084,1,0,0:0:0:0:
88,250,352141,1,0,0:0:0:0:
150,151,352198,1,2,0:0:0:0:
156,153,352255,1,0,0:0:0:0:
156,153,352312,1,0,0:0:0:0:
156,153,352370,1,2,0:0:0:0:
156,153,352541,1,0,0:0:0:0:
264,240,352712,1,0,0:0:0:0:
287,218,352798,1,0,0:0:0:0:
287,218,352884,1,2,0:0:0:0:
287,218,352970,1,2,0:0:0:0:
287,218,353055,1,0,0:0:0:0:
287,218,353098,1,0,0:0:0:0:
166,173,353227,1,2,0:0:0:0:
249,154,353398,1,0,0:0:0:0:
249,154,353484,1,2,0:0:0:0:
249,154,353570,1,0,0:0:0:0:
249,154,353655,1,2,0:0:0:0:
129,164,353741,1,0,0:0:0:0:
129,164,353784,1,2,0:0:0:0:
129,164,353827,1,0,0:0:0:0:
129,164,353912,1,2,0:0:0:0:
163,161,354084,1,6,0:0:0:0:
164,161,354255,1,0,0:0:0:0:
163,161,354341,1,0,0:0:0:0:
163,161,354427,1,6,0:0:0:0:
163,161,354598,1,0,0:0:0:0:
196,106,354770,2,0,L|414:239,1,241.500004606247
216,221,355455,5,4,0:0:0:0:
207,182,355798,1,2,0:0:0:0:
207,182,355884,1,2,0:0:0:0:
207,182,355970,1,0,0:0:0:0:
155,198,356141,1,2,0:0:0:0:
155,198,356312,1,0,0:0:0:0:
155,198,356398,1,0,0:0:0:0:
155,198,356484,1,2,0:0:0:0:
155,198,356570,1,2,0:0:0:0:
155,198,356655,1,0,0:0:0:0:
191,122,356827,1,2,0:0:0:0:
191,122,356998,1,0,0:0:0:0:
146,151,357084,1,2,0:0:0:0:
146,151,357170,1,2,0:0:0:0:
146,151,357255,1,2,0:0:0:0:
146,151,357341,1,0,0:0:0:0:
162,139,357512,1,0,0:0:0:0:
160,140,357598,1,2,0:0:0:0:
152,144,357684,1,2,0:0:0:0:
162,139,357855,1,0,0:0:0:0:
162,139,358027,1,2,0:0:0:0:
162,139,358112,1,2,0:0:0:0:
162,139,358198,1,0,0:0:0:0:
213,243,358541,1,2,0:0:0:0:
181,187,358712,1,0,0:0:0:0:
4,201,358884,1,2,0:0:0:0:
4,201,358970,1,2,0:0:0:0:
4,201,359055,1,0,0:0:0:0:
4,201,359227,1,2,0:0:0:0:
4,201,359312,1,2,0:0:0:0:
4,201,359398,1,0,0:0:0:0:
4,201,359484,1,2,0:0:0:0:
4,201,359570,1,0,0:0:0:0:
110,213,359741,1,2,0:0:0:0:
110,213,359827,1,0,0:0:0:0:
110,213,359912,1,0,0:0:0:0:
110,213,359998,1,2,0:0:0:0:
110,213,360084,1,0,0:0:0:0:
110,213,360255,1,2,0:0:0:0:
110,213,360341,1,0,0:0:0:0:
110,213,360427,1,0,0:0:0:0:
110,213,360512,1,2,0:0:0:0:
110,213,360598,1,0,0:0:0:0:
110,213,360684,1,2,0:0:0:0:
110,213,360941,1,0,0:0:0:0:
182,232,360998,1,0,0:0:0:0:
182,232,361055,1,0,0:0:0:0:
182,232,361112,1,2,0:0:0:0:
182,232,361284,1,2,0:0:0:0:
182,232,361341,1,2,0:0:0:0:
182,232,361398,1,2,0:0:0:0:
182,232,361455,1,0,0:0:0:0:
258,176,361627,1,6,0:0:0:0:
172,92,361798,1,0,0:0:0:0:
172,92,361884,1,0,0:0:0:0:
172,92,361970,1,0,0:0:0:0:
258,176,362141,1,6,0:0:0:0:
61,211,362312,1,0,0:0:0:0:
61,211,362398,1,2,0:0:0:0:
61,211,362484,1,0,0:0:0:0:
258,176,362655,1,6,0:0:0:0:
204,115,362827,1,2,0:0:0:0:
61,211,362912,1,2,0:0:0:0:
61,211,362998,1,0,0:0:0:0:
258,176,363170,1,6,0:0:0:0:
61,211,363341,1,0,0:0:0:0:
61,211,363427,1,0,0:0:0:0:
61,211,363512,1,0,0:0:0:0:
61,211,363598,1,0,0:0:0:0:
61,211,363684,1,2,0:0:0:0:
237,240,363741,1,2,0:0:0:0:
237,240,363798,1,2,0:0:0:0:
237,240,363855,1,0,0:0:0:0:
237,240,363941,1,0,0:0:0:0:
362,101,364027,1,2,0:0:0:0:
239,193,364084,1,0,0:0:0:0:
142,205,364141,1,0,0:0:0:0:
112,183,364198,1,0,0:0:0:0:
258,176,364370,1,6,0:0:0:0:
196,184,364627,1,2,0:0:0:0:
196,184,364712,1,0,0:0:0:0:
258,176,364884,1,6,0:0:0:0:
212,109,365141,1,0,0:0:0:0:
196,184,365227,1,0,0:0:0:0:
258,176,365398,1,6,0:0:0:0:
212,109,365570,1,0,0:0:0:0:
95,273,365741,1,0,0:0:0:0:
95,273,365827,1,0,0:0:0:0:
258,176,365912,1,6,0:0:0:0:
149,95,366084,1,0,0:0:0:0:
149,95,366255,1,0,0:0:0:0:
149,95,366341,1,2,0:0:0:0:
149,95,366427,1,4,0:0:0:0:
207,182,366770,1,2,0:0:0:0:
207,182,366856,1,0,0:0:0:0:
207,182,366942,1,0,0:0:0:0:
155,198,367113,1,0,0:0:0:0:
155,198,367284,1,2,0:0:0:0:
155,198,367370,1,2,0:0:0:0:
155,198,367456,1,0,0:0:0:0:
155,198,367627,1,0,0:0:0:0:
191,122,367799,1,2,0:0:0:0:
191,122,367970,1,2,0:0:0:0:
146,151,368056,1,2,0:0:0:0:
146,151,368142,1,0,0:0:0:0:
146,151,368227,1,0,0:0:0:0:
146,151,368313,1,2,0:0:0:0:
162,139,368484,1,0,0:0:0:0:
160,140,368570,1,2,0:0:0:0:
152,144,368656,1,0,0:0:0:0:
162,139,368827,1,0,0:0:0:0:
162,139,368999,1,2,0:0:0:0:
162,139,369084,1,2,0:0:0:0:
162,139,369170,1,0,0:0:0:0:
213,243,369513,1,2,0:0:0:0:
181,187,369684,1,0,0:0:0:0:
4,201,369770,1,0,0:0:0:0:
4,201,369855,1,0,0:0:0:0:
4,201,370027,1,0,0:0:0:0:
4,201,370199,1,2,0:0:0:0:
4,201,370284,1,2,0:0:0:0:
4,201,370370,1,0,0:0:0:0:
4,201,370456,1,0,0:0:0:0:
4,201,370542,1,2,0:0:0:0:
110,213,370713,1,0,0:0:0:0:
110,213,370799,1,2,0:0:0:0:
110,213,370884,1,2,0:0:0:0:
110,213,370970,1,2,0:0:0:0:
110,213,371056,1,0,0:0:0:0:
110,213,371227,1,2,0:0:0:0:
110,213,371313,1,0,0:0:0:0:
110,213,371398,1,2,0:0:0:0:
110,213,371484,1,2,0:0:0:0:
110,213,371570,1,0,0:0:0:0:
110,213,371656,1,2,0:0:0:0:
204,193,371912,1,0,0:0:0:0:
204,193,371998,1,0,0:0:0:0:
204,193,372170,1,0,0:0:0:0:
204,193,372255,1,2,0:0:0:0:
258,176,372599,1,6,0:0:0:0:
172,92,372856,1,0,0:0:0:0:
172,92,372942,1,2,0:0:0:0:
258,176,373113,1,6,0:0:0:0:
61,211,373370,1,2,0:0:0:0:
61,211,373456,1,0,0:0:0:0:
258,176,373627,1,6,0:0:0:0:
61,211,373884,1,2,0:0:0:0:
61,211,373970,1,0,0:0:0:0:
258,176,374142,1,6,0:0:0:0:
61,211,374313,1,2,0:0:0:0:
61,211,374399,1,2,0:0:0:0:
61,211,374484,1,0,0:0:0:0:
61,211,374570,1,0,0:0:0:0:
61,211,374656,1,2,0:0:0:0:
237,240,374713,1,2,0:0:0:0:
237,240,374770,1,2,0:0:0:0:
237,240,374827,1,0,0:0:0:0:
237,240,374913,1,0,0:0:0:0:
362,101,374999,1,2,0:0:0:0:
239,193,375056,1,0,0:0:0:0:
142,205,375113,1,0,0:0:0:0:
112,183,375170,1,2,0:0:0:0:
258,176,375342,1,6,0:0:0:0:
196,184,375599,1,2,0:0:0:0:
196,184,375684,1,0,0:0:0:0:
258,176,375856,1,6,0:0:0:0:
138,157,376027,1,2,0:0:0:0:
138,157,376112,1,2,0:0:0:0:
196,184,376199,1,0,0:0:0:0:
258,176,376370,1,6,0:0:0:0:
172,169,376541,1,0,0:0:0:0:
207,88,376712,1,2,0:0:0:0:
207,88,376798,1,0,0:0:0:0:
207,88,376884,1,2,0:0:0:0:
207,88,376970,1,0,0:0:0:0:
207,88,377055,1,2,0:0:0:0:
207,88,377227,1,2,0:0:0:0:
199,61,377398,1,4,0:0:0:0:
131,216,377570,5,0,0:0:0:0:
124,169,377912,1,0,0:0:0:0:
124,169,378084,1,2,0:0:0:0:
143,162,378427,1,2,0:0:0:0:
143,162,378598,1,0,0:0:0:0:
143,162,378941,1,0,0:0:0:0:
235,72,379112,1,2,0:0:0:0:
151,199,379198,1,0,0:0:0:0:
172,125,379284,1,0,0:0:0:0:
143,162,379455,1,2,0:0:0:0:
143,162,379512,1,2,0:0:0:0:
143,162,379569,1,2,0:0:0:0:
143,162,379627,1,2,0:0:0:0:
220,190,379712,1,2,0:0:0:0:
220,190,379798,1,2,0:0:0:0:
220,190,379884,1,2,0:0:0:0:
220,190,379969,1,2,0:0:0:0:
220,190,380055,1,2,0:0:0:0:
143,162,380141,1,0,0:0:0:0:
217,147,380484,1,0,0:0:0:0:
97,157,380569,1,0,0:0:0:0:
97,157,380655,1,0,0:0:0:0:
196,58,380741,1,0,0:0:0:0:
217,147,380827,1,2,0:0:0:0:
182,83,381170,1,2,0:0:0:0:
217,147,381341,1,0,0:0:0:0:
217,147,381512,1,2,0:0:0:0:
156,138,381598,1,2,0:0:0:0:
217,147,381684,1,0,0:0:0:0:
80,181,381855,1,0,0:0:0:0:
156,138,382027,1,2,0:0:0:0:
117,162,382112,1,0,0:0:0:0:
117,162,382198,1,0,0:0:0:0:
117,162,382369,1,0,0:0:0:0:
117,162,382541,1,2,0:0:0:0:
117,162,382627,1,0,0:0:0:0:
192,201,382884,1,0,0:0:0:0:
192,201,382941,1,0,0:0:0:0:
186,199,382998,1,0,0:0:0:0:
186,199,383055,1,2,0:0:0:0:
212,141,383141,1,0,0:0:0:0:
186,199,383227,1,2,0:0:0:0:
186,199,383284,1,2,0:0:0:0:
186,199,383341,1,2,0:0:0:0:
186,199,383398,1,0,0:0:0:0:
217,147,383569,1,6,0:0:0:0:
63,178,383827,1,2,0:0:0:0:
63,178,383912,1,0,0:0:0:0:
217,147,384084,1,6,0:0:0:0:
201,118,384255,1,0,0:0:0:0:
201,118,384341,1,0,0:0:0:0:
63,178,384427,1,0,0:0:0:0:
217,147,384598,1,6,0:0:0:0:
194,118,384770,1,0,0:0:0:0:
108,170,384855,1,2,0:0:0:0:
108,170,384941,1,0,0:0:0:0:
217,147,385112,1,6,0:0:0:0:
108,170,385455,1,0,0:0:0:0:
108,170,385541,1,0,0:0:0:0:
263,186,385627,1,2,0:0:0:0:
263,186,385684,1,2,0:0:0:0:
263,186,385741,1,2,0:0:0:0:
263,186,385798,1,0,0:0:0:0:
263,186,385884,1,0,0:0:0:0:
263,186,385969,1,2,0:0:0:0:
181,208,386027,1,2,0:0:0:0:
181,208,386084,1,2,0:0:0:0:
181,208,386141,1,0,0:0:0:0:
217,147,386312,1,6,0:0:0:0:
264,117,386484,1,0,0:0:0:0:
264,117,386569,1,0,0:0:0:0:
264,117,386655,1,0,0:0:0:0:
137,115,386741,1,0,0:0:0:0:
217,147,386827,1,6,0:0:0:0:
146,128,386998,1,0,0:0:0:0:
264,117,387084,1,0,0:0:0:0:
264,117,387169,1,0,0:0:0:0:
217,147,387341,1,6,0:0:0:0:
125,184,387512,1,0,0:0:0:0:
264,117,387684,1,2,0:0:0:0:
264,117,387769,1,0,0:0:0:0:
217,147,387855,1,6,0:0:0:0:
264,117,388027,1,0,0:0:0:0:
264,117,388197,1,2,0:0:0:0:
264,117,388283,1,2,0:0:0:0:
264,117,388369,1,4,0:0:0:0:
154,92,388712,1,0,0:0:0:0:
131,216,388798,1,0,0:0:0:0:
124,169,388883,1,0,0:0:0:0:
124,169,389055,1,2,0:0:0:0:
143,162,389398,1,2,0:0:0:0:
143,162,389569,1,0,0:0:0:0:
143,162,389912,1,2,0:0:0:0:
143,162,390083,1,0,0:0:0:0:
183,94,390169,1,0,0:0:0:0:
151,199,390255,1,0,0:0:0:0:
143,162,390426,1,2,0:0:0:0:
143,162,390483,1,0,0:0:0:0:
143,162,390540,1,0,0:0:0:0:
143,162,390598,1,2,0:0:0:0:
220,190,390683,1,2,0:0:0:0:
220,190,390769,1,2,0:0:0:0:
220,190,390855,1,2,0:0:0:0:
220,190,390940,1,2,0:0:0:0:
220,190,391026,1,2,0:0:0:0:
143,162,391112,1,0,0:0:0:0:
217,147,391455,1,0,0:0:0:0:
97,157,391540,1,2,0:0:0:0:
97,157,391626,1,0,0:0:0:0:
217,147,391798,1,2,0:0:0:0:
193,95,391970,1,0,0:0:0:0:
213,304,392055,1,0,0:0:0:0:
193,95,392141,1,0,0:0:0:0:
217,147,392312,1,0,0:0:0:0:
193,95,392484,1,2,0:0:0:0:
217,147,392569,1,2,0:0:0:0:
217,147,392655,1,0,0:0:0:0:
80,181,392826,1,0,0:0:0:0:
117,162,392998,1,2,0:0:0:0:
114,137,393084,1,0,0:0:0:0:
114,137,393170,1,0,0:0:0:0:
117,162,393340,1,0,0:0:0:0:
117,162,393512,1,0,0:0:0:0:
117,162,393598,1,2,0:0:0:0:
196,94,393684,1,0,0:0:0:0:
182,51,393855,2,0,L|431:160,1,241.500004606247
217,147,394540,1,6,0:0:0:0:
63,178,394798,1,2,0:0:0:0:
217,147,395055,1,6,0:0:0:0:
142,168,395312,1,2,0:0:0:0:
217,147,395569,1,6,0:0:0:0:
108,170,395827,1,2,0:0:0:0:
82,120,395912,1,0,0:0:0:0:
217,147,396083,1,6,0:0:0:0:
142,168,396255,1,0,0:0:0:0:
203,63,396427,1,0,0:0:0:0:
263,186,396598,1,2,0:0:0:0:
263,186,396655,1,0,0:0:0:0:
263,186,396712,1,0,0:0:0:0:
263,186,396769,1,2,0:0:0:0:
263,186,396855,1,0,0:0:0:0:
263,186,396940,1,2,0:0:0:0:
181,208,396998,1,2,0:0:0:0:
181,208,397055,1,2,0:0:0:0:
181,208,397112,1,0,0:0:0:0:
217,147,397283,1,6,0:0:0:0:
264,117,397540,1,0,0:0:0:0:
217,147,397798,1,6,0:0:0:0:
264,117,398055,1,0,0:0:0:0:
217,147,398312,1,6,0:0:0:0:
125,184,398570,1,0,0:0:0:0:
264,117,398655,1,2,0:0:0:0:
132,123,398827,1,0,0:0:0:0:
143,119,399084,1,2,0:0:0:0:
143,119,399170,1,0,0:0:0:0:
334,247,399341,1,4,0:0:0:0:
