osu file format v14

[General]
AudioFilename: audio.mp3
AudioLeadIn: 0
PreviewTime: 278651
Countdown: 0
SampleSet: Soft
StackLeniency: 0.4
Mode: 0
LetterboxInBreaks: 1
WidescreenStoryboard: 1

[Editor]
Bookmarks: 26303,48256,147003,168931
DistanceSpacing: 0.5
BeatDivisor: 4
GridSize: 4
TimelineZoom: 2.7

[Metadata]
Title:Odyssey (Au5 Remix)
TitleUnicode:Odyssey (Au5 Remix)
Artist:Akira Complex
ArtistUnicode:Akira Complex
Creator:Fursum
Version:we
Source:
Tags:dnb drum and bass drumstep dubstep neurofunk filthstep the synthesis collective
BeatmapID:1897979
BeatmapSetID:909554

[Difficulty]
HPDrainRate:6
CircleSize:4
OverallDifficulty:9
ApproachRate:9.2
SliderMultiplier:2
SliderTickRate:1

[Events]
//Background and Video events
0,0,"odysey.jpg",0,0
//Break Periods
2,92331,101676
2,114274,118990
//Storyboard Layer 0 (Background)
//Storyboard Layer 1 (Fail)
//Storyboard Layer 2 (Pass)
//Storyboard Layer 3 (Foreground)
//Storyboard Sound Samples

[TimingPoints]
246,342.857142857143,4,2,1,30,1,0
4360,-166.666666666667,4,2,1,30,0,0
15331,-133.333333333333,4,2,1,35,0,0
26303,-86.9565217391304,4,2,2,50,0,0
26817,-100,4,2,2,50,0,0
29046,-86.9565217391304,4,2,2,50,0,0
29388,-100,4,2,2,50,0,0
37274,-86.9565217391304,4,2,2,50,0,0
37617,-100,4,2,2,50,0,0
47560,-200,4,2,3,50,0,0
47903,-100,4,2,3,50,0,0
47946,-100,4,2,3,5,0,0
48074,-100,4,2,3,50,0,0
48246,-57.1428571428571,4,2,3,55,0,0
48760,-80,4,2,3,55,0,0
49103,-80,4,2,3,15,0,0
49274,-80,4,2,3,20,0,0
49617,-80,4,2,3,35,0,0
49703,-80,4,2,3,25,0,0
49960,-80,4,2,3,40,0,0
50046,-80,4,2,3,30,0,0
50303,-80,4,2,3,45,0,0
50388,-80,4,2,3,35,0,0
50646,-80,4,2,3,55,0,0
50988,-57.1428571428571,4,2,3,55,0,0
51503,-80,4,2,3,55,0,0
51846,-80,4,2,3,15,0,0
52017,-80,4,2,3,20,0,0
52360,-80,4,2,3,35,0,0
52446,-80,4,2,3,25,0,0
52703,-80,4,2,3,40,0,0
52789,-80,4,2,3,30,0,0
53046,-80,4,2,3,45,0,0
53131,-80,4,2,3,55,0,0
53731,-57.1428571428571,4,2,3,55,0,0
54246,-80,4,2,3,55,0,0
54588,-80,4,2,3,15,0,0
54759,-80,4,2,3,20,0,0
55102,-80,4,2,3,35,0,0
55188,-80,4,2,3,25,0,0
55445,-80,4,2,3,40,0,0
55531,-80,4,2,3,30,0,0
55788,-80,4,2,3,45,0,0
55873,-80,4,2,3,35,0,0
56131,-80,4,2,3,55,0,0
56474,-66.6666666666667,4,2,3,55,0,0
56988,-80,4,2,3,55,0,0
57331,-80,4,2,3,15,0,0
57502,-80,4,2,3,20,0,0
57845,-80,4,2,3,35,0,0
57931,-80,4,2,3,25,0,0
58017,-80,4,2,3,55,0,0
58274,-80,4,2,3,30,0,0
58531,-80,4,2,3,55,0,0
59217,-57.1428571428571,4,2,3,55,0,0
59731,-80,4,2,3,55,0,0
60074,-80,4,2,3,15,0,0
60245,-80,4,2,3,20,0,0
60588,-80,4,2,3,35,0,0
60674,-80,4,2,3,25,0,0
60931,-80,4,2,3,40,0,0
61017,-80,4,2,3,30,0,0
61274,-80,4,2,3,45,0,0
61359,-80,4,2,3,35,0,0
61617,-80,4,2,3,55,0,0
61960,-57.1428571428571,4,2,3,55,0,0
62474,-80,4,2,3,55,0,0
62817,-80,4,2,3,15,0,0
62988,-80,4,2,3,20,0,0
63331,-80,4,2,3,35,0,0
63417,-80,4,2,3,25,0,0
63674,-80,4,2,3,40,0,0
63760,-80,4,2,3,30,0,0
64017,-80,4,2,3,45,0,0
64102,-80,4,2,3,55,0,0
64703,-57.1428571428571,4,2,3,55,0,0
65217,-80,4,2,3,55,0,0
65560,-80,4,2,3,15,0,0
65731,-80,4,2,3,20,0,0
66074,-80,4,2,3,35,0,0
66160,-80,4,2,3,25,0,0
66417,-80,4,2,3,40,0,0
66503,-80,4,2,3,30,0,0
66760,-80,4,2,3,45,0,0
66845,-80,4,2,3,35,0,0
67103,-80,4,2,3,55,0,0
67446,-57.1428571428571,4,2,3,55,0,0
67960,-80,4,2,3,55,0,0
68303,-80,4,2,3,40,0,0
68474,-133.333333333333,4,2,3,55,0,0
68988,-80,4,2,3,55,0,0
69503,-66.6666666666667,4,2,3,55,0,0
70188,-66.6666666666667,4,2,3,55,0,0
70874,-86.9565217391304,4,2,3,55,0,0
72931,-66.6666666666667,4,2,3,55,0,0
73274,-86.9565217391304,4,2,3,55,0,0
75674,-66.6666666666667,4,2,3,55,0,0
76017,-86.9565217391304,4,2,3,55,0,0
78417,-66.6666666666667,4,2,3,55,0,0
78760,-86.9565217391304,4,2,3,65,0,0
91788,-86.9565217391304,4,2,3,55,0,0
91874,-86.9565217391304,4,2,3,50,0,0
91960,-86.9565217391304,4,2,3,45,0,0
92046,-86.9565217391304,4,2,3,40,0,0
102417,-76.9230769230769,4,2,3,55,0,0
103446,-133.333333333333,4,2,3,50,0,0
108588,-117.647058823529,4,2,1,50,0,0
110988,-117.647058823529,4,2,1,50,0,0
113388,-54.054054054054,4,2,3,50,0,0
114074,-200,4,2,1,40,0,0
115446,-153.846153846154,4,2,1,30,0,0
116817,-133.333333333333,4,2,1,35,0,0
118188,-113.636363636364,4,2,1,40,0,0
120931,-100,4,2,1,50,0,0
122988,-133.333333333333,4,2,1,45,0,0
123331,-100,4,2,1,50,0,0
123674,-80,4,2,1,55,0,0
124188,-80,4,2,1,60,0,0
124360,-80,4,2,1,50,0,0
124703,-50,4,2,3,50,0,0
124874,-50,4,2,1,50,0,0
125046,-50,4,2,3,65,0,0
125560,-133.333333333333,4,2,3,65,0,0
125903,-66.6666666666667,4,2,3,65,0,0
126246,-57.1428571428571,4,2,3,65,0,0
126760,-42.5531914893617,4,2,3,65,0,0
127103,-250,4,2,3,65,0,0
127274,-62.5,4,2,3,65,0,0
127788,-57.1428571428571,4,2,3,65,0,0
128303,-117.647058823529,4,2,3,65,0,0
128646,-66.6666666666667,4,2,3,65,0,0
128988,-57.1428571428571,4,2,3,65,0,0
129331,-66.6666666666667,4,2,3,65,0,0
129503,-66.6666666666667,4,2,3,65,0,0
129846,-100,4,2,3,65,0,0
130531,-57.1428571428571,4,2,3,65,0,0
130874,-50,4,2,3,65,0,0
131046,-133.333333333333,4,2,3,65,0,0
131388,-66.6666666666667,4,2,3,65,0,0
131731,-57.1428571428571,4,2,3,65,0,0
132246,-42.5531914893617,4,2,3,65,0,0
132588,-57.1428571428571,4,2,3,65,0,0
132931,-66.6666666666667,4,2,3,65,0,0
134646,-133.333333333333,4,2,3,65,0,0
135674,-222.222222222222,4,2,3,65,0,0
136017,-57.1428571428571,4,2,3,65,0,0
136360,-50,4,2,3,65,0,0
136531,-133.333333333333,4,2,3,65,0,0
136874,-66.6666666666667,4,2,3,65,0,0
137217,-57.1428571428571,4,2,3,65,0,0
137731,-42.3728813559322,4,2,3,65,0,0
138074,-200,4,2,3,65,0,0
138246,-54.054054054054,4,2,3,65,0,0
138760,-57.1428571428571,4,2,3,65,0,0
139274,-100,4,2,3,65,0,0
139617,-66.6666666666667,4,2,3,65,0,0
139960,-57.1428571428571,4,2,3,65,0,0
140303,-66.6666666666667,4,2,3,65,0,0
140817,-100,4,2,3,65,0,0
141503,-57.1428571428571,4,2,3,65,0,0
141846,-50,4,2,3,65,0,0
142017,-133.333333333333,4,2,3,65,0,0
142360,-66.6666666666667,4,2,3,65,0,0
142703,-57.1428571428571,4,2,3,65,0,0
143217,-43.4782608695652,4,2,3,65,0,0
143560,-57.1428571428571,4,2,3,65,0,0
143903,-66.6666666666667,4,2,3,65,0,0
145617,-100,4,2,3,65,0,0
146303,-400,4,2,3,65,0,0
146988,-57.1428571428571,4,2,3,65,0,0
147331,-100,4,2,3,65,0,0
148017,-50,4,2,3,65,0,0
148274,-66.6666666666667,4,2,3,65,0,0
149388,-100,4,2,3,65,0,0
149731,-200,4,2,3,65,0,0
150074,-66.6666666666667,4,2,3,65,0,0
150246,-80,4,2,3,65,0,0
150760,-66.6666666666667,4,2,3,65,0,0
150931,-74.0740740740741,4,2,3,65,0,0
152474,-57.1428571428571,4,2,3,65,0,0
152817,-133.333333333333,4,2,3,65,0,0
153074,-66.6666666666667,4,2,3,65,0,0
153503,-52.6315789473684,4,2,3,65,0,0
153760,-66.6666666666667,4,2,3,65,0,0
154188,-74.0740740740741,4,2,3,65,0,0
154531,-57.1428571428571,4,2,3,65,0,0
155217,-200,4,2,3,65,0,0
155560,-66.6666666666667,4,2,3,65,0,0
155731,-76.9230769230769,4,2,3,65,0,0
156246,-66.6666666666667,4,2,3,65,0,0
156417,-50,4,2,3,65,0,0
156931,-100,4,2,3,65,0,0
157274,-100,4,2,3,65,0,0
157617,-100,4,2,1,65,0,0
157960,-50,4,2,3,65,0,0
158303,-100,4,2,3,65,0,0
158560,-66.6666666666667,4,2,3,65,0,0
158988,-50,4,2,3,65,0,0
159331,-66.6666666666667,4,2,3,65,0,0
159674,-62.5,4,2,3,65,0,0
160360,-83.3333333333333,4,2,3,65,0,0
160703,-200,4,2,3,65,0,0
161046,-66.6666666666667,4,2,3,65,0,0
161217,-80,4,2,3,65,0,0
161731,-66.6666666666667,4,2,3,65,0,0
161903,-71.4285714285714,4,2,3,65,0,0
163446,-66.6666666666667,4,2,3,65,0,0
163788,-133.333333333333,4,2,3,65,0,0
164046,-66.6666666666667,4,2,3,65,0,0
164474,-57.1428571428571,4,2,3,65,0,0
164817,-80,4,2,3,65,0,0
165160,-66.6666666666667,4,2,3,65,0,0
165503,-50,4,2,3,65,0,0
166188,-200,4,2,3,65,0,0
166531,-66.6666666666667,4,2,3,65,0,0
166703,-80,4,2,3,65,0,0
167217,-66.6666666666667,4,2,3,65,0,0
167731,-66.6666666666667,4,2,1,65,0,0
167903,-66.6666666666667,4,2,3,65,0,0
168931,-80,4,2,3,65,0,0
170988,-66.6666666666667,4,2,3,65,0,0
171846,-80,4,2,3,65,0,0
174417,-133.333333333333,4,2,3,65,0,0
174760,-57.1428571428571,4,2,3,65,0,0
176646,-70.9219858156028,4,2,3,65,0,0
177160,-70.9219858156028,4,2,3,35,0,0
177674,-70.9219858156028,4,2,3,65,0,0
177846,-57.1428571428571,4,2,3,65,0,0
179388,-71.4285714285714,4,2,3,65,0,0
179903,-80,4,2,3,65,0,0
181960,-66.6666666666667,4,2,3,65,0,0
182988,-80,4,2,3,65,0,0
185388,-250,4,2,3,65,0,0
186074,-40,4,2,3,65,0,0
187617,-57.1428571428571,4,2,3,65,0,0
188131,-250,4,2,3,65,0,0
188817,-40,4,2,3,65,0,0
189846,-44.4444444444445,4,2,3,65,0,0
190188,-100,4,2,3,65,0,0
190531,-50,4,2,3,65,0,0
190574,-50,4,2,3,5,0,0
190703,-50,4,2,3,65,0,0
190874,-80,4,2,3,65,0,0
192931,-66.6666666666667,4,2,3,65,0,0
193617,-76.9230769230769,4,2,3,65,0,0
196360,-133.333333333333,4,2,3,65,0,0
196703,-66.6666666666667,4,2,3,65,0,0
198588,-80,4,2,3,65,0,0
199103,-80,4,2,3,30,0,0
199617,-80,4,2,3,65,0,0
199788,-60.6060606060606,4,2,3,65,0,0
201331,-74.0740740740741,4,2,3,65,0,0
201846,-76.9230769230769,4,2,3,65,0,0
203903,-66.6666666666667,4,2,3,65,0,0
204588,-76.9230769230769,4,2,3,65,0,0
206988,-100,4,2,3,65,0,0
207331,-250,4,2,3,65,0,0
208017,-40,4,2,3,65,0,0
209046,-44.4444444444445,4,2,3,65,0,0
209560,-57.1428571428571,4,2,3,65,0,0
210074,-200,4,2,3,65,0,0
210760,-40,4,2,3,65,0,0
212303,-76.9230769230769,4,2,3,65,0,0

[Colours]
Combo1 : 216,216,216
Combo2 : 255,157,201
Combo3 : 136,100,202
Combo4 : 230,230,230
Combo5 : 41,254,148
Combo6 : 134,255,227
Combo7 : 253,216,147
Combo8 : 128,128,128

[HitObjects]
81,227,4360,6,0,L|227:208,1,119.999996337891,4|2,0:3|0:3,0:0:0:0:
196,221,4874,1,0,0:0:0:0:
139,110,5046,2,0,P|133:156|137:182,1,59.9999981689454,2|0,0:1|0:0,0:0:0:0:
262,121,5388,2,0,P|268:167|264:193,1,59.9999981689454,2|0,0:3|0:0,0:0:0:0:
199,235,5731,5,0,0:0:0:0:
199,235,6074,1,2,0:3:0:0:
298,254,6246,1,0,0:0:0:0:
394,213,6417,1,2,0:1:0:0:
233,320,6588,2,0,L|152:315,1,59.9999981689454,0|2,0:0|0:3,0:0:0:0:
376,299,6931,2,0,L|459:303,1,59.9999981689454,0|2,0:0|0:1,0:0:0:0:
435,301,7446,5,2,0:3:0:0:
441,312,7617,1,0,0:0:0:0:
485,229,7788,2,0,P|492:191|479:156,1,59.9999981689454,2|0,0:1|0:0,0:0:0:0:
348,291,8131,2,0,P|334:254|340:206,1,59.9999981689454,2|0,0:3|0:0,0:0:0:0:
393,151,8474,5,2,0:1:0:0:
393,151,8817,2,0,P|330:155|290:146,1,89.9999972534181,2|2,0:3|0:3,0:0:0:0:
273,138,9160,2,0,L|266:189,2,29.9999990844727,0|2|0,0:1|0:3|0:0,0:0:0:0:
347,58,9503,1,2,0:3:0:0:
345,49,9674,1,0,0:0:0:0:
190,110,9846,6,0,B|180:127|180:127|190:205|190:205|178:229,1,119.999996337891,2|2,0:1|0:3,0:0:0:0:
177,213,10360,1,0,0:0:0:0:
261,258,10531,2,0,P|291:251|325:253,1,59.9999981689454,2|0,0:1|0:0,0:0:0:0:
174,308,10874,2,0,P|143:309|110:303,1,59.9999981689454,2|0,0:3|0:0,0:0:0:0:
64,215,11217,5,2,0:1:0:0:
69,204,11388,1,0,0:0:0:0:
164,154,11560,2,0,P|174:190|175:240,1,59.9999981689454,2|0,0:3|0:0,0:0:0:0:
253,343,11903,2,0,L|257:289,3,29.9999990844727
257,295,12246,1,2,0:3:0:0:
263,202,12417,1,0,0:0:0:0:
271,106,12588,5,2,0:1:0:0:
348,157,12760,2,0,L|414:151,1,59.9999981689454,0|2,0:0|0:3,0:0:0:0:
191,140,13103,2,0,L|131:134,1,59.9999981689454,0|2,0:0|0:1,0:0:0:0:
288,24,13446,2,0,L|283:83,1,59.9999981689454,0|2,0:0|0:3,0:0:0:0:
249,278,13788,2,0,L|254:219,1,59.9999981689454,0|2,0:0|0:1,0:0:0:0:
254,219,14303,6,0,P|299:230|331:250,1,59.9999981689454,2|0,0:3|0:0,0:0:0:0:
387,339,14646,2,0,L|343:333,3,29.9999990844727
334,331,14988,1,2,0:3:0:0:
433,241,15160,1,0,0:0:0:0:
209,304,15331,6,0,B|125:311|155:271|63:279,1,150.000005722046,6|2,0:1|0:3,0:0:0:0:
74,289,15846,1,2,0:1:0:0:
140,178,16017,1,2,0:1:0:0:
36,118,16188,2,0,L|47:206,1,75.0000028610231,0|2,0:0|0:3,0:0:0:0:
229,219,16531,2,0,L|238:144,1,75.0000028610231,0|2,0:0|0:1,0:0:0:0:
238,144,17046,5,2,0:3:0:0:
251,142,17217,1,0,0:0:0:0:
163,85,17388,2,0,L|121:81,2,37.5000014305115,2|2|2,0:1|0:1|0:1,0:0:0:0:
270,48,17731,1,2,0:3:0:0:
378,78,17903,1,0,0:0:0:0:
365,226,18074,5,2,0:1:0:0:
450,179,18246,2,0,L|462:100,1,75.0000028610231,0|2,0:0|0:3,0:0:0:0:
447,280,18588,2,0,L|458:354,1,75.0000028610231,0|2,0:0|0:1,0:0:0:0:
289,164,18931,2,0,L|195:155,1,75.0000028610231,0|2,0:0|0:3,0:0:0:0:
227,301,19274,2,0,L|316:294,1,75.0000028610231,0|2,0:0|0:1,0:0:0:0:
301,295,19788,6,0,P|241:272|175:275,1,112.500004291535,2|2,0:3|0:3,0:0:0:0:
161,279,20131,2,0,P|125:273|106:261,1,37.5000014305115,0|2,0:0|0:3,0:0:0:0:
104,260,20303,1,0,0:0:0:0:
156,119,20474,2,0,P|163:177|163:209,1,75.0000028610231,2|0,0:3|0:0,0:0:0:0:
25,326,20817,6,0,B|13:304|13:304|18:212|18:212|1:172,1,150.000005722046,6|2,0:1|0:3,0:0:0:0:
0,192,21331,2,0,L|83:183,1,75.0000028610231,2|2,0:1|0:1,0:0:0:0:
129,281,21674,1,0,0:0:0:0:
165,116,21846,2,0,P|163:78|168:41,1,75.0000028610231,2|0,0:3|0:0,0:0:0:0:
250,189,22188,5,2,0:1:0:0:
250,189,22531,2,0,P|291:180|351:177,1,75.0000028610231,2|0,0:3|0:0,0:0:0:0:
247,295,22874,2,0,L|243:340,2,37.5000014305115,2|2|2,0:1|0:1|0:1,0:0:0:0:
348,270,23217,1,2,0:3:0:0:
163,199,23388,1,0,0:0:0:0:
310,75,23560,5,2,0:1:0:0:
281,178,23731,1,0,0:0:0:0:
276,165,23903,1,2,0:3:0:0:
286,167,24074,1,0,0:0:0:0:
207,97,24246,5,2,0:3:0:0:
257,256,24417,1,2,0:0:0:0:
254,274,24503,1,2,0:0:0:0:
249,292,24588,1,2,0:3:0:0:
388,149,24760,1,2,0:0:0:0:
159,211,24931,5,4,0:3:0:0:
40,154,25103,2,0,B|71:144|71:144|76:241,1,112.500004291535,2|0,0:0|0:0,0:0:0:0:
58,243,25446,2,0,L|50:76,1,150.000005722046,6|2,0:3|0:0,0:0:0:0:
163,285,25960,2,0,L|157:187,1,75.0000028610231,0|2,3:2|0:0,0:0:0:0:
292,26,26303,6,0,B|329:3|374:18|374:18|439:64|394:156,1,230.000004386902,4|8,1:2|0:0,0:0:0:0:
392,130,26817,1,0,0:0:0:0:
299,245,26988,2,0,P|283:190|292:136,1,100,0|0,0:0|1:0,0:0:0:0:
479,59,27331,1,8,0:0:0:0:
476,75,27503,1,0,1:0:0:0:
392,130,27674,6,0,L|289:119,1,100
116,202,28017,2,0,L|219:191,1,100,8|0,0:0|0:0,0:0:0:0:
320,238,28360,1,0,0:0:0:0:
178,100,28531,2,0,L|111:93,2,50,0|0|8,0:0|0:0|0:0,0:0:0:0:
356,33,28874,1,0,0:0:0:0:
320,238,29046,6,0,B|292:247|266:223|266:223|245:199|256:166|256:166|296:107|259:35,1,230.000004386902,0|8,1:0|0:0,0:0:0:0:
262,76,29560,1,0,0:0:0:0:
366,123,29731,1,0,0:0:0:0:
381,127,29903,1,0,1:0:0:0:
168,181,30074,1,8,0:0:0:0:
153,185,30246,1,0,1:0:0:0:
262,76,30417,6,0,P|261:135|250:199,1,100,0|0,0:0|1:0,0:0:0:0:
457,175,30760,2,0,P|454:268|464:321,1,100,8|0,0:0|0:0,0:0:0:0:
470,289,31017,1,8,0:3:0:0:
488,296,31103,2,0,P|488:244|485:231,1,50,0|8,0:0|0:3,0:0:0:0:
362,226,31274,5,0,1:0:0:0:
451,88,31446,1,8,0:0:0:0:
458,58,31531,1,0,1:0:0:0:
467,49,31617,1,0,0:0:0:0:
260,171,31788,6,0,B|188:191|109:157|109:157|142:176|144:202,1,200,0|8,1:0|0:0,0:0:0:0:
126,186,32303,1,0,0:0:0:0:
257,70,32474,2,0,P|212:61|149:63,1,100,0|0,0:0|1:0,0:0:0:0:
23,220,32817,1,8,0:0:0:0:
20,206,32988,1,0,1:0:0:0:
87,114,33160,5,0,0:0:0:0:
150,203,33331,1,0,1:0:0:0:
23,33,33503,1,8,0:0:0:0:
23,33,33846,2,0,P|43:38|77:33,3,50
93,28,34188,1,8,0:0:0:0:
199,113,34360,1,0,0:0:0:0:
323,40,34531,5,0,1:0:0:0:
324,166,34703,1,0,0:0:0:0:
309,157,34874,1,8,0:0:0:0:
324,147,35046,1,0,0:0:0:0:
375,268,35217,1,0,0:0:0:0:
231,254,35388,1,0,1:0:0:0:
432,135,35560,1,8,0:0:0:0:
199,113,35731,1,0,0:0:0:0:
323,40,35903,5,0,0:0:0:0:
318,153,36074,1,0,1:0:0:0:
84,131,36246,2,0,L|238:105,1,150,8|0,0:0|0:0,0:0:0:0:
253,102,36588,1,0,0:0:0:0:
66,134,36760,1,0,1:0:0:0:
452,68,36931,1,8,0:0:0:0:
452,68,37274,6,0,B|449:100|438:131|438:131|443:163|443:163|432:201|421:261,1,172.500003290176,4|0,1:2|0:0,0:0:0:0:
430,253,37617,2,0,P|422:181|413:149,1,100,8|0,0:0|0:0,0:0:0:0:
312,248,37960,1,0,0:0:0:0:
325,245,38131,1,0,0:0:0:0:
500,337,38303,1,8,0:0:0:0:
487,334,38474,1,0,0:0:0:0:
430,253,38646,5,0,0:0:0:0:
430,253,38988,2,0,P|433:188|446:145,1,100,8|0,0:0|0:0,0:0:0:0:
325,295,39331,2,0,B|321:261|296:215,2,50
405,351,39674,1,8,0:0:0:0:
351,172,39846,1,0,0:0:0:0:
243,340,40017,6,0,B|185:326|185:326|145:338|145:338|55:344,1,150,0|0,1:0|0:0,0:0:0:0:
78,327,40360,2,0,L|91:217,1,100,8|0,0:0|0:0,0:0:0:0:
7,111,40703,1,0,0:0:0:0:
14,126,40874,1,0,1:0:0:0:
211,244,41046,1,8,0:0:0:0:
218,229,41217,1,0,1:0:0:0:
133,148,41388,5,0,0:0:0:0:
82,239,41560,1,0,1:0:0:0:
184,56,41731,1,8,0:0:0:0:
184,56,41903,2,0,P|207:64|232:65,1,50,0|8,0:0|0:3,0:0:0:0:
266,144,42074,2,0,P|290:142|314:134,1,50,0|8,0:0|0:3,0:0:0:0:
395,168,42246,1,0,1:0:0:0:
472,30,42417,1,8,0:0:0:0:
474,69,42503,1,0,1:0:0:0:
467,83,42588,1,0,0:0:0:0:
242,229,42760,6,0,B|204:180|261:121|318:134|318:134,1,150,0|0,1:0|0:0,0:0:0:0:
331,132,43103,2,0,L|341:231,1,100,8|0,0:0|0:0,0:0:0:0:
477,333,43446,1,0,0:0:0:0:
462,322,43617,1,0,1:0:0:0:
223,329,43788,1,8,0:0:0:0:
238,318,43960,1,0,1:0:0:0:
345,358,44131,5,0,0:0:0:0:
356,236,44303,1,0,1:0:0:0:
367,114,44474,1,8,0:0:0:0:
367,114,44817,6,0,P|307:132|292:131,2,50
445,178,45160,1,8,0:0:0:0:
290,37,45331,1,0,0:0:0:0:
213,252,45503,6,0,B|228:150|228:150|197:81,1,150,0|0,1:0|0:0,0:0:0:0:
192,99,45846,1,8,0:0:0:0:
119,281,46017,2,0,L|107:162,1,100,0|0,1:0|0:0,0:0:0:0:
96,56,46360,1,8,0:0:0:0:
19,313,46531,1,0,0:0:0:0:
309,227,46703,1,4,1:2:0:0:
309,227,47560,6,0,L|304:270,1,25,2|2,0:0|0:0,0:0:0:0:
315,221,47731,6,0,L|310:264,1,25,2|2,0:0|0:0,0:0:0:0:
321,215,47903,6,0,L|316:258,1,25,2|0,0:0|0:0,0:0:0:0:
310,336,48074,1,2,0:0:0:0:
382,104,48246,6,0,B|404:112|444:116|444:116|393:120|393:120|384:123|384:123|375:121|375:121|221:129,1,262.500002503395,4|0,1:2|0:0,0:0:0:0:
232,140,48588,2,0,P|243:98|239:49,1,87.500000834465,8|0,0:0|0:0,0:0:0:0:
507,64,48760,2,0,P|485:133|485:193,1,125,0|0,1:0|0:0,0:0:0:0:
499,288,49103,5,2,0:3:0:0:
504,277,49188,1,2,0:3:0:0:
499,265,49274,1,2,0:3:0:0:
484,260,49360,1,2,0:3:0:0:
462,264,49446,1,2,0:3:0:0:
446,277,49531,1,2,0:3:0:0:
429,295,49617,1,2,0:3:0:0:
408,304,49703,1,2,0:3:0:0:
383,303,49788,1,2,0:3:0:0:
361,288,49874,1,2,0:3:0:0:
350,259,49960,1,2,0:3:0:0:
355,229,50046,1,2,0:3:0:0:
366,198,50131,1,2,0:3:0:0:
359,163,50217,1,2,0:3:0:0:
335,137,50303,1,2,0:3:0:0:
300,130,50388,1,2,0:3:0:0:
265,143,50474,2,0,P|253:180|253:221,1,62.5,2|0,0:3|0:3,0:0:0:0:
151,362,50646,6,0,B|157:268|157:268|151:263|151:263|156:162,1,187.5,8|0,0:0|0:0,0:0:0:0:
157,155,50988,6,0,B|135:163|95:167|95:167|146:171|146:171|155:174|155:174|164:172|164:172|318:180,1,262.500002503395,0|0,1:0|0:0,0:0:0:0:
307,191,51331,2,0,P|296:149|300:100,1,87.500000834465,8|0,0:0|0:0,0:0:0:0:
38,109,51503,2,0,P|60:178|60:238,1,125,0|0,1:0|0:0,0:0:0:0:
35,357,51846,5,2,0:3:0:0:
22,345,51931,1,2,0:3:0:0:
19,328,52017,1,2,0:3:0:0:
27,312,52103,1,2,0:3:0:0:
48,304,52188,1,2,0:3:0:0:
73,312,52274,1,2,0:3:0:0:
103,319,52360,1,2,0:3:0:0:
135,318,52446,1,2,0:3:0:0:
170,305,52531,1,2,0:3:0:0:
196,281,52617,1,2,0:3:0:0:
207,242,52703,1,2,0:3:0:0:
190,208,52788,1,2,0:3:0:0:
150,193,52874,1,2,0:3:0:0:
137,206,52960,1,10,0:3:0:0:
130,220,53046,6,0,L|120:124,1,62.5,2|8,0:3|0:3,0:0:0:0:
114,75,53217,1,0,1:0:0:0:
273,258,53388,1,8,0:0:0:0:
276,212,53474,1,0,1:3:0:0:
284,200,53560,1,0,0:3:0:0:
418,315,53731,6,0,B|407:358|447:378|461:340|429:317|429:317|433:308|433:308|384:247|378:182|432:129,1,262.500002503395,0|0,1:0|0:0,0:0:0:0:
414,155,54074,2,0,P|419:204|459:255,1,87.500000834465,8|0,0:0|0:0,0:0:0:0:
270,316,54246,2,0,B|292:292|296:257|296:257|299:254|299:254|296:219|267:163,1,125,0|0,1:0|0:0,0:0:0:0:
331,89,54588,5,2,0:3:0:0:
331,89,54674,1,2,0:3:0:0:
331,89,54760,1,2,0:3:0:0:
319,98,54846,1,2,0:3:0:0:
301,96,54931,1,2,0:3:0:0:
282,84,55017,1,2,0:3:0:0:
266,65,55103,1,2,0:3:0:0:
242,83,55188,1,2,0:3:0:0:
225,105,55274,1,2,0:3:0:0:
210,131,55360,1,2,0:3:0:0:
198,165,55446,1,2,0:3:0:0:
177,129,55531,1,2,0:3:0:0:
154,99,55617,1,2,0:3:0:0:
123,68,55703,1,2,0:3:0:0:
91,44,55788,1,2,0:3:0:0:
63,73,55874,1,2,0:3:0:0:
45,112,55960,2,0,L|58:194,1,62.5,2|0,0:3|0:0,0:0:0:0:
83,331,56131,5,8,0:0:0:0:
261,218,56303,1,0,0:0:0:0:
215,222,56388,1,0,1:0:0:0:
183,251,56474,6,0,B|205:288|205:288|221:129|221:129|246:108,1,225.000008583069,0|0,1:0|0:0,0:0:0:0:
257,104,56817,1,8,0:0:0:0:
49,236,56988,2,0,B|44:178|44:178|47:169|47:169|44:111,1,125,0|0,1:0|0:0,0:0:0:0:
168,74,57331,5,2,0:3:0:0:
152,75,57417,1,2,0:3:0:0:
143,62,57503,1,2,0:3:0:0:
149,46,57588,1,2,0:3:0:0:
172,46,57674,1,2,0:3:0:0:
188,74,57760,1,2,0:3:0:0:
188,108,57846,1,2,0:3:0:0:
170,139,57931,1,2,0:3:0:0:
151,173,58017,6,0,P|191:162|230:175,1,62.5,8|0,0:0|0:0,0:0:0:0:
342,195,58188,1,0,1:0:0:0:
323,186,58274,1,2,0:3:0:0:
308,171,58360,1,2,0:3:0:0:
299,153,58446,1,2,0:3:0:0:
296,134,58531,2,0,P|341:145|379:138,1,62.5,8|0,0:0|0:0,0:0:0:0:
451,51,58703,1,0,1:0:0:0:
451,51,58788,1,0,1:0:0:0:
451,51,58874,2,0,P|397:52|359:55,1,62.5,8|8,0:0|0:0,0:0:0:0:
212,56,59046,2,0,P|180:57|149:57,1,62.5,0|0,1:0|1:0,0:0:0:0:
40,237,59217,6,0,B|-2:244|-2:244|50:217|50:217|149:264|149:264|214:248,1,262.500002503395,4|0,1:2|0:0,0:0:0:0:
224,243,59560,2,0,L|206:347,1,87.500000834465,8|0,0:0|0:0,0:0:0:0:
23,113,59731,2,0,L|42:252,1,125,0|0,1:0|0:0,0:0:0:0:
139,152,60074,5,2,0:3:0:0:
151,148,60160,1,2,0:3:0:0:
164,152,60246,1,2,0:3:0:0:
173,164,60331,1,2,0:3:0:0:
188,171,60417,1,2,0:3:0:0:
210,171,60503,1,2,0:3:0:0:
228,160,60588,1,2,0:3:0:0:
245,138,60674,1,2,0:3:0:0:
272,116,60760,1,2,0:3:0:0:
308,114,60846,1,2,0:3:0:0:
341,140,60931,1,2,0:3:0:0:
360,179,61017,1,2,0:3:0:0:
388,213,61103,1,2,0:3:0:0:
432,224,61188,1,2,0:3:0:0:
474,203,61274,1,2,0:3:0:0:
500,160,61360,1,2,0:3:0:0:
491,115,61446,6,0,P|479:77|482:46,1,62.5,2|0,0:3|0:0,0:0:0:0:
479,304,61617,2,0,B|385:306|385:306|378:298|378:298|296:300,1,187.5,8|0,0:0|0:0,0:0:0:0:
271,303,61960,6,0,B|295:352|295:352|285:251|285:251|305:226|305:226|296:125,1,262.500002503395,0|0,1:0|0:0,0:0:0:0:
283,136,62303,2,0,L|273:240,1,87.500000834465,8|0,0:0|0:0,0:0:0:0:
391,384,62474,2,0,L|405:255,1,125,0|0,1:0|0:0,0:0:0:0:
428,159,62817,5,2,0:3:0:0:
412,152,62903,1,2,0:3:0:0:
402,143,62988,1,2,0:3:0:0:
396,129,63074,1,2,0:3:0:0:
402,113,63160,1,2,0:3:0:0:
421,96,63246,1,2,0:3:0:0:
451,76,63331,1,2,0:3:0:0:
432,42,63417,1,2,0:3:0:0:
399,22,63503,1,2,0:3:0:0:
360,22,63588,1,2,0:3:0:0:
327,42,63674,1,2,0:3:0:0:
286,18,63760,1,2,0:3:0:0:
237,15,63846,1,2,0:3:0:0:
221,25,63931,1,10,0:3:0:0:
212,35,64017,6,0,L|220:117,1,62.5,2|8,0:3|0:3,0:0:0:0:
235,203,64188,1,0,1:0:0:0:
94,70,64360,1,8,0:0:0:0:
90,126,64446,1,0,1:0:0:0:
86,144,64531,1,0,0:0:0:0:
350,217,64703,6,0,B|369:192|410:180|446:196|406:203|381:197|381:197|298:160|227:207,1,262.500002503395,0|0,1:0|0:0,0:0:0:0:
216,214,65046,2,0,L|206:342,1,87.500000834465,8|0,0:0|0:0,0:0:0:0:
452,125,65217,2,0,L|469:265,1,125,0|0,1:0|0:0,0:0:0:0:
372,343,65560,5,2,0:3:0:0:
383,341,65646,1,2,0:3:0:0:
393,339,65731,1,2,0:3:0:0:
376,317,65817,1,2,0:3:0:0:
346,316,65903,1,2,0:3:0:0:
319,332,65988,1,2,0:3:0:0:
302,359,66074,1,2,0:3:0:0:
296,327,66160,1,2,0:3:0:0:
284,296,66246,1,2,0:3:0:0:
273,266,66331,1,2,0:3:0:0:
254,231,66417,1,2,0:3:0:0:
289,223,66503,1,2,0:3:0:0:
324,211,66588,1,2,0:3:0:0:
358,198,66674,1,2,0:3:0:0:
392,177,66760,1,2,0:3:0:0:
401,220,66846,1,2,0:3:0:0:
415,258,66931,6,0,P|431:311|443:342,1,62.5,2|0,0:3|0:0,0:0:0:0:
208,315,67103,1,8,0:0:0:0:
278,134,67274,1,0,0:0:0:0:
278,91,67360,1,0,1:0:0:0:
260,54,67446,6,0,B|235:49|212:36|212:36|220:55|225:76|225:76|320:37|407:61,1,262.500002503395,0|0,1:2|0:0,0:0:0:0:
411,63,67788,2,0,P|394:109|392:150,1,87.500000834465,8|0,0:0|0:0,0:0:0:0:
168,200,67960,2,0,P|155:148|114:71,1,125,0|0,1:0|0:0,0:0:0:0:
302,227,68303,5,8,0:3:0:0:
306,249,68388,1,8,0:3:0:0:
307,268,68474,2,0,L|253:263,1,37.5000014305115,2|0,0:0|0:0,0:0:0:0:
184,308,68646,2,0,L|146:310,1,37.5000014305115,2|0,0:0|0:0,0:0:0:0:
46,278,68817,5,2,0:0:0:0:
160,108,68988,2,0,B|182:54|182:54|167:196,1,187.5,8|0,0:0|0:0,0:0:0:0:
168,200,69331,1,0,0:0:0:0:
59,29,69503,5,8,0:0:0:0:
268,145,69674,2,0,P|309:142|353:109,1,75.0000028610231,0|0,1:0|1:0,0:0:0:0:
486,35,69846,1,8,0:0:0:0:
463,75,69931,1,8,0:0:0:0:
454,121,70017,1,0,1:0:0:0:
461,167,70103,1,0,1:0:0:0:
482,209,70188,5,0,1:0:0:0:
302,296,70360,2,0,B|273:273|273:273|408:287,1,150.000005722046,0|8,3:1|0:0,0:0:0:0:
512,301,70703,1,0,1:0:0:0:
343,197,70874,2,0,L|214:183,1,115.000002193451,0|0,3:1|0:0,0:0:0:0:
151,362,71217,2,0,L|265:374,1,115.000002193451,8|0,3:2|0:0,0:0:0:0:
97,237,71560,5,0,3:0:0:0:
97,237,71646,1,0,3:3:0:0:
97,237,71731,1,0,3:3:0:0:
154,138,71903,1,8,0:0:0:0:
39,339,72074,1,0,3:0:0:0:
97,237,72246,1,0,0:0:0:0:
253,197,72417,1,0,3:0:0:0:
309,187,72503,1,0,3:0:0:0:
366,178,72588,1,8,3:2:0:0:
197,297,72760,1,0,3:0:0:0:
253,67,72931,5,0,1:0:0:0:
433,204,73103,2,0,B|471:181|471:181|338:176,1,150.000005722046,0|8,3:1|0:0,0:0:0:0:
253,197,73446,1,0,1:0:0:0:
391,296,73617,2,0,L|509:283,1,115.000002193451,0|0,3:0|0:0,0:0:0:0:
386,83,73960,2,0,L|504:70,1,115.000002193451,8|0,3:2|0:0,0:0:0:0:
253,197,74303,5,0,3:0:0:0:
253,197,74388,1,0,3:0:0:0:
253,197,74474,1,0,3:0:0:0:
155,105,74646,1,8,3:2:0:0:
150,147,74731,1,0,3:2:0:0:
145,190,74817,1,0,3:2:0:0:
334,148,74988,1,0,3:2:0:0:
337,190,75074,1,0,3:2:0:0:
340,233,75160,1,0,3:2:0:0:
343,276,75246,1,0,3:2:0:0:
346,320,75331,2,0,P|309:325|287:318,1,57.5000010967255,8|0,0:0|1:0,0:0:0:0:
145,283,75503,2,0,P|182:278|204:285,1,57.5000010967255,0|0,3:0|0:0,0:0:0:0:
31,344,75674,6,0,B|3:381|3:381|24:190,1,225.000008583069,0|0,1:0|0:0,0:0:0:0:
27,184,76017,1,8,3:2:0:0:
67,32,76188,2,0,L|71:107,1,57.5000010967255,0|0,1:0|0:0,0:0:0:0:
149,193,76360,2,0,L|161:63,1,115.000002193451,0|0,3:0|0:0,0:0:0:0:
315,172,76703,2,0,L|304:57,1,115.000002193451,8|0,3:2|0:0,0:0:0:0:
241,269,77046,5,0,3:0:0:0:
241,269,77131,1,0,3:0:0:0:
241,269,77217,1,0,3:0:0:0:
485,132,77388,2,0,L|447:8,1,115.000002193451,8|0,3:2|0:0,0:0:0:0:
414,229,77731,1,0,3:0:0:0:
401,269,77817,1,0,3:0:0:0:
408,311,77903,2,0,L|479:297,1,57.5000010967255,0|0,3:0|0:0,0:0:0:0:
237,366,78074,1,8,0:0:0:0:
311,170,78246,1,0,0:0:0:0:
301,113,78331,1,0,1:0:0:0:
292,56,78417,5,0,1:0:0:0:
106,133,78588,2,0,B|76:161|76:161|186:139,1,150.000005722046,0|8,3:1|0:0,0:0:0:0:
311,170,78931,2,0,L|434:146,1,115.000002193451,0|0,1:2|0:0,0:0:0:0:
211,240,79274,1,0,3:0:0:0:
281,51,79446,1,8,0:0:0:0:
205,253,79617,1,0,1:0:0:0:
247,146,79788,6,0,L|308:166,1,57.5000010967255,0|0,3:0|0:0,0:0:0:0:
468,216,79960,1,8,0:0:0:0:
344,359,80131,1,0,1:0:0:0:
353,316,80217,1,0,3:2:0:0:
363,274,80303,1,0,3:2:0:0:
373,232,80388,1,0,3:2:0:0:
383,190,80474,1,10,3:2:0:0:
239,75,80646,2,0,L|245:154,1,57.5000010967255,0|0,1:0|1:0,0:0:0:0:
247,281,80817,1,10,0:0:0:0:
205,267,80903,1,10,0:0:0:0:
164,254,80988,1,0,1:0:0:0:
8,129,81160,6,0,P|51:119|70:124,1,57.5000010967255,2|0,1:2|0:0,0:0:0:0:
154,158,81331,1,0,0:0:0:0:
179,12,81503,2,0,P|150:55|148:71,1,57.5000010967255,10|0,0:2|0:0,0:0:0:0:
160,165,81674,1,0,1:0:0:0:
29,222,81846,2,0,P|68:213|85:197,1,57.5000010967255,2|0,0:0|0:0,0:0:0:0:
262,63,82017,2,0,P|239:96|218:106,1,57.5000010967255,2|0,0:0|0:0,0:0:0:0:
67,42,82188,1,8,0:0:0:0:
247,193,82360,6,0,P|321:178|423:165,1,172.500003290176,2|0,0:0|0:0,0:0:0:0:
434,175,82703,2,0,P|434:204|421:237,1,57.5000010967255,2|0,0:0|0:0,0:0:0:0:
349,284,82874,1,8,0:0:0:0:
343,298,83046,1,0,0:0:0:0:
331,145,83217,2,0,P|312:190|314:219,1,57.5000010967255,2|0,0:0|0:0,0:0:0:0:
338,309,83388,1,2,0:0:0:0:
377,73,83560,2,0,P|340:104|217:105,1,172.500003290176,10|0,0:0|0:0,0:0:0:0:
212,84,83903,6,0,P|172:61|140:62,1,57.5000010967255,2|0,1:2|0:0,0:0:0:0:
75,74,84074,1,0,0:0:0:0:
108,204,84246,2,0,P|85:185|72:160,1,57.5000010967255,10|0,0:0|0:0,0:0:0:0:
66,65,84417,1,0,1:0:0:0:
204,179,84588,2,0,L|149:138,1,57.5000010967255,2|0,0:0|0:0,0:0:0:0:
58,56,84760,1,2,0:0:0:0:
49,48,84931,1,10,0:0:0:0:
213,190,85103,1,2,0:0:0:0:
397,67,85274,5,0,0:0:0:0:
331,193,85446,2,0,L|324:132,1,57.5000010967255,2|0,0:0|0:0,0:0:0:0:
309,42,85617,1,8,0:0:0:0:
414,230,85788,1,2,0:0:0:0:
155,101,85960,2,0,L|344:139,1,172.500003290176,2|0,0:0|0:0,0:0:0:0:
413,149,86303,1,10,0:0:0:0:
413,149,86388,1,0,1:0:0:0:
413,149,86474,1,2,0:0:0:0:
354,309,86646,6,0,P|318:305|295:319,1,57.5000010967255,2|0,1:2|0:0,0:0:0:0:
226,370,86817,1,0,0:0:0:0:
241,228,86988,2,0,P|224:277|229:303,1,57.5000010967255,10|0,0:2|0:0,0:0:0:0:
236,379,87160,1,0,0:0:0:0:
127,272,87331,2,0,P|136:306|164:325,1,57.5000010967255,2|0,0:0|0:0,0:0:0:0:
354,309,87503,2,0,P|318:305|295:319,1,57.5000010967255,2|0,0:0|0:0,0:0:0:0:
246,383,87674,1,10,0:0:0:0:
436,357,87846,6,0,P|391:309|384:176,1,172.500003290176,2|0,0:0|0:0,0:0:0:0:
387,193,88188,2,0,P|428:202|468:234,1,57.5000010967255,2|0,0:0|0:0,0:0:0:0:
492,277,88360,1,8,0:0:0:0:
494,289,88531,1,0,0:0:0:0:
446,118,88703,2,0,P|499:149|512:171,1,57.5000010967255,2|0,0:0|0:0,0:0:0:0:
345,299,88874,2,0,P|411:284|438:288,1,57.5000010967255,2|0,0:0|0:0,0:0:0:0:
494,301,89046,1,10,0:0:0:0:
272,356,89217,1,0,0:0:0:0:
230,347,89303,1,0,1:0:0:0:
200,318,89388,6,0,L|210:218,1,57.5000010967255,2|0,1:2|0:0,0:0:0:0:
217,169,89560,1,0,0:0:0:0:
68,230,89731,2,0,L|145:199,1,57.5000010967255,10|0,0:0|0:0,0:0:0:0:
223,161,89903,1,0,1:0:0:0:
87,339,90074,2,0,L|146:262,1,57.5000010967255,2|0,0:0|0:0,0:0:0:0:
227,153,90246,2,0,L|291:65,1,57.5000010967255,10|0,0:0|0:0,0:0:0:0:
328,28,90417,1,2,0:0:0:0:
322,240,90588,1,2,1:2:0:0:
143,91,90760,5,0,3:0:0:0:
107,93,90846,1,0,3:0:0:0:
77,108,90931,1,10,0:2:0:0:
135,189,91103,1,0,0:0:0:0:
260,106,91274,1,2,1:2:0:0:
481,284,91446,5,10,3:2:0:0:
434,309,91531,1,0,3:2:0:0:
383,309,91617,1,0,3:2:0:0:
345,286,91703,1,0,3:2:0:0:
325,251,91788,1,0,3:2:0:0:
321,217,91874,1,0,3:2:0:0:
328,187,91960,1,0,3:2:0:0:
342,165,92046,1,0,3:2:0:0:
361,150,92131,5,0,1:0:0:0:
311,268,102246,5,0,1:0:0:0:
188,90,102417,2,0,B|187:66|171:51|171:51|255:56|282:154|218:205|218:205|206:195|206:195|159:259|183:329|253:347|253:347|217:320|220:264,1,519.99997619629,8|0,0:0|1:0,0:0:0:0:
222,300,103446,5,8,3:3:0:0:
113,311,103617,1,0,0:0:0:0:
229,308,103788,5,8,3:3:0:0:
120,319,103960,1,0,3:0:0:0:
11,330,104131,1,8,0:3:0:0:
236,317,104303,5,0,3:0:0:0:
233,329,104646,5,0,3:0:0:0:
313,285,104817,1,8,3:3:0:0:
402,294,104988,1,0,0:0:0:0:
228,340,105160,5,8,3:3:0:0:
311,293,105331,1,0,3:0:0:0:
290,194,105503,2,0,L|275:112,1,75.0000028610231,8|0,3:3|0:0,0:0:0:0:
274,99,105760,1,8,0:3:0:0:
274,99,105846,5,0,1:0:0:0:
274,99,106188,5,8,3:3:0:0:
363,100,106360,1,0,0:0:0:0:
266,88,106531,5,8,3:3:0:0:
370,92,106703,1,0,3:0:0:0:
366,196,106874,1,8,0:3:0:0:
260,80,107046,5,0,3:0:0:0:
254,72,107388,5,0,3:0:0:0:
242,191,107731,5,0,3:0:0:0:
223,320,107903,2,0,P|168:297|127:337,1,112.500004291535,8|0,3:3|0:0,0:0:0:0:
136,336,108246,1,8,3:3:0:0:
294,267,108417,2,0,L|362:258,1,37.5000014305115,0|0,3:0|0:0,0:0:0:0:
423,271,108588,6,0,B|440:271|459:281|459:281|475:224|459:186,1,127.50000243187,4|0,0:3|0:0,0:0:0:0:
453,183,108931,5,10,0:2:0:0:
323,135,109103,1,0,0:0:0:0:
444,173,109274,5,10,0:2:0:0:
315,126,109446,1,2,0:0:0:0:
185,79,109617,1,8,0:0:0:0:
434,162,109788,5,2,0:0:0:0:
426,151,110131,5,2,0:0:0:0:
342,255,110303,1,10,0:0:0:0:
212,279,110474,1,0,0:0:0:0:
419,140,110646,5,10,0:0:0:0:
335,244,110817,1,2,0:0:0:0:
275,125,110988,2,0,L|293:27,1,85.0000016212464,10|0,0:0|0:0,0:0:0:0:
296,16,111246,1,8,0:0:0:0:
296,16,111331,6,0,B|265:35|265:35|225:6|168:24,1,127.50000243187,4|0,3:0|0:0,0:0:0:0:
161,29,111674,5,10,0:0:0:0:
176,165,111846,1,0,0:0:0:0:
145,39,112017,5,10,0:0:0:0:
160,175,112188,1,2,0:0:0:0:
175,311,112360,1,8,0:0:0:0:
77,119,112531,5,8,0:0:0:0:
77,119,112617,1,8,0:0:0:0:
77,119,112703,1,8,0:0:0:0:
246,230,112874,1,8,0:0:0:0:
277,227,112960,1,8,0:0:0:0:
309,224,113046,1,8,0:0:0:0:
341,221,113131,1,8,0:0:0:0:
372,218,113217,5,4,3:0:0:0:
176,75,113388,2,0,B|155:35|155:35|221:30|221:30|152:110|142:180|142:180|115:187|115:187|157:201|157:201|176:257|135:367|135:367|110:334|110:334|211:322,1,647.499997529984,8|0,0:0|0:0,0:0:0:0:
213,324,114074,5,4,3:3:0:0:
82,102,119560,6,0,B|106:119|106:119|119:166|97:225,1,132.00000402832,0|2,3:0|0:3,0:0:0:0:
26,264,119903,1,0,3:0:0:0:
26,264,119988,1,2,0:3:0:0:
26,264,120074,1,2,0:3:0:0:
166,313,120246,1,0,3:0:0:0:
166,313,120331,2,0,P|172:267|185:213,1,88.0000026855469,2|2,0:3|0:3,0:0:0:0:
251,161,120588,2,0,P|266:207|270:303,1,132.00000402832,0|2,3:0|0:3,0:0:0:0:
382,340,120931,6,0,P|360:316|407:218,1,150,0|2,3:0|0:3,0:0:0:0:
466,288,121274,1,0,3:0:0:0:
466,288,121360,1,2,0:3:0:0:
466,288,121446,1,2,0:3:0:0:
488,138,121617,1,0,3:0:0:0:
488,138,121703,2,0,L|380:143,1,100,2|2,0:3|0:3,0:0:0:0:
427,56,121960,2,0,L|277:64,1,150,0|2,3:0|0:3,0:0:0:0:
203,120,122303,5,0,3:0:0:0:
300,188,122474,1,0,3:0:0:0:
118,164,122646,1,0,3:0:0:0:
388,142,122817,1,0,3:0:0:0:
178,220,122988,6,0,L|227:213,1,37.5000014305115,8|8,0:0|0:0,0:0:0:0:
322,82,123160,2,0,L|281:84,1,37.5000014305115,8|8,0:0|0:0,0:0:0:0:
317,319,123331,6,0,L|310:270,1,50,8|8,0:0|0:0,0:0:0:0:
195,104,123503,2,0,L|192:52,1,50,8|8,0:0|0:0,0:0:0:0:
474,167,123674,5,8,0:0:0:0:
500,208,123760,1,8,0:0:0:0:
505,258,123846,1,8,0:0:0:0:
488,306,123931,1,8,0:0:0:0:
453,341,124017,1,8,0:0:0:0:
405,359,124103,1,8,0:0:0:0:
354,352,124188,2,0,P|324:324|309:290,1,62.5,8|0,0:0|0:0,0:0:0:0:
331,139,124360,5,8,0:3:0:0:
330,145,124446,1,8,0:3:0:0:
339,141,124531,1,8,0:3:0:0:
339,147,124617,1,8,0:3:0:0:
337,153,124703,2,0,B|341:118|367:106|367:106|361:136|345:148,1,100,8|0,0:0|0:0,0:0:0:0:
204,204,124874,1,0,1:3:0:0:
215,214,125046,6,0,B|161:173|88:180|88:180|96:186|96:186|23:191|7:255|7:255|35:232|72:235,1,300,0|0,1:0|0:0,0:0:0:0:
140,290,125388,2,0,P|105:298|136:280,1,100,8|0,3:2|0:0,0:0:0:0:
112,155,125560,2,0,L|121:77,1,75.0000028610231,0|0,1:0|0:0,0:0:0:0:
129,80,125903,6,0,L|120:154,1,75.0000028610231,0|0,3:2|0:0,0:0:0:0:
131,364,126074,2,0,L|139:289,1,75.0000028610231,8|0,3:2|0:0,0:0:0:0:
343,168,126246,6,0,B|393:171|393:171|364:216|364:216|236:212|236:212|264:250|264:250|240:293|240:293|223:271,1,350.00000333786,0|0,1:0|0:0,0:0:0:0:
226,275,126760,6,0,B|241:293|241:293|263:251|263:251|218:186|218:186|239:153|237:97,1,234.999996414185,8|0,0:0|0:0,0:0:0:0:
384,193,127103,6,0,L|409:189,1,20
473,178,127274,2,0,B|402:170|402:170|394:177|394:177|305:165,2,160,0|8|0,1:0|0:0|0:0,0:0:0:0:
362,352,127788,6,0,B|335:288|335:288|490:267|490:267|460:311,1,262.500002503395,0|0,1:0|0:0,0:0:0:0:
210,323,128131,1,8,0:0:0:0:
210,323,128303,6,0,B|204:300|189:288|189:288|222:285|245:276|245:276|231:290|224:309,1,127.50000243187,0|0,1:0|0:0,0:0:0:0:
96,352,128646,6,0,B|79:346|57:349|57:349|79:352|95:367,1,75.0000028610231
128,236,128817,2,0,P|111:196|73:169,1,75.0000028610231,8|0,0:0|0:0,0:0:0:0:
330,257,128988,6,0,B|338:235|359:227|359:227|295:188|216:215|208:340,1,262.500002503395,4|0,1:2|0:0,0:0:0:0:
333,355,129331,2,0,B|350:349|372:352|372:352|350:355|334:370,1,75.0000028610231
129,237,129503,6,0,B|129:216|114:203|114:203|178:190|235:236|204:341,1,225.000008583069,12|0,0:2|0:0,0:0:0:0:
205,381,129846,6,0,L|214:328,1,50
218,236,130017,2,0,L|227:183,1,50,0|0,1:0|0:0,0:0:0:0:
261,99,130188,1,8,0:0:0:0:
265,74,130274,1,0,1:0:0:0:
270,49,130360,1,0,0:0:0:0:
382,268,130531,6,0,B|438:255|453:186|453:186|448:186|448:186|473:121|435:79|435:79|440:101|429:120,1,262.500002503395,0|0,1:0|0:0,0:0:0:0:
347,175,130874,2,0,P|326:148|355:169,1,100,8|0,3:2|0:0,0:0:0:0:
480,249,131046,2,0,L|472:358,1,75.0000028610231,0|0,1:0|0:0,0:0:0:0:
466,327,131388,6,0,L|471:252,1,75.0000028610231,0|0,3:0|0:0,0:0:0:0:
352,100,131560,2,0,L|346:174,1,75.0000028610231,8|0,3:2|0:0,0:0:0:0:
217,337,131731,6,0,B|179:355|179:355|166:319|166:319|272:266|272:266|217:169|217:169|217:208,1,350.00000333786,0|0,1:0|0:0,0:0:0:0:
217,208,132246,6,0,B|216:169|216:169|274:268|274:268|316:285|359:261,1,234.999996414185,8|0,0:0|0:0,0:0:0:0:
59,189,132588,6,0,B|60:213|83:233|83:233|15:211|20:122|74:59|172:111,1,262.500002503395,0|0,1:0|0:0,0:0:0:0:
143,83,132931,2,0,L|132:189,1,75.0000028610231,8|0,0:0|0:0,0:0:0:0:
131,330,133103,1,0,0:0:0:0:
124,328,133188,1,0,0:0:0:0:
117,324,133274,6,0,P|174:302|203:326,1,75.0000028610231,2|0,1:2|0:0,0:0:0:0:
269,241,133446,2,0,P|232:244|203:222,1,75.0000028610231,2|0,0:0|0:0,0:0:0:0:
135,157,133617,1,10,0:0:0:0:
135,157,133788,1,0,1:0:0:0:
117,324,133960,6,0,P|84:297|45:288,1,75.0000028610231,0|0,3:0|0:0,0:0:0:0:
269,241,134131,2,0,P|302:214|341:205,1,75.0000028610231,0|0,3:0|0:0,0:0:0:0:
135,157,134303,2,0,P|102:130|63:121,1,75.0000028610231,8|0,3:2|0:0,0:0:0:0:
176,248,134474,5,2,0:0:0:0:
385,338,134646,2,0,L|333:335,1,37.5000014305115,8|0,0:0|0:0,0:0:0:0:
227,328,134817,1,8,0:3:0:0:
505,266,134988,2,0,L|384:261,1,112.500004291535,2|0,1:2|0:0,0:0:0:0:
284,256,135331,1,8,0:0:0:0:
353,101,135503,6,0,P|381:136|379:159,1,37.5000014305115,2|0,1:2|0:0,0:0:0:0:
180,139,135674,2,0,P|192:104|222:76,1,67.4999979400635,10|0,0:0|0:0,0:0:0:0:
280,163,136017,6,0,B|230:149|188:164|188:164|179:162|179:162|101:228|19:177,1,262.500002503395,0|0,1:0|0:0,0:0:0:0:
94,95,136360,2,0,P|104:72|88:96,1,100,8|0,3:2|0:0,0:0:0:0:
103,224,136531,2,0,P|143:213|174:196,1,75.0000028610231,0|0,1:0|0:0,0:0:0:0:
174,205,136874,6,0,P|140:222|104:231,1,75.0000028610231,0|0,3:0|0:0,0:0:0:0:
21,67,137046,2,0,P|57:72|87:95,1,75.0000028610231,8|0,3:2|0:0,0:0:0:0:
320,64,137217,6,0,B|288:73|277:110|277:110|301:110|301:110|250:169|302:226|302:226|361:203|361:203|389:218|432:227,1,350.00000333786,0|0,1:0|0:0,0:0:0:0:
424,225,137731,6,0,B|388:218|362:203|362:203|263:240|263:240|254:275|235:302,1,235.99999171753,8|0,0:0|0:0,0:0:0:0:
122,194,138074,6,0,P|129:182|128:167,1,25
108,95,138246,2,0,B|60:179|159:180|99:272,2,184.999999294281,0|8|0,1:0|0:0|0:0,0:0:0:0:
330,180,138760,6,0,B|284:161|243:168|243:168|256:102|249:42|249:42|276:65|272:109,1,262.500002503395,0|0,1:0|0:0,0:0:0:0:
275,264,139103,1,8,0:0:0:0:
275,264,139274,6,0,B|247:275|223:271|223:271|231:309|227:345|227:345|243:331|240:305,1,150,0|0,1:0|0:0,0:0:0:0:
112,328,139617,6,0,B|83:320|83:320|155:311,1,75.0000028610231
328,340,139788,2,0,L|418:349,1,75.0000028610231,8|0,0:0|0:0,0:0:0:0:
453,85,139960,6,0,B|475:136|475:136|364:109|364:109|255:102,1,262.500002503395,4|0,1:2|0:0,0:0:0:0:
114,195,140303,2,0,B|85:187|85:187|157:178,1,75.0000028610231
373,187,140474,6,0,B|392:143|392:143|296:167|296:167|201:173,1,225.000008583069,12|0,0:2|0:0,0:0:0:0:
156,44,140817,6,0,P|138:107|145:121,1,50
208,174,140988,2,0,P|225:218|220:246,1,50,0|0,1:0|0:0,0:0:0:0:
116,294,141160,1,8,0:0:0:0:
121,280,141246,1,0,1:0:0:0:
128,293,141331,1,0,0:0:0:0:
326,342,141503,6,0,B|308:293|335:253|335:253|343:259|343:259|393:171|336:103,1,262.500002503395,0|0,1:0|0:0,0:0:0:0:
233,194,141846,2,0,P|228:158|246:189,1,100,8|0,3:2|0:0,0:0:0:0:
393,186,142017,2,0,P|387:221|370:261,1,75.0000028610231,0|0,1:0|0:0,0:0:0:0:
379,260,142360,6,0,P|393:225|399:188,1,75.0000028610231,0|0,3:0|0:0,0:0:0:0:
225,118,142531,2,0,P|230:154|245:189,1,75.0000028610231,8|0,3:2|0:0,0:0:0:0:
192,359,142703,6,0,B|158:352|129:326|129:326|110:275|127:209|127:209|141:218|151:234|151:234|67:224|112:266|-12:257,1,350.00000333786,0|0,1:0|0:0,0:0:0:0:
31,258,143217,6,0,B|108:253|94:216|170:234|170:234|201:288|266:282,1,230.000004386902,8|0,0:0|0:0,0:0:0:0:
218,93,143560,6,0,B|193:63|193:63|260:38|260:38|244:204,1,262.500002503395,0|0,1:0|0:0,0:0:0:0:
248,206,143903,2,0,L|340:196,1,75.0000028610231,8|0,0:0|0:0,0:0:0:0:
455,165,144074,1,0,0:0:0:0:
454,174,144160,1,0,0:0:0:0:
449,182,144246,6,0,P|414:128|424:95,1,75.0000028610231,2|0,1:2|0:0,0:0:0:0:
346,14,144417,2,0,P|318:38|311:75,1,75.0000028610231,2|0,0:0|0:0,0:0:0:0:
250,191,144588,1,10,0:0:0:0:
250,191,144760,1,0,1:2:0:0:
449,182,144931,6,0,L|445:267,1,75.0000028610231,0|0,3:0|0:0,0:0:0:0:
311,75,145103,2,0,L|297:-4,1,75.0000028610231,0|0,3:0|0:0,0:0:0:0:
175,202,145274,2,0,L|262:189,1,75.0000028610231,8|0,3:2|0:0,0:0:0:0:
346,172,145446,1,0,0:0:0:0:
290,273,145617,6,0,P|314:276|336:264,1,50,10|0,0:0|0:0,0:0:0:0:
406,104,145788,1,8,0:3:0:0:
445,256,145960,2,0,L|428:190,1,50,2|0,0:0|0:0,0:0:0:0:
403,95,146131,1,0,1:0:0:0:
469,365,146303,6,0,P|465:357|474:368,1,75,8|0,0:0|0:0,0:0:0:0:
281,261,146988,6,0,B|254:244|219:243|219:243|183:253|146:259|146:259|130:246|91:247|91:247|128:264|158:293,1,262.500002503395,0|0,1:0|0:0,0:0:0:0:
203,160,147331,2,0,P|202:128|191:101,1,50,8|0,0:0|0:0,0:0:0:0:
0,165,147503,1,0,0:0:0:0:
0,165,147588,2,0,P|48:163|112:150,1,100,0|0,1:0|0:0,0:0:0:0:
117,148,147846,1,0,1:0:0:0:
262,43,148017,6,0,B|246:13|246:13|296:-1|313:57|313:57|300:113|260:157,1,200,10|0,0:0|0:0,0:0:0:0:
267,246,148274,1,0,1:0:0:0:
274,242,148360,2,0,P|313:231|378:219,1,75.0000028610231,2|0,0:0|0:0,0:0:0:0:
439,220,148531,1,0,1:0:0:0:
175,199,148703,6,0,P|230:203|261:347,1,225.000008583069,8|0,0:0|1:0,0:0:0:0:
394,371,149046,1,2,0:0:0:0:
385,345,149131,1,0,0:3:0:0:
376,319,149217,1,0,1:0:0:0:
157,302,149388,6,0,B|74:291|96:341|12:330,1,150,10|0,0:0|0:0,0:0:0:0:
26,224,149731,6,0,B|25:211|37:199|37:199|40:216|31:249,1,75,0|0,1:0|0:0,0:0:0:0:
157,302,150074,2,0,P|168:315|152:302,1,75.0000028610231,8|0,0:0|0:0,0:0:0:0:
246,177,150246,6,0,B|305:232|305:232|125:214,1,250,0|0,1:0|0:0,0:0:0:0:
118,108,150760,2,0,B|115:86|115:86|137:81|137:81|145:121,1,75.0000028610231,8|0,0:0|0:0,0:0:0:0:
137,216,150931,6,0,B|225:198|225:198|313:217|313:217|409:193,1,270.000001029968,0|0,1:0|0:0,0:0:0:0:
485,101,151360,5,8,0:3:0:0:
466,111,151446,2,0,P|393:94|382:88,1,67.5000002574921,10|0,0:0|0:0,0:0:0:0:
311,63,151617,1,0,0:0:0:0:
311,63,151703,2,0,P|245:64|230:122,1,135.000000514984,8|0,0:3|0:0,0:0:0:0:
314,161,151960,1,8,0:3:0:0:
408,16,152131,1,8,0:0:0:0:
439,12,152217,1,8,1:3:0:0:
470,9,152303,1,0,0:0:0:0:
226,111,152474,6,0,B|189:126|152:95|152:95|86:75|33:98|33:98|83:96|110:115,1,262.500002503395,0|0,1:0|0:0,0:0:0:0:
61,197,152817,2,0,P|50:217|46:246,1,37.5000014305115,8|0,0:0|0:0,0:0:0:0:
272,200,152988,1,0,0:0:0:0:
272,200,153074,2,0,P|210:253|143:238,1,150.000005722046,0|0,1:0|0:0,0:0:0:0:
141,229,153331,1,0,1:0:0:0:
351,136,153503,6,0,B|417:93|371:28|323:93|407:126|383:194,1,189.999994926453,10|0,0:0|0:0,0:0:0:0:
400,356,153760,1,0,1:0:0:0:
401,344,153846,2,0,P|408:289|425:225,1,75.0000028610231,2|0,0:0|0:0,0:0:0:0:
490,211,154017,1,0,1:0:0:0:
267,180,154188,2,0,P|300:273|300:372,1,135.000000514984,10|0,0:0|0:0,0:0:0:0:
229,342,154446,1,0,1:0:0:0:
229,342,154531,6,0,L|108:304,1,87.500000834465,2|8,0:0|0:0,0:0:0:0:
114,125,154703,1,0,1:0:0:0:
225,354,154874,2,0,B|123:322|123:322|127:302|127:302|-11:258,1,262.500002503395,10|0,0:0|0:0,0:0:0:0:
44,160,155217,6,0,P|56:188|103:200,1,75,0|0,1:0|0:0,0:0:0:0:
185,91,155560,2,0,P|168:58|133:49,1,75,8|0,0:0|0:0,0:0:0:0:
114,124,155731,6,0,B|172:130|214:113|214:113|234:130|234:130|296:84|362:118,1,259.999988098145,0|0,1:0|0:0,0:0:0:0:
395,322,156246,2,0,P|435:315|459:267,1,75.0000028610231,8|0,0:0|0:0,0:0:0:0:
309,284,156417,6,0,B|280:247|304:191|304:191|219:271|312:392,1,300,0|0,1:0|0:0,0:0:0:0:
312,383,156760,1,0,1:0:0:0:
385,217,156931,2,0,L|394:142,1,50,8|0,0:0|0:0,0:0:0:0:
401,80,157103,1,0,0:0:0:0:
123,136,157274,6,0,L|298:116,1,150,0|0,1:0|0:0,0:0:0:0:
304,193,157617,2,0,P|279:198|245:196,1,50,8|8,0:2|0:2,0:2:0:0:
239,44,157788,2,0,P|263:39|288:39,1,50,8|8,0:2|0:2,0:2:0:0:
96,223,157960,6,0,B|1:134|29:41|117:12|167:95|111:150,1,300,0|0,1:0|0:0,0:0:0:0:
87,329,158303,2,0,P|123:308|152:304,1,50,8|0,0:0|0:0,0:0:0:0:
269,340,158474,1,0,0:0:0:0:
269,340,158560,2,0,B|222:366|222:366|206:237,1,150.000005722046,0|0,1:0|0:0,0:0:0:0:
208,250,158817,1,0,1:0:0:0:
391,204,158988,6,0,B|446:237|446:237|287:252,1,200,10|0,0:0|0:0,0:0:0:0:
254,172,159246,1,0,1:0:0:0:
260,161,159331,2,0,P|267:116|266:71,1,75.0000028610231,2|0,0:0|0:0,0:0:0:0:
200,8,159503,1,0,1:0:0:0:
382,126,159674,6,0,B|245:160|276:68|134:114,1,240,8|0,0:0|1:0,0:0:0:0:
44,83,160017,1,2,0:0:0:0:
40,117,160103,1,0,0:3:0:0:
41,147,160188,1,0,1:0:0:0:
226,300,160360,6,0,P|118:259|157:181,1,179.999994506836,8|0,0:0|0:0,0:0:0:0:
228,198,160703,6,0,B|248:195|270:201|270:201|248:202|228:208,1,75,0|0,1:0|0:0,0:0:0:0:
29,274,161046,2,0,P|9:288|33:278,1,75.0000028610231,8|0,0:0|0:0,0:0:0:0:
154,122,161217,6,0,B|190:42|149:-14|149:-14|157:34|117:121,1,250,0|0,1:0|0:0,0:0:0:0:
91,199,161731,2,0,B|100:225|100:225|124:232|124:232|164:202,1,75.0000028610231,8|0,0:0|0:0,0:0:0:0:
130,89,161903,6,0,B|175:31|175:31|326:99|326:99|339:169,1,279.999991455078,0|0,1:0|0:0,0:0:0:0:
279,272,162331,5,8,0:3:0:0:
266,260,162417,2,0,P|244:201|245:179,1,69.9999978637696,8|0,0:0|0:0,0:0:0:0:
261,94,162588,1,0,0:0:0:0:
261,94,162674,2,0,P|341:51|403:107,1,139.999995727539,8|0,0:3|0:0,0:0:0:0:
338,151,162931,1,0,1:0:0:0:
166,145,163103,1,8,0:0:0:0:
147,173,163188,1,8,1:3:0:0:
136,206,163274,1,0,0:0:0:0:
395,214,163446,6,0,B|336:191|332:191|236:210|236:210|280:209|296:231,1,225.000008583069,0|0,1:0|0:0,0:0:0:0:
230,292,163788,2,0,P|197:283|187:270,1,37.5000014305115,8|0,0:0|0:0,0:0:0:0:
62,222,163961,1,0,0:0:0:0:
62,222,164046,2,0,P|100:141|147:178,1,150.000005722046,0|0,1:0|0:0,0:0:0:0:
284,159,164303,2,0,P|232:209|189:180,1,75.0000028610231,0|0,1:0|0:0,0:0:0:0:
84,307,164474,6,0,B|118:310|153:295|153:295|180:313|180:313|202:302|202:302|232:316|285:313,1,175.00000166893,10|0,0:0|0:0,0:0:0:0:
381,361,164731,1,0,1:0:0:0:
385,350,164817,2,0,L|372:281,1,62.5,2|0,0:0|0:0,0:0:0:0:
360,204,164988,1,0,1:0:0:0:
430,16,165160,2,0,P|492:69|403:120,1,150.000005722046,10|0,0:0|0:0,0:0:0:0:
367,95,165417,5,0,1:0:0:0:
367,95,165503,2,0,L|267:116,1,100,2|8,0:0|0:0,0:0:0:0:
248,315,165674,1,0,1:0:0:0:
370,81,165846,2,0,B|253:106|253:106|246:118|246:118|70:153,1,300,10|0,0:0|0:0,0:0:0:0:
142,222,166188,6,0,P|166:215|210:255,1,75.0000028610231,0|0,1:0|0:0,0:0:0:0:
166,376,166531,2,0,P|142:383|98:343,1,75.0000028610231,8|0,0:0|0:0,0:0:0:0:
155,299,166703,6,0,B|208:304|245:282|245:282|306:315|306:315|348:297|412:294,1,250,0|0,1:0|0:0,0:0:0:0:
433,51,167217,2,0,P|409:44|365:84,1,75.0000028610231,8|0,0:0|0:0,0:0:0:0:
421,131,167388,5,0,1:0:0:0:
278,38,167560,2,0,L|290:131,1,75.0000028610231,8|0,0:0|0:0,0:0:0:0:
309,267,167731,2,0,L|299:192,1,75.0000028610231,8|0,0:2|0:0,0:0:0:0:
136,137,167903,2,0,B|103:169|103:169|247:152,1,150.000005722046,0|0,1:0|0:0,0:0:0:0:
439,140,168246,5,8,0:0:0:0:
456,163,168417,1,0,0:0:0:0:
466,263,168588,1,0,0:0:0:0:
331,362,168760,1,0,0:0:0:0:
105,254,168931,5,0,1:0:0:0:
245,240,169103,2,0,B|294:274|294:274|98:253,1,250,2|0,0:0|0:0,0:0:0:0:
169,60,169617,2,0,P|188:134|169:188,1,125,10|0,0:0|0:0,0:0:0:0:
27,313,169960,1,2,0:0:0:0:
22,128,170131,1,0,1:0:0:0:
229,122,170303,6,0,L|361:119,1,125,2|0,0:0|0:0,0:0:0:0:
284,329,170646,2,0,B|226:242|317:203|317:203|295:269,1,187.5,0|0,1:0|0:0,0:0:0:0:
424,266,170988,2,2,B|233:291|319:232|127:257,2,300.000011444092,8|0|0,0:0|0:0|0:0,0:0:0:0:
510,136,171846,6,0,P|450:151|358:149,1,125,2|0,0:0|1:0,0:0:0:0:
284,77,172188,1,2,1:2:0:0:
72,177,172360,2,0,P|145:153|199:153,1,125,10|0,0:0|0:0,0:0:0:0:
296,321,172703,2,0,P|286:248|292:188,1,125,2|0,0:0|1:0,0:0:0:0:
398,49,173046,6,0,P|320:86|161:27,1,250,2|2,0:0|1:2,0:0:0:0:
288,0,173560,1,0,0:0:0:0:
405,220,173731,2,0,L|377:156,1,62.5,10|0,0:0|0:0,0:0:0:0:
287,111,173903,2,0,L|261:168,1,62.5,2|0,1:2|0:0,0:0:0:0:
201,263,174074,1,2,0:0:0:0:
201,263,174246,1,2,0:0:0:0:
139,176,174417,6,0,P|90:183|115:242,1,112.500004291535,0|0,1:0|0:0,0:0:0:0:
158,347,174760,2,0,B|152:264|152:264|143:251|143:251|138:162,1,175.00000166893,2|2,0:0|0:0,0:0:0:0:
403,98,175103,6,0,L|105:80,1,262.500002503395,12|0,0:2|0:0,0:0:0:0:
123,80,175446,1,0,0:0:0:0:
41,218,175617,6,0,L|339:200,1,262.500002503395,4|0,1:2|0:0,0:0:0:0:
321,200,175960,1,0,0:0:0:0:
403,98,176131,6,0,B|276:86|276:86|265:91|265:91|100:78,1,262.500002503395,4|0,1:2|0:0,0:0:0:0:
123,80,176474,2,0,B|149:70|149:70|134:147,1,87.500000834465,8|0,0:0|0:0,0:0:0:0:
41,218,176646,6,0,B|146:212|146:212|155:216|155:216|235:212|235:212|244:206|244:206|352:198,1,281.999985585023,4|0,1:2|0:0,0:0:0:0:
483,338,177160,5,2,0:3:0:0:
460,317,177246,1,2,0:3:0:0:
443,292,177331,1,2,0:3:0:0:
433,264,177417,1,2,0:3:0:0:
430,234,177503,1,2,0:3:0:0:
434,204,177588,1,2,0:3:0:0:
444,176,177674,1,0,1:0:0:0:
330,53,177846,6,0,P|237:50|276:194,1,262.500002503395,12|0,0:2|0:0,0:0:0:0:
267,189,178188,1,0,0:0:0:0:
132,355,178360,6,0,P|181:275|36:237,1,262.500002503395,4|0,1:2|0:0,0:0:0:0:
46,233,178703,1,0,0:0:0:0:
101,25,178874,6,0,B|95:80|95:80|125:120|125:120|182:133|182:133|223:111|223:111|257:48,1,262.500002503395,4|0,1:2|0:0,0:0:0:0:
257,42,179217,2,0,P|255:62|310:85,1,87.500000834465,8|0,0:0|0:0,0:0:0:0:
410,207,179388,6,0,B|370:150|370:150|250:217|250:217|295:299,1,279.999991455078,4|0,1:2|0:0,0:0:0:0:
134,348,179903,6,0,L|146:201,1,125,2|0,1:2|0:0,0:0:0:0:
78,54,180246,2,0,P|26:127|51:241,1,187.5,2|0,0:0|0:0,0:0:0:0:
48,235,180588,1,10,0:0:0:0:
249,152,180760,2,0,L|87:136,1,125,2|0,0:0|0:0,0:0:0:0:
65,332,181103,2,0,L|189:344,1,125,2|0,1:2|0:0,0:0:0:0:
366,271,181446,5,2,0:0:0:0:
456,74,181617,2,0,B|410:96|410:96|453:238,1,187.5,0|0,1:0|0:0,0:0:0:0:
459,244,181960,6,2,B|423:184|363:164|363:164|278:215|199:181|199:181|254:174|284:185|284:185|303:243|246:346|199:326|199:326|201:283|175:246,1,600.000022888185,8|0,0:0|0:0,0:0:0:0:
106,275,182817,5,2,0:0:0:0:
0,190,182988,2,0,P|19:287|17:331,1,125,0|2,1:0|1:2,0:0:0:0:
96,97,183331,1,8,0:0:0:0:
198,300,183503,2,0,P|187:225|229:36,1,250,2|2,0:0|1:2,0:0:0:0:
466,175,184017,6,0,L|293:157,1,125,2|0,0:0|0:0,0:0:0:0:
137,354,184360,2,0,L|261:341,1,125,2|0,1:2|0:0,0:0:0:0:
219,55,184703,1,10,0:0:0:0:
340,277,184874,2,0,P|277:232|96:250,1,250,2|2,1:2|0:0,0:0:0:0:
0,118,185388,6,0,B|55:131|55:131|61:127|61:127|119:142,1,120,4|0,0:3|0:0,0:0:0:0:
142,304,186074,6,2,L|112:16,1,250,8|0,0:0|0:0,0:1:0:0:
126,51,186588,6,2,L|151:299,1,250,0|0,1:0|0:0,0:1:0:0:
58,260,187103,6,2,B|219:236|219:236|260:280|260:280|448:260,1,375,0|0,1:0|0:0,0:1:0:0:
430,261,187446,1,8,0:0:0:0:
411,85,187617,6,2,B|268:66|268:66|209:105|209:105|43:86,1,350.00000333786,0|0,1:0|0:0,0:1:0:0:
354,173,188131,6,0,B|371:179|371:179|287:184,1,100,0|0,0:0|0:0,0:1:0:0:
266,186,188646,1,0,1:0:0:0:
155,87,188817,6,2,P|227:182|185:295,1,250,8|0,0:0|0:0,0:1:0:0:
199,294,189331,6,2,P|237:180|167:82,1,250,0|0,1:0|0:0,0:1:0:0:
98,184,189846,6,2,B|339:219|196:99|448:144,1,337.500012874604,0|0,1:0|0:0,0:1:0:0:
454,214,190188,6,0,L|446:284,1,50,10|2,0:0|0:0,0:0:0:0:
461,209,190360,6,0,L|453:279,1,50,2|2,1:2|0:0,0:0:0:0:
468,205,190531,6,0,L|460:275,1,50,2|0,0:0|0:0,0:0:0:0:
446,361,190703,1,2,0:0:0:0:
332,86,190874,6,0,B|284:31|284:31|321:215,1,250,6|0,1:2|0:0,0:0:0:0:
345,317,191388,1,0,0:0:0:0:
125,275,191560,2,0,P|191:264|253:267,1,125,8|0,0:0|0:0,0:0:0:0:
345,329,191903,1,0,0:0:0:0:
197,175,192074,2,0,P|305:184|428:279,1,250,0|0,1:0|0:0,0:0:0:0:
323,154,192588,6,0,B|268:86|351:40|351:40|323:72|326:92,1,187.5,0|0,1:0|0:0,0:0:0:0:
416,156,192931,2,0,B|210:156|346:215|120:218,1,300.000011444092,8|0,0:0|0:0,0:0:0:0:
61,144,193446,1,0,0:0:0:0:
72,302,193617,6,0,B|67:389|199:390|194:270|117:208,1,259.999988098145,2|0,0:0|1:0,0:0:0:0:
0,83,194131,1,0,1:0:0:0:
186,140,194303,2,0,P|250:134|315:135,1,129.999994049073,8|0,0:0|0:0,0:0:0:0:
112,72,194646,1,0,0:0:0:0:
112,72,194817,1,0,1:0:0:0:
255,210,194988,6,0,P|221:144|346:46,1,259.999988098145,2|0,0:0|1:0,0:0:0:0:
448,78,195503,1,2,0:0:0:0:
423,297,195674,2,0,L|402:152,1,129.999994049073,8|0,0:0|1:0,0:0:0:0:
198,147,196017,2,0,P|247:197|253:319,1,194.999991073609,2|0,0:0|0:0,0:0:0:0:
237,332,196360,6,0,L|153:321,1,75.0000028610231,0|0,1:0|0:0,0:0:0:0:
72,323,196703,6,0,L|146:332,1,75.0000028610231,2|0,3:2|0:0,0:0:0:0:
338,245,196874,2,0,L|263:235,1,75.0000028610231,2|0,3:2|0:0,0:0:0:0:
50,140,197046,6,0,L|274:110,1,225.000008583069,12|0,0:0|0:0,0:0:0:0:
296,106,197388,1,0,0:0:0:0:
409,278,197560,6,0,L|185:248,1,225.000008583069,4|0,1:2|0:0,0:0:0:0:
161,244,197902,1,0,0:0:0:0:
50,140,198074,6,0,B|163:122|163:122|179:125|179:125|275:111,1,225.000008583069,4|0,1:2|0:0,0:0:0:0:
296,106,198417,2,0,B|268:96|268:96|282:148,1,75.0000028610231,8|0,0:0|0:0,0:0:0:0:
409,278,198588,6,0,L|159:244,1,250,4|0,1:2|0:0,0:0:0:0:
82,36,199103,5,2,0:3:0:0:
113,35,199188,1,2,0:3:0:0:
142,46,199274,1,2,0:3:0:0:
164,67,199360,1,2,0:3:0:0:
177,95,199445,1,2,0:3:0:0:
177,126,199531,1,2,0:3:0:0:
166,155,199617,1,0,1:0:0:0:
60,323,199788,6,0,B|156:256|156:256|292:291,1,247.500002360344,12|0,0:0|0:0,0:0:0:0:
306,296,200131,1,0,0:0:0:0:
408,128,200303,6,0,B|312:195|312:195|176:160,1,247.500002360344,4|0,1:2|0:0,0:0:0:0:
166,155,200646,1,0,0:0:0:0:
60,323,200817,6,0,B|117:303|156:256|156:256|205:286|294:288,1,247.500002360344,4|0,1:2|0:0,0:0:0:0:
305,295,201160,2,0,P|268:309|263:260,1,82.5000007867813,8|0,0:0|0:0,0:0:0:0:
408,128,201331,6,0,B|346:145|308:190|308:190|226:205|159:150,1,270.000001029968,4|0,1:2|0:0,0:0:0:0:
372,49,201846,6,0,B|449:37|449:37|423:239,1,259.999988098145,2|0,1:2|0:0,0:0:0:0:
413,317,202360,1,0,0:0:0:0:
213,254,202531,2,0,P|269:265|343:257,1,129.999994049073,8|0,0:0|0:0,0:0:0:0:
423,326,202874,1,0,0:0:0:0:
192,377,203046,2,0,P|214:298|136:136,1,259.999988098145,0|0,1:0|0:0,0:0:0:0:
5,295,203560,6,0,B|28:303|56:338|56:338|27:268|77:204,1,194.999991073609,0|0,1:0|0:0,0:0:0:0:
70,83,203903,2,0,P|25:189|234:157,1,450.000017166138,8|0,0:0|0:0,0:0:0:0:
359,24,204588,6,0,P|312:49|332:128,1,129.999994049073,2|0,0:0|0:0,0:0:0:0:
444,99,204931,1,0,1:0:0:0:
199,39,205103,1,0,1:0:0:0:
303,246,205274,2,0,L|319:108,1,129.999994049073,8|0,0:0|0:0,0:0:0:0:
407,197,205617,1,0,0:0:0:0:
407,197,205788,1,0,1:0:0:0:
213,323,205960,6,0,B|165:347|165:347|387:329,1,259.999988098145,2|0,0:0|1:0,0:0:0:0:
472,359,206474,1,2,0:0:0:0:
286,238,206646,2,0,L|152:227,1,129.999994049073,8|0,0:0|1:0,0:0:0:0:
21,335,206988,2,0,P|55:303|47:195,1,150,2|0,0:0|0:0,0:0:0:0:
39,191,207331,6,0,P|36:229|95:283,1,120,4|0,0:3|0:0,0:0:0:0:
373,111,208017,6,2,B|280:101|280:101|217:106|217:106|70:90,1,250,8|0,0:0|0:0,0:1:0:0:
122,110,208531,6,2,B|215:120|215:120|278:115|278:115|425:131,1,250,0|0,1:0|0:0,0:1:0:0:
472,79,209046,6,2,B|440:25|334:32|334:32|236:95|288:202,1,337.500012874604,0|0,1:0|0:0,0:1:0:0:
299,206,209388,1,8,0:0:0:0:
81,202,209560,6,2,B|113:148|219:155|219:155|317:218|267:334,1,350.00000333786,0|0,1:0|0:0,0:1:0:0:
456,195,210074,6,0,B|455:167|455:167|428:201|439:261,1,125,0|0,0:0|0:0,0:1:0:0:
444,276,210588,1,0,0:0:0:0:
315,367,210760,6,2,P|333:219|318:108,1,250,8|0,0:0|0:0,0:1:0:0:
330,119,211274,6,2,P|343:243|325:367,1,250,0|0,1:0|0:0,0:1:0:0:
437,337,211788,6,2,B|457:256|457:256|147:195,1,375,0|0,1:0|0:0,0:1:0:0:
153,195,212131,1,8,0:0:0:0:
263,124,212303,6,2,B|346:140|346:140|302:325,1,259.999988098145,0|0,1:0|0:0,0:1:0:0:
194,375,212817,5,4,0:3:0:0:
