osu file format v14

[General]
AudioFilename: audio.mp3
AudioLeadIn: 0
PreviewTime: 86042
Countdown: 0
SampleSet: Normal
StackLeniency: 0.7
Mode: 1
LetterboxInBreaks: 0
WidescreenStoryboard: 1

[Editor]
DistanceSpacing: 0.1
BeatDivisor: 4
GridSize: 8
TimelineZoom: 0.2999999

[Metadata]
Title:Ether Strike
TitleUnicode:Ether Strike
Artist:Akira Complex
ArtistUnicode:Akira Complex
Creator:Raytoly
Version:Kantan
Source:Arcaea
Tags:Rhytoly Hikari Luminous Sky light Zero Chapter 3 Main Story maimai でらっくす Splash DX スプラッシュ SEGA Video Game Electronic Instrumental
BeatmapID:2471177
BeatmapSetID:1170083

[Difficulty]
HPDrainRate:7
CircleSize:5
OverallDifficulty:4.5
ApproachRate:10
SliderMultiplier:1.4
SliderTickRate:1

[Events]
//Background and Video events
0,0,"fb825913179781ef7caaef59fedb4a05817becff_s2_n2.jpg",0,35
//Break Periods
//Storyboard Layer 0 (Background)
//Storyboard Layer 1 (Fail)
//Storyboard Layer 2 (Pass)
//Storyboard Layer 3 (Foreground)
//Storyboard Layer 4 (Overlay)
//Storyboard Sound Samples

[TimingPoints]
658,384.615384615385,4,1,0,60,1,0
12965,-100,4,1,0,70,0,0
19119,-100,4,1,0,80,0,0
22196,-100,4,1,0,100,0,0
25273,-100,4,1,0,100,0,1
48350,-100,4,1,0,100,0,0
48542,-100,4,1,0,100,0,1
49888,-100,4,1,0,100,0,0
50273,-100,4,1,0,90,0,0
51811,-100,4,1,0,80,0,0
53350,-100,4,1,0,70,0,0
54888,-100,4,1,0,60,0,0
56042,-100,4,1,0,100,0,0
62581,-100,4,1,0,95,0,0
62965,-100,4,1,0,90,0,0
63350,-100,4,1,0,85,0,0
63734,-100,4,1,0,80,0,0
64119,-100,4,1,0,75,0,0
64504,-100,4,1,0,70,0,0
83734,-100,4,1,0,100,0,0
86811,-100,4,1,0,100,0,1
137581,-100,4,1,0,100,0,0

[HitObjects]
160,129,658,5,4,0:0:0:0:
407,172,3734,1,0,0:0:0:0:
422,198,6042,1,0,0:0:0:0:
415,225,6811,1,4,0:0:0:0:
409,227,9888,1,4,0:0:0:0:
440,301,11234,1,8,0:0:0:0:
191,129,11619,1,0,0:0:0:0:
225,156,12196,1,8,0:0:0:0:
400,221,12965,1,4,0:0:0:0:
418,260,14504,1,8,0:0:0:0:
196,151,15658,1,8,0:0:0:0:
166,148,16042,1,8,0:0:0:0:
435,93,17581,1,8,0:0:0:0:
172,144,19119,1,0,0:0:0:0:
258,150,20273,1,0,0:0:0:0:
356,212,21427,1,8,0:0:0:0:
241,133,22196,1,0,0:0:0:0:
425,264,22965,1,0,0:0:0:0:
402,145,23734,1,0,0:0:0:0:
402,145,24119,1,8,0:0:0:0:
402,145,24504,1,0,0:0:0:0:
245,159,25273,5,4,0:0:0:0:
407,239,25850,1,8,0:0:0:0:
407,239,26234,1,8,0:0:0:0:
407,239,26619,1,8,0:0:0:0:
428,215,27388,1,8,0:0:0:0:
428,215,27773,1,8,0:0:0:0:
428,215,28158,1,8,0:0:0:0:
218,132,28927,1,8,0:0:0:0:
218,132,29311,1,8,0:0:0:0:
218,132,29696,1,8,0:0:0:0:
370,109,30465,1,8,0:0:0:0:
370,109,31427,1,12,0:0:0:0:
360,172,32004,1,8,0:0:0:0:
360,172,32388,1,8,0:0:0:0:
360,172,32773,1,8,0:0:0:0:
360,172,33542,1,8,0:0:0:0:
360,172,34504,1,4,0:0:0:0:
365,222,35273,1,4,0:0:0:0:
393,160,36234,1,0,0:0:0:0:
156,157,36811,1,8,0:0:0:0:
156,157,37581,1,4,0:0:0:0:
286,103,38158,1,8,0:0:0:0:
271,120,38542,1,8,0:0:0:0:
161,118,38927,1,8,0:0:0:0:
403,232,39696,1,8,0:0:0:0:
180,137,41042,1,12,0:0:0:0:
316,147,41619,1,8,0:0:0:0:
192,88,42004,1,8,0:0:0:0:
316,147,42773,1,8,0:0:0:0:
192,88,43734,1,4,0:0:0:0:
360,172,44311,1,8,0:0:0:0:
360,172,44696,1,8,0:0:0:0:
360,172,45081,1,8,0:0:0:0:
360,172,45850,1,8,0:0:0:0:
360,172,46811,1,4,0:0:0:0:
193,132,47581,1,4,0:0:0:0:
259,167,48158,1,0,0:0:0:0:
265,115,48542,1,0,0:0:0:0:
265,115,49119,1,8,0:0:0:0:
180,137,49888,1,4,0:0:0:0:
316,170,50466,1,8,0:0:0:0:
316,170,51427,1,0,0:0:0:0:
341,196,52004,1,8,0:0:0:0:
184,158,52965,1,0,0:0:0:0:
129,127,53542,1,8,0:0:0:0:
129,127,54504,1,0,0:0:0:0:
369,191,55081,1,8,0:0:0:0:
386,195,56042,1,0,0:0:0:0:
255,139,57196,1,0,0:0:0:0:
196,65,58350,1,8,0:0:0:0:
379,170,59119,1,0,0:0:0:0:
379,170,59888,1,0,0:0:0:0:
379,170,60658,1,8,0:0:0:0:
214,50,61042,1,0,0:0:0:0:
214,50,61427,1,8,0:0:0:0:
187,151,62196,1,4,0:0:0:0:
256,192,62388,12,0,64504,0:0:0:0:
276,150,65273,5,12,0:0:0:0:
221,115,68350,1,4,0:0:0:0:
423,236,71427,1,12,0:0:0:0:
396,221,72965,1,0,0:0:0:0:
292,106,73542,1,8,0:0:0:0:
447,304,74504,1,4,0:0:0:0:
196,162,77581,1,8,0:0:0:0:
437,257,80658,1,0,0:0:0:0:
219,171,81811,1,0,0:0:0:0:
219,171,82965,1,8,0:0:0:0:
218,124,83734,1,0,0:0:0:0:
218,124,84504,1,0,0:0:0:0:
178,130,85273,1,0,0:0:0:0:
178,130,85658,1,8,0:0:0:0:
344,212,86042,1,0,0:0:0:0:
292,153,86811,1,12,0:0:0:0:
351,138,87581,1,0,0:0:0:0:
272,171,87965,1,4,0:0:0:0:
295,156,89119,1,8,0:0:0:0:
315,121,89888,1,12,0:0:0:0:
328,191,90658,1,0,0:0:0:0:
202,175,91042,1,12,0:0:0:0:
328,191,92196,1,8,0:0:0:0:
308,137,92965,1,12,0:0:0:0:
355,181,93734,1,0,0:0:0:0:
301,162,94119,1,4,0:0:0:0:
230,134,95273,1,8,0:0:0:0:
294,198,96042,1,4,0:0:0:0:
431,249,96811,1,8,0:0:0:0:
294,198,97196,1,4,0:0:0:0:
294,198,97965,1,8,0:0:0:0:
187,172,98350,1,12,0:0:0:0:
379,184,99119,1,12,0:0:0:0:
379,184,99888,1,0,0:0:0:0:
276,164,100273,1,4,0:0:0:0:
385,166,101427,1,8,0:0:0:0:
257,149,102196,1,12,0:0:0:0:
328,191,102965,1,0,0:0:0:0:
251,153,103350,1,12,0:0:0:0:
328,191,104504,1,8,0:0:0:0:
281,170,105273,1,12,0:0:0:0:
281,170,106042,1,0,0:0:0:0:
317,194,106427,1,4,0:0:0:0:
230,134,107581,1,8,0:0:0:0:
318,147,108350,1,12,0:0:0:0:
431,249,109119,1,0,0:0:0:0:
246,151,109504,1,4,0:0:0:0:
187,172,110273,1,8,0:0:0:0:
418,224,111427,1,4,0:0:0:0:
147,113,112196,1,0,0:0:0:0:
396,158,112965,1,0,0:0:0:0:
224,164,113350,1,0,0:0:0:0:
431,225,113734,1,8,0:0:0:0:
448,238,114504,1,4,0:0:0:0:
392,216,115273,1,0,0:0:0:0:
370,153,116042,1,8,0:0:0:0:
224,164,116427,1,8,0:0:0:0:
423,276,116811,1,0,0:0:0:0:
252,134,117581,1,12,0:0:0:0:
384,203,118350,1,0,0:0:0:0:
160,150,119119,1,0,0:0:0:0:
266,166,119504,1,0,0:0:0:0:
449,268,119888,1,8,0:0:0:0:
184,153,120658,1,4,0:0:0:0:
361,177,121427,1,4,0:0:0:0:
280,117,122196,1,0,0:0:0:0:
251,142,123734,1,4,0:0:0:0:
405,164,124504,1,0,0:0:0:0:
405,164,125273,1,0,0:0:0:0:
224,127,125658,1,0,0:0:0:0:
349,152,126042,1,8,0:0:0:0:
300,146,126811,1,0,0:0:0:0:
396,211,127581,1,0,0:0:0:0:
413,240,128350,1,8,0:0:0:0:
166,140,129119,1,0,0:0:0:0:
308,118,129504,1,8,0:0:0:0:
227,144,129888,1,4,0:0:0:0:
379,177,130658,1,0,0:0:0:0:
379,177,131427,1,0,0:0:0:0:
246,138,131811,1,0,0:0:0:0:
409,205,132196,1,8,0:0:0:0:
200,108,132965,1,4,0:0:0:0:
369,118,133734,1,4,0:0:0:0:
329,156,134696,1,0,0:0:0:0:
329,156,135273,1,8,0:0:0:0:
186,193,136042,1,12,0:0:0:0:
256,192,136234,12,0,137581,0:0:0:0:
