osu file format v14

[General]
AudioFilename: audio.mp3
AudioLeadIn: 0
PreviewTime: 86037
Countdown: 0
SampleSet: Soft
StackLeniency: 0.3
Mode: 0
LetterboxInBreaks: 0
WidescreenStoryboard: 1

[Editor]
Bookmarks: 644,12951,19105,22182,23720,24490,25259,31413,37567,49874,56028,59105,60644,61413,62182,74490,80644,83720,85259,86028,86797,99105,111413,123720,137567
DistanceSpacing: 0.5
BeatDivisor: 8
GridSize: 16
TimelineZoom: 1.9

[Metadata]
Title:Ether Strike
TitleUnicode:Ether Strike
Artist:Akira Complex
ArtistUnicode:Akira Complex
Creator:Mun
Version:Xenon's Insane
Source:Arcaea
Tags:aether mir icekalt xenon- xehn rhonen english electronic hypersynthetic
BeatmapID:1976256
BeatmapSetID:945019

[Difficulty]
HPDrainRate:5.5
CircleSize:4.4
OverallDifficulty:7.7
ApproachRate:8.8
SliderMultiplier:0.999999999999999
SliderTickRate:1

[Events]
//Background and Video events
0,0,"bastien-grivet-img-3141.jpg",0,0
//Break Periods
//Storyboard Layer 0 (Background)
//Storyboard Layer 1 (Fail)
//Storyboard Layer 2 (Pass)
//Storyboard Layer 3 (Foreground)
//Storyboard Sound Samples

[TimingPoints]
658,384.615384615385,4,2,1,100,1,0
658,-76.9230769230769,4,2,1,100,0,0
3446,-58.8235294117647,4,2,1,100,0,0
6042,-76.9230769230769,4,2,1,100,0,0
6811,-58.8235294117647,4,2,1,100,0,0
9408,-55.5555555555556,4,2,1,100,0,0
9600,-50,4,2,1,100,0,0
11234,-142.857142857143,4,2,1,100,0,0
11619,-62.5,4,2,1,100,0,0
12196,-55.5555555555556,4,2,1,100,0,0
12965,-47.6190476190476,4,2,1,60,0,0
13350,-76.9230769230769,4,2,1,60,0,0
19119,-66.6666666666667,4,2,1,70,0,0
20561,-58.8235294117647,4,2,1,75,0,0
22196,-62.5,4,2,1,80,0,0
22581,-57.1428571428571,4,2,1,80,0,0
23350,-52.6315789473684,4,2,1,80,0,0
23734,-41.6666666666667,4,2,1,85,0,0
24119,-34.4827586206897,4,2,1,85,0,0
25273,-76.9230769230769,4,2,1,70,0,1
28158,-52.6315789473684,4,2,1,70,0,1
29118,-76.9230769230769,4,2,1,70,0,1
30754,-55.5555555555556,4,2,1,70,0,1
30946,-55.5555555555556,4,2,1,90,0,1
31138,-48.780487804878,4,2,1,90,0,1
31424,-48.780487804878,4,2,1,80,0,1
31427,-58.8235294117647,4,2,1,80,0,1
32388,-54.054054054054,4,2,1,80,0,1
32773,-50,4,2,1,80,0,1
33542,-58.8235294117647,4,2,1,80,0,1
33927,-54.054054054054,4,2,1,80,0,1
34311,-50,4,2,1,80,0,1
34504,-50,4,2,1,100,0,1
34600,-43.4782608695652,4,2,1,100,0,1
34888,-43.4782608695652,4,2,1,80,0,1
35081,-50,4,2,1,80,0,1
35273,-43.4782608695652,4,2,1,80,0,1
36234,-53.0222693531283,4,2,1,100,0,1
36523,-47.4833808167141,4,2,1,100,0,1
36811,-43.4971726837756,4,2,1,100,0,1
37100,-39.5428842579778,4,2,1,100,0,1
37388,-50,4,2,1,100,0,1
37581,-50,4,2,1,90,0,1
37965,-58.8235294117647,4,2,1,90,0,1
38542,-54.054054054054,4,2,1,90,0,1
38927,-50,4,2,1,90,0,1
39696,-58.8235294117647,4,2,1,90,0,1
39888,-43.4782608695652,4,2,1,100,0,1
40561,-51.2820512820513,4,2,1,100,0,1
40754,-51.2820512820513,4,2,1,90,0,1
41234,-58.8235294117647,4,2,1,90,0,1
41619,-54.054054054054,4,2,1,90,0,1
42004,-50,4,2,1,90,0,1
42773,-58.8235294117647,4,2,1,90,0,1
42965,-43.4782608695652,4,2,1,100,0,1
43542,-52.6315789473684,4,2,1,100,0,1
43734,-46.5116279069767,4,2,1,90,0,1
44311,-58.8235294117647,4,2,1,90,0,1
44696,-54.054054054054,4,2,1,90,0,1
45081,-50,4,2,1,90,0,1
45851,-58.8235294117647,4,2,1,90,0,1
46234,-54.054054054054,4,2,1,90,0,1
46619,-50,4,2,1,90,0,1
46908,-43.4782608695652,4,2,1,100,0,1
47292,-43.4782608695652,4,2,1,90,0,1
47388,-50,4,2,1,90,0,1
47677,-43.4782608695652,4,2,1,90,0,1
48158,-38.4615384615385,4,2,1,90,0,1
48254,-28.5714285714286,4,2,1,90,0,1
48542,-53.0222693531283,4,2,1,100,0,1
48831,-47.4833808167141,4,2,1,100,0,1
49119,-43.4971726837756,4,2,1,100,0,1
49311,-71.4285714285714,4,2,1,100,0,1
49888,-54.054054054054,4,2,1,70,0,0
50658,-59.5238095238095,4,2,1,70,0,0
51042,-68.9655172413793,4,2,1,70,0,0
52004,-54.054054054054,4,2,1,70,0,0
52388,-59.5238095238095,4,2,1,70,0,0
52772,-68.9655172413793,4,2,1,70,0,0
52965,-50,4,2,1,70,0,0
53542,-57.1428571428571,4,2,1,70,0,0
53927,-63.6942675159236,4,2,1,70,0,0
54311,-74.0740740740741,4,2,1,70,0,0
55081,-57.1428571428571,4,2,1,70,0,0
55273,-50,4,2,1,70,0,0
56042,-66.6666666666667,4,2,1,70,0,0
57484,-58.8235294117647,4,2,1,75,0,0
59119,-62.5,4,2,1,80,0,0
59504,-57.1428571428571,4,2,1,80,0,0
60273,-52.6315789473684,4,2,1,80,0,0
60658,-41.6666666666667,4,2,1,85,0,0
61042,-34.4827586206897,4,2,1,85,0,0
61523,-100,4,2,1,85,0,0
62196,-100,4,2,1,100,0,0
64696,-76.9230769230769,4,2,1,70,0,0
64984,-58.8235294117647,4,2,1,70,0,0
65273,-58.8235294117647,4,2,1,60,0,0
65561,-166.666666666667,4,2,1,60,0,0
68350,-58.8235294117647,4,2,1,60,0,0
68638,-166.666666666667,4,2,1,60,0,0
70946,-55.5555555555556,4,2,1,60,0,0
71138,-50,4,2,1,60,0,0
71715,-166.666666666667,4,2,1,60,0,0
72965,-62.5,4,2,1,100,0,0
74119,-55.5555555555556,4,2,1,100,0,0
74504,-71.4285714285714,4,2,1,60,0,0
74984,-83.3333333333333,4,2,1,60,0,0
77581,-166.666666666667,4,2,1,60,0,0
80658,-66.6666666666667,4,2,1,70,0,0
82100,-58.8235294117647,4,2,1,75,0,0
83734,-62.5,4,2,1,80,0,0
84119,-57.1428571428571,4,2,1,80,0,0
84888,-52.6315789473684,4,2,1,80,0,0
85273,-41.6666666666667,4,2,1,90,0,0
85658,-34.4827586206897,4,2,1,90,0,0
86811,-100,4,2,1,100,0,1
87581,-62.5,4,2,1,100,0,1
87965,-100,4,2,1,100,0,1
89119,-62.5,4,2,1,100,0,1
89504,-76.9230769230769,4,2,1,100,0,1
89888,-100,4,2,1,100,0,1
90658,-52.6315789473684,4,2,1,100,0,1
91042,-76.9230769230769,4,2,1,100,0,1
92196,-62.5,4,2,1,100,0,1
92965,-100,4,2,1,100,0,1
93734,-62.5,4,2,1,100,0,1
94119,-100,4,2,1,100,0,1
95273,-62.5,4,2,1,100,0,1
95658,-76.9230769230769,4,2,1,100,0,1
96042,-100,4,2,1,100,0,1
96811,-52.6315789473684,4,2,1,100,0,1
97196,-76.9230769230769,4,2,1,100,0,1
98350,-52.6315789473684,4,2,1,100,0,1
98542,-47.6190476190476,4,2,1,100,0,1
99119,-100,4,2,1,100,0,1
99888,-62.5,4,2,1,100,0,1
100273,-100,4,2,1,100,0,1
101427,-62.5,4,2,1,100,0,1
101811,-76.9230769230769,4,2,1,100,0,1
102196,-100,4,2,1,100,0,1
102965,-52.6315789473684,4,2,1,100,0,1
103350,-76.9230769230769,4,2,1,100,0,1
104504,-62.5,4,2,1,100,0,1
105273,-100,4,2,1,100,0,1
106042,-62.5,4,2,1,100,0,1
106427,-100,4,2,1,100,0,1
107581,-62.5,4,2,1,100,0,1
107965,-76.9230769230769,4,2,1,100,0,1
108350,-100,4,2,1,100,0,1
109119,-52.6315789473684,4,2,1,100,0,1
109504,-76.9230769230769,4,2,1,100,0,1
110273,-133.333333333333,4,2,1,100,0,1
111427,-71.4285714285714,4,2,1,90,0,0
111811,-55.5555555555556,4,2,1,90,0,0
112196,-66.6666666666667,4,2,1,90,0,0
112581,-52.6315789473684,4,2,1,90,0,0
112965,-62.5,4,2,1,90,0,0
113350,-50,4,2,1,90,0,0
113734,-58.8235294117647,4,2,1,90,0,0
114119,-47.6190476190476,4,2,1,90,0,0
114504,-58.8235294117647,4,2,1,90,0,0
116426,-45.4545454545455,4,2,1,90,0,0
116811,-58.8235294117647,4,2,1,90,0,0
117100,-45.4545454545455,4,2,1,90,0,0
117581,-71.4285714285714,4,2,1,90,0,0
117965,-55.5555555555556,4,2,1,90,0,0
118350,-66.6666666666667,4,2,1,90,0,0
118734,-52.6315789473684,4,2,1,90,0,0
119119,-62.5,4,2,1,90,0,0
119504,-50,4,2,1,90,0,0
119888,-58.8235294117647,4,2,1,90,0,0
120273,-47.6190476190476,4,2,1,90,0,0
120658,-114.942528735632,4,2,1,90,0,0
121427,-58.8235294117647,4,2,1,90,0,0
122004,-43.4782608695652,4,2,1,90,0,0
122100,-38.4615384615385,4,2,1,90,0,0
122196,-58.8235294117647,4,2,1,100,0,0
122773,-51.2820512820513,4,2,1,100,0,0
123734,-71.4285714285714,4,2,1,90,0,0
124119,-55.5555555555556,4,2,1,90,0,0
124504,-66.6666666666667,4,2,1,90,0,0
124888,-52.6315789473684,4,2,1,90,0,0
125273,-62.5,4,2,1,90,0,0
125658,-50,4,2,1,90,0,0
126042,-58.8235294117647,4,2,1,90,0,0
126811,-142.857142857143,4,2,1,90,0,0
127196,-45.4545454545455,4,2,1,90,0,0
127581,-58.8235294117647,4,2,1,90,0,0
127965,-45.4545454545455,4,2,1,90,0,0
128350,-58.8235294117647,4,2,1,90,0,0
129408,-45.4545454545455,4,2,1,90,0,0
129888,-71.4285714285714,4,2,1,90,0,0
130273,-55.5555555555556,4,2,1,90,0,0
130658,-66.6666666666667,4,2,1,90,0,0
131042,-52.6315789473684,4,2,1,90,0,0
131427,-62.5,4,2,1,90,0,0
131811,-50,4,2,1,90,0,0
132196,-51.2820512820513,4,2,1,90,0,0
132581,-43.4782608695652,4,2,1,90,0,0
132965,-114.942528735632,4,2,1,100,0,0
133734,-58.8235294117647,4,2,1,100,0,0
134696,-52.6315789473684,4,2,1,100,0,0
135465,-38.4615384615385,4,2,1,100,0,0
135561,-47.6190476190476,4,2,1,100,0,0

[Colours]
Combo1 : 133,154,186
Combo2 : 250,50,85
Combo3 : 120,82,82
Combo4 : 241,116,141

[HitObjects]
402,290,3157,6,0,L|410:227,1,32.4999985122681
462,210,3350,1,0,0:0:0:0:
469,217,3446,2,0,L|458:132,1,85.0000016212463,4|0,3:2|1:0,0:0:0:0:
452,125,3734,2,0,L|446:167,1,42.5000008106231,4|0,3:2|1:0,0:0:0:0:
109,177,6042,6,0,B|140:116|83:85|83:85|80:76|80:76|76:84|76:84|13:100|29:167,1,227.499989585877,0|0,0:0|1:0,0:0:0:0:
21,166,6811,2,0,L|14:110,1,42.5000008106231,4|0,3:2|1:0,0:0:0:0:
360,268,9408,6,0,P|366:246|365:224,1,44.999998626709,4|0,3:2|1:0,0:0:0:0:
281,210,9600,2,0,P|274:234|275:258,1,50,4|0,3:2|1:0,0:0:0:0:
305,333,9792,1,0,3:0:0:0:
312,326,9888,2,0,L|304:389,1,50,4|0,3:2|1:0,0:0:0:0:
226,45,11234,6,0,B|220:70|220:70|226:95,1,52.4999983978271,0|0,0:0|1:0,0:0:0:0:
232,102,11619,6,0,L|152:111,1,79.9999999999999,0|0,3:0|1:0,0:0:0:0:
159,118,11908,2,0,L|79:108,1,79.9999999999999,0|0,3:0|1:0,0:0:0:0:
65,94,12196,6,0,P|78:135|63:177,1,89.999997253418,0|0,3:0|1:0,0:0:0:0:
49,163,12484,2,0,P|34:204|47:246,1,89.999997253418,0|0,3:0|1:0,0:0:0:0:
60,259,12773,6,0,L|52:322,1,44.999998626709,0|0,3:0|1:0,0:0:0:0:
128,320,12965,2,0,L|134:267,1,52.4999983978271,2|0,3:0|1:0,0:0:0:0:
326,366,13350,6,0,P|356:315|410:340,2,129.999994049072,2|2|2,0:3|0:3|0:3,0:0:0:0:
276,180,14504,5,2,3:3:0:0:
247,359,14888,2,0,P|216:308|162:333,1,129.999994049072,2|2,0:3|0:3,0:0:0:0:
276,180,15658,1,2,0:3:0:0:
275,171,15754,1,2,0:3:0:0:
274,163,15850,1,2,0:3:0:0:
273,155,15946,1,2,0:3:0:0:
272,147,16042,5,2,3:3:0:0:
100,42,16427,2,0,P|69:92|15:67,2,129.999994049072,2|2|2,0:3|0:3|0:3,0:0:0:0:
150,228,17581,5,2,3:3:0:0:
179,49,17965,2,0,P|209:99|263:74,2,129.999994049072,2|2|2,0:3|0:3|0:3,0:0:0:0:
100,42,18927,1,0,3:0:0:0:
104,80,19023,1,0,3:0:0:0:
108,117,19119,6,0,P|98:152|71:178,1,75.000002861023,0|0,3:2|1:0,0:0:0:0:
64,186,19408,2,0,P|94:206|111:239,1,75.000002861023,0|0,3:2|1:0,0:0:0:0:
115,248,19696,2,0,P|144:224|180:219,1,75.000002861023,0|0,3:2|1:0,0:0:0:0:
190,218,19984,2,0,P|177:183|183:146,1,75.000002861023,0|0,3:2|1:0,0:0:0:0:
185,138,20273,1,0,3:2:0:0:
309,184,20561,6,0,P|297:143|267:114,1,85.0000016212463,0|0,3:2|1:0,0:0:0:0:
258,106,20850,2,0,P|287:76|298:35,1,85.0000016212463,0|0,3:2|1:0,0:0:0:0:
300,22,21138,2,0,P|340:32|381:21,1,85.0000016212463,0|0,3:0|1:0,0:0:0:0:
393,16,21427,2,0,P|404:56|434:85,1,85.0000016212463,0|0,3:0|1:0,0:0:0:0:
444,95,21715,2,0,P|414:124|403:165,1,85.0000016212463,0|0,3:0|1:0,0:0:0:0:
401,178,22004,1,0,3:0:0:0:
347,272,22196,6,0,L|339:208,3,40,0|2|2|2,3:0|0:0|0:0|0:0,0:0:0:0:
268,243,22581,2,0,L|273:286,3,43.7500004172325,0|2|0|2,3:0|0:0|0:0|0:0,0:0:0:0:
225,347,22965,5,0,3:0:0:0:
205,341,23061,1,2,0:0:0:0:
183,340,23157,1,2,0:0:0:0:
162,345,23253,1,2,0:0:0:0:
143,355,23350,2,0,L|148:307,3,47.4999987316131,0|2|0|2,3:0|0:0|0:0|0:0,0:0:0:0:
106,247,23734,6,0,L|50:256,1,29.9999990844727,2|2,0:0|0:0,0:0:0:0:
102,225,23831,2,0,L|46:226,1,29.9999990844727,2|2,0:0|0:0,0:0:0:0:
106,204,23927,2,0,L|50:198,1,29.9999990844727,2|2,0:0|0:0,0:0:0:0:
117,184,24023,2,0,L|62:170,1,29.9999990844727,2|2,0:0|0:0,0:0:0:0:
134,169,24119,6,0,L|197:175,1,36.2500011062622,2|2,0:0|0:0,0:0:0:0:
144,144,24214,2,0,L|207:141,1,36.2500011062622,2|2,0:0|0:0,0:0:0:0:
147,118,24311,2,0,L|209:106,1,36.2500011062622,2|2,0:0|0:0,0:0:0:0:
140,91,24407,2,0,L|200:71,1,36.2500011062622,2|2,0:0|0:0,0:0:0:0:
389,133,25273,5,4,3:2:0:0:
393,137,25658,5,0,3:0:0:0:
392,149,25754,1,0,0:0:0:0:
390,161,25850,1,0,0:0:0:0:
389,174,25946,1,0,0:0:0:0:
388,186,26042,5,0,3:0:0:0:
390,198,26138,1,0,0:0:0:0:
391,211,26234,1,0,0:0:0:0:
393,223,26331,1,0,0:0:0:0:
394,236,26427,2,0,L|398:275,3,32.4999985122681,0|0|0|0,3:0|0:0|0:0|0:0,0:0:0:0:
341,317,26811,1,0,3:0:0:0:
337,313,27196,5,0,3:0:0:0:
325,312,27292,1,0,0:0:0:0:
313,310,27388,1,0,0:0:0:0:
300,309,27484,1,0,0:0:0:0:
288,307,27580,6,0,L|249:302,3,32.4999985122681,0|0|0|0,3:0|0:0|0:0|0:0,0:0:0:0:
210,242,27965,1,0,3:0:0:0:
190,244,28061,1,0,0:0:0:0:
171,246,28158,6,0,P|175:222|173:199,1,47.4999987316131,0|0,0:0|1:0,0:0:0:0:
120,136,28350,1,0,3:0:0:0:
113,150,28446,2,0,P|111:126|115:103,1,47.4999987316131,0|0,0:0|1:0,0:0:0:0:
220,27,28735,5,0,3:0:0:0:
207,29,28831,1,0,0:0:0:0:
194,31,28927,1,0,0:0:0:0:
181,32,29023,1,0,0:0:0:0:
168,34,29119,5,0,3:0:0:0:
155,33,29215,1,0,0:0:0:0:
142,31,29311,1,0,0:0:0:0:
129,29,29408,1,0,0:0:0:0:
116,28,29504,2,0,L|77:24,3,32.4999985122681,0|0|0|0,3:0|0:0|0:0|0:0,0:0:0:0:
27,70,29888,1,0,3:0:0:0:
23,74,30273,5,0,3:0:0:0:
34,86,30369,1,0,0:0:0:0:
42,102,30465,1,0,0:0:0:0:
49,122,30561,1,0,0:0:0:0:
49,148,30658,5,0,3:0:0:0:
41,175,30754,2,0,L|96:168,1,44.999998626709,0|0,0:0|1:0,0:0:0:0:
123,103,30946,5,0,3:0:0:0:
151,106,31042,1,2,0:3:0:0:
179,110,31138,2,0,L|229:116,1,51.2500007820129,2|0,0:3|0:0,0:0:0:0:
119,235,31427,5,4,3:2:0:0:
290,162,31811,5,8,3:0:0:0:
312,140,31908,1,0,0:0:0:0:
342,133,32004,2,0,L|336:90,1,42.5000008106231,2|0,0:0|0:0,0:0:0:0:
348,140,32196,5,0,3:0:0:0:
383,142,32292,1,0,0:0:0:0:
412,161,32388,2,0,L|406:207,1,46.2499998235702,2|0,0:0|0:0,0:0:0:0:
419,154,32581,5,8,3:0:0:0:
457,163,32677,1,0,0:0:0:0:
494,151,32773,2,0,L|487:101,1,50,2|0,0:0|0:0,0:0:0:0:
501,158,32965,5,0,3:0:0:0:
308,209,33350,5,8,3:0:0:0:
286,231,33447,1,0,0:0:0:0:
256,238,33543,2,0,L|262:281,1,42.5000008106231,2|0,0:0|0:0,0:0:0:0:
250,231,33735,5,0,3:0:0:0:
215,229,33831,1,0,0:0:0:0:
186,210,33927,2,0,L|192:164,1,46.2499998235702,2|0,0:0|0:0,0:0:0:0:
179,217,34119,5,8,3:0:0:0:
141,208,34215,1,0,0:0:0:0:
104,220,34311,2,0,L|111:270,1,50,2|0,0:0|0:0,0:0:0:0:
48,312,34504,5,4,3:2:0:0:
59,327,34600,2,0,P|33:314|5:317,1,57.5000010967254,2|0,0:0|0:0,0:0:0:0:
164,367,34888,5,2,0:3:0:0:
202,376,34984,1,0,0:0:0:0:
239,364,35081,2,0,L|232:314,1,50,2|0,0:0|0:0,0:0:0:0:
295,272,35273,5,4,3:2:0:0:
284,257,35369,2,0,P|310:270|338:267,1,57.5000010967254,2|0,0:0|0:0,0:0:0:0:
392,213,35561,5,0,0:0:0:0:
381,188,35658,1,0,0:0:0:0:
378,157,35754,1,0,0:0:0:0:
391,119,35850,5,0,3:0:0:0:
421,87,35946,1,0,3:0:0:0:
260,163,36234,6,0,L|166:174,1,94.2999984891509,4|0,3:2|1:0,0:0:0:0:
161,189,36523,2,0,L|264:176,1,105.300003221535,0|0,3:0|1:0,0:0:0:0:
270,189,36811,2,0,L|156:202,1,114.949998346857,0|0,3:0|1:0,0:0:0:0:
150,216,37100,2,0,L|276:201,1,126.444998181543,0|0,3:0|1:0,0:0:0:0:
281,214,37388,6,0,P|278:238|287:262,1,50,0|0,3:0|1:0,0:0:0:0:
356,298,37581,2,0,P|364:321|362:346,1,50,0|0,3:0|1:0,0:0:0:0:
104,338,37965,5,8,3:0:0:0:
100,307,38061,1,0,0:0:0:0:
97,277,38158,2,0,L|33:284,1,42.5000008106231,2|0,0:0|0:0,0:0:0:0:
104,270,38350,5,0,3:0:0:0:
108,235,38446,1,0,0:0:0:0:
112,200,38542,2,0,L|175:207,1,46.2499998235702,2|0,0:0|0:0,0:0:0:0:
105,193,38734,5,8,3:0:0:0:
100,155,38830,1,0,0:0:0:0:
95,117,38927,2,0,L|31:124,1,50,2|0,0:0|0:0,0:0:0:0:
102,110,39119,5,0,3:0:0:0:
238,222,39504,5,8,3:0:0:0:
234,191,39600,1,0,0:0:0:0:
230,162,39696,2,0,L|293:153,1,42.5000008106231,2|0,0:0|0:0,0:0:0:0:
340,86,39888,5,4,3:2:0:0:
329,101,39984,2,0,P|355:88|383:91,1,57.5000010967254
390,186,40177,1,4,3:2:0:0:
401,171,40273,2,0,P|374:183|346:180,1,57.5000010967254,0|0,0:0|3:0,0:0:0:0:
319,265,40465,5,4,3:2:0:0:
309,248,40561,2,0,P|340:283|345:330,1,97.5000003719329,0|2,0:0|0:0,0:0:0:0:
341,345,40850,1,0,0:0:0:0:
220,372,41042,5,4,3:2:0:0:
224,341,41137,1,0,0:0:0:0:
227,311,41234,2,0,L|291:318,1,42.5000008106231,2|0,0:0|0:0,0:0:0:0:
220,304,41426,5,0,3:0:0:0:
216,269,41522,1,0,0:0:0:0:
212,234,41619,2,0,L|149:241,1,46.2499998235702,2|0,0:0|0:0,0:0:0:0:
219,227,41810,5,8,3:0:0:0:
224,189,41908,1,0,0:0:0:0:
229,151,42004,2,0,L|293:158,1,50,2|0,0:0|0:0,0:0:0:0:
222,144,42195,5,0,3:0:0:0:
86,256,42581,5,8,3:0:0:0:
90,225,42677,1,2,0:0:0:0:
94,196,42773,2,0,L|31:187,1,42.5000008106231,2|0,0:0|0:0,0:0:0:0:
125,121,42965,5,4,3:2:0:0:
140,132,43061,2,0,P|127:106|130:78,1,57.5000010967254,0|0,3:0|1:0,0:0:0:0:
59,42,43254,2,0,P|75:17|100:6,1,57.5000010967254,4|0,3:2|1:0,0:0:0:0:
181,8,43446,5,0,3:0:0:0:
176,16,43542,2,0,L|223:10,1,47.4999987316131,4|0,3:2|1:0,0:0:0:0:
207,88,43734,2,0,L|263:80,1,53.7500008201599,4|0,3:2|1:0,0:0:0:0:
483,216,44119,5,8,3:0:0:0:
461,194,44216,1,0,0:0:0:0:
431,187,44312,2,0,L|437:144,1,42.5000008106231,2|0,0:0|0:0,0:0:0:0:
425,194,44504,5,0,3:0:0:0:
390,196,44600,1,0,0:0:0:0:
361,215,44696,2,0,L|367:261,1,46.2499998235702,2|0,0:0|0:0,0:0:0:0:
354,208,44889,5,8,3:0:0:0:
316,217,44985,1,0,0:0:0:0:
279,205,45081,2,0,L|286:155,1,50,2|0,0:0|0:0,0:0:0:0:
272,212,45273,5,0,3:0:0:0:
46,98,45658,5,8,3:0:0:0:
68,76,45755,1,0,0:0:0:0:
98,69,45851,2,0,L|92:26,1,42.5000008106231,2|0,0:0|0:0,0:0:0:0:
104,76,46043,5,0,3:0:0:0:
139,78,46139,1,0,0:0:0:0:
168,97,46235,2,0,L|162:143,1,46.2499998235702,2|0,0:0|0:0,0:0:0:0:
175,90,46427,5,8,3:0:0:0:
213,99,46523,1,2,0:0:0:0:
250,87,46619,2,0,L|243:37,1,50,2|0,0:0|0:0,0:0:0:0:
343,90,46812,5,4,3:2:0:0:
361,90,46908,2,0,P|334:101|318:124,1,57.5000010967254,0|0,3:0|0:0,0:0:0:0:
193,231,47196,5,8,2:3:0:0:
231,240,47292,1,0,0:0:0:0:
268,228,47388,2,0,L|261:178,1,50,2|0,0:0|0:0,0:0:0:0:
183,123,47581,5,0,3:0:0:0:
192,139,47677,2,0,P|171:120|143:116,1,57.5000010967254,0|2,0:0|0:0,0:0:0:0:
92,174,47868,5,0,0:0:0:0:
104,195,47965,1,8,0:3:0:0:
109,218,48061,1,0,0:0:0:0:
106,246,48158,6,0,L|138:249,1,32.4999985122681,2|2,0:0|0:0,0:0:0:0:
97,270,48254,2,0,L|140:274,1,43.7500004172325,2|2,0:0|0:0,0:0:0:0:
222,206,48542,6,0,L|316:217,1,94.2999984891509,4|0,3:2|1:0,0:0:0:0:
321,232,48831,2,0,L|218:219,1,105.300003221535,0|0,3:0|1:0,0:0:0:0:
212,232,49119,6,0,P|215:259|205:286,1,57.4749991734285,0|0,3:0|1:0,0:0:0:0:
155,344,49311,2,0,L|116:349,2,23.3333326212565,0|0|0,0:0|0:0|0:0,0:0:0:0:
218,383,49504,5,0,3:0:0:0:
241,356,49600,1,0,3:0:0:0:
278,340,49696,1,0,3:0:0:0:
323,347,49792,5,0,3:0:0:0:
358,384,49888,1,0,3:0:0:0:
500,243,50273,5,0,3:0:0:0:
496,268,50369,1,0,0:0:0:0:
493,293,50465,2,0,L|485:356,1,46.2499998235702,0|0,0:0|0:0,0:0:0:0:
422,242,50658,5,0,3:0:0:0:
419,259,50754,1,0,0:0:0:0:
417,276,50850,2,0,L|411:320,1,41.9999987182617,0|0,0:0|0:0,0:0:0:0:
345,239,51042,5,0,3:0:0:0:
343,251,51138,1,0,0:0:0:0:
342,263,51234,2,0,L|337:298,1,36.2500011062622,0|0,0:0|0:0,0:0:0:0:
357,371,51427,5,0,3:0:0:0:
279,198,51811,5,0,3:0:0:0:
275,173,51907,1,0,0:0:0:0:
272,148,52004,2,0,L|264:84,1,46.2499998235702,0|0,0:0|0:0,0:0:0:0:
201,199,52196,5,0,3:0:0:0:
198,182,52292,1,0,0:0:0:0:
196,165,52388,2,0,L|190:120,1,41.9999987182617,0|0,0:0|0:0,0:0:0:0:
124,202,52580,5,0,3:0:0:0:
122,190,52676,1,2,0:0:0:0:
121,178,52773,2,0,L|116:142,1,36.2500011062622,2|0,0:0|0:0,0:0:0:0:
121,58,52965,5,0,3:0:0:0:
136,69,53061,2,0,P|111:66|87:72,1,50,2|0,0:0|0:0,0:0:0:0:
53,246,53350,5,0,3:0:0:0:
73,249,53446,1,0,0:0:0:0:
93,251,53543,2,0,L|144:257,1,43.7500004172325,0|0,0:0|0:0,0:0:0:0:
167,326,53734,5,0,3:0:0:0:
181,324,53830,1,0,0:0:0:0:
194,322,53927,2,0,L|233:317,1,39.2500001497268,0|0,0:0|0:0,0:0:0:0:
273,254,54119,5,0,3:0:0:0:
282,255,54215,1,0,0:0:0:0:
291,256,54311,2,0,L|324:260,1,33.750000128746,0|0,0:0|0:0,0:0:0:0:
361,323,54504,5,0,3:0:0:0:
510,147,54888,5,0,3:0:0:0:
490,150,54984,1,0,0:0:0:0:
470,152,55081,2,0,L|419:158,1,43.7500004172325,0|0,0:0|0:0,0:0:0:0:
341,153,55273,5,2,3:0:0:0:
352,138,55369,2,0,P|349:163|355:187,1,50,2|0,0:0|0:0,0:0:0:0:
300,241,55561,2,0,P|320:256|343:262,1,50,2|0,0:0|0:0,0:0:0:0:
363,337,55754,2,0,P|386:327|403:309,1,50,2|0,0:0|0:0,0:0:0:0:
223,234,56042,6,0,B|189:248|189:248|152:244,1,75.000002861023,0|0,3:0|1:0,0:0:0:0:
140,244,56331,2,0,B|143:280|143:280|128:314,1,75.000002861023,0|0,3:0|1:0,0:0:0:0:
126,324,56619,2,0,B|162:331|162:331|189:356,1,75.000002861023,0|0,3:0|1:0,0:0:0:0:
199,364,56908,2,0,B|217:331|217:331|249:313,1,75.000002861023,0|0,3:0|1:0,0:0:0:0:
260,309,57196,1,0,3:0:0:0:
275,173,57484,6,0,B|316:181|316:181|348:208,1,85.0000016212463,0|0,3:0|1:0,0:0:0:0:
358,215,57773,2,0,B|385:183|385:183|425:168,1,85.0000016212463,0|0,3:0|1:0,0:0:0:0:
439,167,58061,2,0,B|425:127|425:127|432:85,1,85.0000016212463,0|0,3:0|1:0,0:0:0:0:
437,71,58350,2,0,B|395:62|395:62|363:35,1,85.0000016212463,0|0,3:0|1:0,0:0:0:0:
353,28,58638,2,0,B|325:59|325:59|285:74,1,85.0000016212463,0|0,3:0|1:0,0:0:0:0:
272,75,58927,1,0,3:0:0:0:
241,183,59119,6,0,L|233:119,3,40,0|2|2|2,3:0|0:0|0:0|0:0,0:0:0:0:
162,154,59504,2,0,L|167:197,3,43.7500004172325,0|2|0|2,3:0|0:0|0:0|0:0,0:0:0:0:
221,255,59888,5,0,3:0:0:0:
242,259,59984,1,2,0:0:0:0:
263,256,60080,1,2,0:0:0:0:
283,248,60176,1,2,0:0:0:0:
300,233,60273,2,0,L|348:238,3,47.4999987316131,0|2|0|2,3:0|0:0|0:0|0:0,0:0:0:0:
408,193,60658,6,0,L|464:202,1,29.9999990844727,2|2,0:0|0:0,0:0:0:0:
412,171,60754,2,0,L|468:172,1,29.9999990844727,2|2,0:0|0:0,0:0:0:0:
408,150,60850,2,0,L|464:144,1,29.9999990844727,2|2,0:0|0:0,0:0:0:0:
397,130,60946,2,0,L|452:116,1,29.9999990844727,2|2,0:0|0:0,0:0:0:0:
380,115,61042,6,0,L|317:121,1,36.2500011062622,2|2,0:0|0:0,0:0:0:0:
370,90,61137,2,0,L|307:87,1,36.2500011062622,2|2,0:0|0:0,0:0:0:0:
367,64,61234,2,0,L|305:52,1,36.2500011062622,2|2,0:0|0:0,0:0:0:0:
374,37,61330,2,0,L|314:17,1,36.2500011062622,2|2,0:0|0:0,0:0:0:0:
442,5,61523,6,0,L|492:-1,2,50,0|0|0,0:0|0:0|0:0,0:0:0:0:
263,19,62196,5,0,3:0:0:0:
256,192,62292,12,0,64504,0:0:0:0:
78,265,64696,6,0,L|86:202,1,32.4999985122681,0|0,0:3|0:3,0:0:0:0:
114,339,64888,1,0,0:3:0:0:
121,332,64984,2,0,L|36:343,1,85.0000016212463,0|0,3:0|1:0,0:0:0:0:
29,349,65273,6,0,L|71:354,1,42.5000008106231,4|0,3:2|1:0,0:0:0:0:
253,311,68350,6,0,L|210:305,1,42.5000008106231,6|0,3:2|1:0,0:0:0:0:
141,228,70946,6,0,P|147:206|146:184,1,44.999998626709,0|0,3:0|1:0,0:0:0:0:
96,127,71138,2,0,P|129:162|178:161,1,99.9999999999999,0|0,3:0|1:0,0:0:0:0:
185,154,71427,6,0,L|248:161,1,50,4|0,3:2|1:0,0:0:0:0:
379,183,72965,6,0,L|299:192,1,79.9999999999999,4|0,3:2|1:0,0:0:0:0:
306,199,73254,2,0,L|226:189,1,79.9999999999999,4|0,3:2|1:0,0:0:0:0:
233,196,73542,2,0,L|153:205,1,79.9999999999999,4|0,3:2|1:0,0:0:0:0:
160,211,73831,1,4,3:2:0:0:
170,334,74119,5,0,3:0:0:0:
166,350,74215,2,0,P|156:307|122:279,1,89.999997253418,4|0,3:2|1:0,0:0:0:0:
115,274,74504,2,0,L|184:282,1,69.9999978637695,4|0,3:2|1:0,0:0:0:0:
335,202,74984,6,0,P|279:195|256:246,1,119.999996337891,0|0,0:0|0:0,0:0:0:0:
250,57,75754,2,0,P|272:108|328:102,1,119.999996337891,0|0,0:0|0:0,0:0:0:0:
166,203,76523,2,0,P|199:157|166:112,1,119.999996337891,0|0,0:0|0:0,0:0:0:0:
335,202,77292,2,0,L|326:269,1,59.9999981689453,0|0,0:0|1:0,0:0:0:0:
320,268,77581,6,0,L|322:291,15,14.9999995422363,2|0|0|0|2|0|2|0|2|0|0|0|2|0|2|0,0:0|0:0|0:0|0:0|0:0|0:0|0:0|0:0|0:0|0:0|0:0|0:0|0:0|0:0|0:0|0:0,0:0:0:0:
266,335,79119,6,0,L|263:357,13,14.9999995422363,2|0|0|0|2|0|0|0|2|0|0|0|2|0,0:0|0:0|0:0|0:0|0:0|0:0|0:0|0:0|0:0|0:0|0:0|0:0|0:0|0:0,0:0:0:0:
213,282,80465,1,0,3:0:0:0:
175,278,80561,1,0,3:0:0:0:
138,274,80658,6,0,P|103:284|77:311,1,75.000002861023,0|0,3:0|1:0,0:0:0:0:
69,318,80946,2,0,P|49:288|16:271,1,75.000002861023,0|0,3:0|1:0,0:0:0:0:
7,267,81234,2,0,P|31:238|36:202,1,75.000002861023,0|0,3:0|1:0,0:0:0:0:
37,192,81522,2,0,P|72:205|109:199,1,75.000002861023,0|0,3:0|1:0,0:0:0:0:
117,197,81811,1,0,3:0:0:0:
239,86,82100,6,0,P|227:127|197:156,1,85.0000016212463,0|0,3:0|1:0,0:0:0:0:
188,164,82388,2,0,P|217:194|228:235,1,85.0000016212463,0|0,3:0|1:0,0:0:0:0:
230,248,82676,2,0,P|270:238|311:249,1,85.0000016212463,0|0,3:0|1:0,0:0:0:0:
323,254,82965,2,0,P|334:214|364:185,1,85.0000016212463,0|0,3:0|1:0,0:0:0:0:
374,175,83253,2,0,P|344:146|333:105,1,85.0000016212463,0|0,3:0|1:0,0:0:0:0:
331,92,83542,1,0,3:0:0:0:
267,4,83734,6,0,L|274:68,3,40,0|2|2|2,3:0|0:0|0:0|0:0,0:0:0:0:
198,52,84119,2,0,L|192:9,3,43.7500004172325,0|2|0|2,3:0|0:0|0:0|0:0,0:0:0:0:
153,113,84503,5,0,3:0:0:0:
133,119,84599,1,2,0:0:0:0:
111,120,84695,1,2,0:0:0:0:
90,115,84791,1,2,0:0:0:0:
71,105,84888,2,0,L|76:153,3,47.4999987316131,0|2|2|2,3:0|0:0|0:0|0:0,0:0:0:0:
34,213,85273,6,0,L|-22:204,1,29.9999990844727,2|2,0:0|0:0,0:0:0:0:
30,235,85369,2,0,L|-26:234,1,29.9999990844727,2|2,0:0|0:0,0:0:0:0:
34,256,85465,2,0,L|-22:262,1,29.9999990844727,2|2,0:0|0:0,0:0:0:0:
45,276,85561,2,0,L|-10:290,1,29.9999990844727,2|2,0:0|0:0,0:0:0:0:
62,291,85658,6,0,L|125:285,1,36.2500011062622,2|2,0:0|0:0,0:0:0:0:
72,316,85754,2,0,L|135:319,1,36.2500011062622,2|2,0:0|0:0,0:0:0:0:
75,342,85849,2,0,L|137:354,1,36.2500011062622,2|2,0:0|0:0,0:0:0:0:
68,369,85945,2,0,L|128:389,1,36.2500011062622,2|2,0:0|0:0,0:0:0:0:
512,267,86811,6,0,B|407:252|456:318|348:301,1,175,4|0,3:2|1:0,0:0:0:0:
341,294,87581,2,0,L|245:305,1,79.9999999999999,8|0,0:0|0:0,0:0:0:0:
185,314,87965,6,0,B|217:375|217:375|230:262|230:262|226:257|226:257|232:215|232:215|230:211|230:211|233:207|233:207|238:163,1,275,0|0,3:0|1:0,0:0:0:0:
229,166,89119,2,0,P|265:181|311:173,1,79.9999999999999,8|0,0:0|0:0,0:0:0:0:
336,253,89504,2,0,P|364:237|382:208,1,64.9999970245362,2|0,0:0|0:0,0:0:0:0:
439,285,89888,6,0,B|399:260|399:260|405:217|405:217|403:212|403:212|406:209|406:209|407:193|407:193|406:189|406:189|408:185|408:185|415:133,1,175,0|0,3:0|1:0,0:0:0:0:
423,128,90658,2,0,L|428:175,1,47.4999987316131,8|0,0:0|0:0,0:0:0:0:
413,53,90850,1,0,3:0:0:0:
347,101,91042,6,0,B|365:92|375:71|371:51|371:51|375:51|375:51|371:50|371:50|368:29|351:14|329:12|329:12|309:11|289:23|285:46|285:46|281:65|263:83|241:84|241:84|219:85|199:70|195:48|195:48|191:26|204:5,1,357.499983634949,0|0,3:0|1:0,0:0:0:0:
195,0,92196,2,0,L|204:79,1,79.9999999999999,12|0,0:2|1:0,0:0:0:0:
211,86,92484,2,0,L|202:165,1,79.9999999999999,0|0,3:0|1:0,0:0:0:0:
195,172,92773,1,0,3:0:0:0:
163,250,92965,6,0,B|268:265|219:199|327:216,1,175,0|0,3:0|1:0,0:0:0:0:
334,223,93734,2,0,L|430:212,1,79.9999999999999,8|0,0:0|0:0,0:0:0:0:
479,259,94119,6,0,B|447:320|447:320|434:207|434:207|438:202|438:202|432:160|432:160|434:156|434:156|431:152|431:152|426:107,1,275,0|0,3:0|1:0,0:0:0:0:
434,111,95273,2,0,P|398:126|352:118,1,79.9999999999999,8|0,0:0|0:0,0:0:0:0:
327,198,95658,2,0,P|299:182|281:153,1,64.9999970245362,2|0,0:0|0:0,0:0:0:0:
291,80,96042,6,0,B|266:40|266:40|223:46|223:46|218:44|218:44|216:47|216:47|198:49|198:49|195:47|195:47|192:50|192:50|139:56,1,175,0|0,3:0|1:0,0:0:0:0:
134,64,96811,2,0,L|205:72,1,47.4999987316131,8|0,0:0|0:0,0:0:0:0:
69,112,97004,1,0,3:0:0:0:
143,144,97196,6,0,P|195:228|101:258,1,227.499989585877,0|0,3:0|1:0,0:0:0:0:
94,251,97965,1,0,3:0:0:0:
202,329,98254,5,0,3:0:0:0:
188,341,98350,2,0,L|240:334,1,47.4999987316131,8|0,0:0|1:0,0:0:0:0:
315,273,98542,2,0,P|288:273|264:263,1,52.4999983978271,0|2,0:0|0:0,0:0:0:0:
289,171,98734,1,0,0:0:0:0:
277,184,98831,2,0,P|303:183|327:193,1,52.4999983978271,0|0,3:0|1:0,0:0:0:0:
409,294,99119,6,0,B|388:265|375:225|375:225|372:223|372:223|374:220|374:220|360:179|364:129,1,175,4|0,3:2|1:0,0:0:0:0:
370,122,99888,2,0,L|274:110,1,79.9999999999999,8|0,0:0|0:0,0:0:0:0:
260,185,100273,6,0,B|222:180|222:180|219:177|219:177|214:179|214:179|184:175|184:175|143:132|143:132|93:164|93:164|63:160|63:160|58:162|58:162|55:159|55:159|18:155,1,275,0|0,3:0|1:0,0:0:0:0:
10,148,101427,2,0,P|29:181|28:228,1,79.9999999999999,8|0,0:0|0:0,0:0:0:0:
108,243,101811,2,0,P|94:272|69:291,1,64.9999970245362,2|0,0:0|0:0,0:0:0:0:
0,331,102196,6,0,B|67:322|67:322|97:346|97:346|165:338,1,175,0|0,3:0|1:0,0:0:0:0:
172,331,102965,2,0,L|162:401,1,47.4999987316131,8|0,0:0|0:0,0:0:0:0:
181,255,103157,1,0,3:0:0:0:
248,304,103350,6,0,B|230:295|220:274|224:254|224:254|220:254|220:254|224:253|224:253|227:232|244:217|266:215|266:215|286:214|306:226|310:249|310:249|314:268|332:286|354:287|354:287|376:288|396:273|400:251|400:251|404:229|391:208,1,357.499983634949,0|0,3:0|1:0,0:0:0:0:
399,203,104504,2,0,L|390:124,1,79.9999999999999,8|0,0:0|0:0,0:0:0:0:
383,117,104792,2,0,L|392:38,1,79.9999999999999,4|0,3:2|0:0,0:0:0:0:
399,31,105081,1,4,3:2:0:0:
318,16,105273,6,0,B|288:33|246:42|246:42|244:45|244:45|241:43|241:43|199:52|150:43,1,175,0|0,3:0|1:0,0:0:0:0:
143,36,106042,2,0,L|152:116,1,79.9999999999999,8|0,0:0|0:0,0:0:0:0:
82,145,106427,6,0,B|119:149|119:149|122:152|122:152|127:150|127:150|157:154|157:154|207:122|207:122|248:165|248:165|278:169|278:169|283:167|283:167|286:170|286:170|324:175,1,275,0|0,3:0|1:0,0:0:0:0:
331,168,107581,2,0,P|312:201|313:248,1,79.9999999999999,8|0,0:0|0:0,0:0:0:0:
233,263,107965,2,0,P|247:292|272:311,1,64.9999970245362,2|0,0:0|0:0,0:0:0:0:
346,337,108350,6,0,B|279:328|279:328|249:352|249:352|181:344,1,175,0|0,3:0|1:0,0:0:0:0:
174,337,109119,2,0,L|184:407,1,47.4999987316131,8|0,0:0|1:0,0:0:0:0:
165,261,109311,1,0,3:0:0:0:
226,215,109504,6,0,P|309:162|339:257,1,227.499989585877,0|0,3:0|1:0,0:0:0:0:
346,264,110273,2,0,P|337:188|405:159,1,150.000005722046
470,169,111234,1,0,0:0:0:0:
369,81,111427,6,0,L|257:94,1,104.999996795654,0|0,3:0|0:0,0:0:0:0:
257,100,111811,2,0,L|212:94,1,44.999998626709,8|0,3:0|1:0,0:0:0:0:
175,28,112004,2,0,L|130:33,1,44.999998626709,0|0,3:0|1:0,0:0:0:0:
78,117,112196,6,0,P|122:107|150:164,1,112.500004291534,0|0,3:0|0:0,0:0:0:0:
159,165,112581,2,0,L|152:212,1,47.4999987316131,8|0,3:0|1:0,0:0:0:0:
229,221,112773,2,0,L|234:173,1,47.4999987316131,0|0,3:0|1:0,0:0:0:0:
337,134,112965,6,0,B|308:160|308:160|322:272,1,120,0|0,3:0|0:0,0:0:0:0:
325,248,113350,2,0,L|318:297,1,50,8|0,3:0|1:0,0:0:0:0:
392,191,113542,2,0,L|398:240,1,50,0|0,3:0|1:0,0:0:0:0:
376,345,113734,6,0,P|323:319|287:365,1,127.500002431869,0|0,3:0|0:0,0:0:0:0:
280,372,114119,2,0,L|224:365,1,52.4999983978271,8|0,3:0|1:0,0:0:0:0:
184,303,114311,2,0,L|131:308,1,52.4999983978271,0|0,3:0|1:0,0:0:0:0:
286,253,114504,6,0,L|296:168,1,85.0000016212463,4|0,3:2|0:0,0:0:0:0:
303,161,114792,1,0,0:0:0:0:
310,153,114888,2,0,P|274:175|232:172,1,85.0000016212463,8|0,3:0|3:0,0:0:0:0:
395,172,115273,6,0,L|384:87,1,85.0000016212463,0|0,3:0|0:0,0:0:0:0:
378,80,115561,1,0,0:0:0:0:
371,72,115657,2,0,P|406:94|448:91,1,85.0000016212463,8|0,3:0|3:0,0:0:0:0:
255,100,116042,6,0,L|265:15,1,85.0000016212463,0|0,3:0|0:0,0:0:0:0:
272,8,116330,1,0,0:0:0:0:
279,0,116426,2,0,P|250:18|215:16,1,55.0000016784668,0|0,3:0|1:0,0:0:0:0:
183,80,116619,5,0,0:0:0:0:
177,72,116715,1,0,3:0:0:0:
169,66,116811,2,0,P|133:43|91:47,1,85.0000016212463,4|0,3:2|0:0,0:0:0:0:
85,54,117100,2,0,P|103:25|101:-10,1,55.0000016784668,4|0,3:2|1:0,0:0:0:0:
200,156,117388,1,0,3:0:0:0:
196,194,117484,1,0,3:0:0:0:
192,231,117581,6,0,L|304:218,1,104.999996795654,0|0,3:0|0:0,0:0:0:0:
304,212,117965,2,0,L|349:218,1,44.999998626709,8|0,3:0|1:0,0:0:0:0:
389,290,118158,2,0,L|344:295,1,44.999998626709,0|0,3:0|1:0,0:0:0:0:
468,238,118350,6,0,P|422:212|433:161,1,112.500004291534,0|0,3:0|0:0,0:0:0:0:
424,154,118735,2,0,L|431:107,1,47.4999987316131,8|0,3:0|1:0,0:0:0:0:
354,98,118927,2,0,L|349:146,1,47.4999987316131,0|0,3:0|1:0,0:0:0:0:
355,250,119119,6,0,B|329:221|329:221|248:231,1,120,0|0,3:0|0:0,0:0:0:0:
241,238,119504,2,0,L|192:231,1,50,8|0,3:0|1:0,0:0:0:0:
298,305,119696,2,0,L|249:311,1,50,0|0,3:0|1:0,0:0:0:0:
139,285,119888,6,0,P|165:232|119:196,1,127.500002431869,0|0,3:0|0:0,0:0:0:0:
112,189,120273,2,0,L|119:133,1,52.4999983978271,4|0,3:2|1:0,0:0:0:0:
181,93,120465,2,0,L|176:40,1,52.4999983978271,0|0,3:0|1:0,0:0:0:0:
113,0,120658,6,0,P|187:13|263:18,1,152.250001277733,4|0,3:2|0:0,0:0:0:0:
270,11,121427,2,0,L|262:95,1,85.0000016212463,4|0,3:2|0:0,0:0:0:0:
201,146,121811,5,0,0:0:0:0:
203,168,121907,1,0,3:0:0:0:
206,190,122004,6,0,L|174:193,1,28.7500005483627,0|0,3:0|0:0,0:0:0:0:
209,212,122100,2,0,L|177:215,1,32.4999985122681,0|0,3:0|3:0,0:0:0:0:
211,234,122196,6,0,L|119:245,1,85.0000016212463,4|0,3:2|1:0,0:0:0:0:
119,251,122484,2,0,L|210:262,1,85.0000016212463,4|0,3:2|1:0,0:0:0:0:
210,254,122773,6,0,P|243:287|291:285,1,97.5000003719329,4|0,3:2|1:0,0:0:0:0:
297,279,123061,2,0,P|344:277|377:311,1,97.5000003719329,4|0,3:2|1:0,0:0:0:0:
384,318,123350,1,8,3:0:0:0:
405,225,123542,1,0,3:0:0:0:
305,199,123734,6,0,L|409:186,1,104.999996795654,0|0,3:0|0:0,0:0:0:0:
416,179,124119,2,0,L|352:171,1,44.999998626709,8|0,3:0|1:0,0:0:0:0:
462,96,124311,2,0,L|417:101,1,44.999998626709,0|0,3:0|1:0,0:0:0:0:
330,43,124504,6,0,P|343:86|288:118,1,112.500004291534,0|0,3:0|0:0,0:0:0:0:
286,126,124888,2,0,L|235:119,1,47.4999987316131,8|0,3:0|1:0,0:0:0:0:
200,57,125081,2,0,L|152:62,1,47.4999987316131,0|0,3:0|1:0,0:0:0:0:
145,140,125273,6,0,B|174:166|174:166|160:278,1,120,0|0,3:0|0:0,0:0:0:0:
156,253,125658,2,0,L|205:247,1,50,8|0,3:0|1:0,0:0:0:0:
213,323,125850,2,0,L|163:328,1,50,0|0,0:0|1:0,0:0:0:0:
265,198,126042,6,0,P|283:235|277:277,1,85.0000016212463,4|0,3:2|1:0,0:0:0:0:
284,284,126331,2,0,P|307:249|346:233,1,85.0000016212463,4|0,3:2|1:0,0:0:0:0:
348,224,126619,1,4,3:2:0:0:
425,273,126811,6,0,B|419:248|419:248|425:222,1,52.4999983978271,0|0,3:0|0:0,0:0:0:0:
432,215,127196,2,0,L|438:270,1,55.0000016784668,8|0,3:0|1:0,0:0:0:0:
501,311,127388,2,0,L|494:366,1,55.0000016784668,0|0,3:0|1:0,0:0:0:0:
366,325,127581,6,0,L|281:314,1,85.0000016212463,0|0,3:0|0:0,0:0:0:0:
274,308,127869,1,0,0:0:0:0:
266,301,127965,2,0,L|273:364,1,55.0000016784668,8|0,3:0|1:0,0:0:0:0:
345,246,128158,2,0,L|351:191,1,55.0000016784668,0|0,3:0|1:0,0:0:0:0:
195,208,128350,6,0,P|249:228|272:175,1,127.500002431869,0|0,3:2|1:0,0:0:0:0:
279,169,128734,1,8,3:0:0:0:
209,129,128927,1,0,3:0:0:0:
187,130,129023,1,0,3:0:0:0:
165,124,129119,6,0,P|128:106|86:112,1,85.0000016212463,4|0,3:2|1:0,0:0:0:0:
79,105,129408,2,0,P|124:75|145:24,1,110.000003356934,4|0,3:2|1:0,0:0:0:0:
153,19,129696,1,4,3:2:0:0:
231,80,129888,6,0,L|335:93,1,104.999996795654,0|0,3:0|0:0,0:0:0:0:
342,100,130273,2,0,L|278:108,1,44.999998626709,8|0,3:0|1:0,0:0:0:0:
370,25,130465,2,0,L|325:20,1,44.999998626709,0|0,3:0|1:0,0:0:0:0:
406,144,130658,6,0,P|393:187|448:219,1,112.500004291534,0|0,3:0|0:0,0:0:0:0:
449,213,131042,2,0,L|442:264,1,47.4999987316131,8|0,3:0|1:0,0:0:0:0:
373,325,131235,2,0,L|368:277,1,47.4999987316131,0|0,3:0|1:0,0:0:0:0:
322,212,131427,6,0,B|298:242|298:242|186:228,1,120,0|0,3:0|0:0,0:0:0:0:
210,225,131812,2,0,L|216:274,1,50,8|0,3:0|1:0,0:0:0:0:
140,282,132004,2,0,L|135:232,1,50,0|0,3:0|1:0,0:0:0:0:
280,327,132196,6,0,P|224:311|187:394,1,146.250000557899,0|0,3:0|0:0,0:0:0:0:
188,384,132581,2,0,L|128:376,1,57.5000010967254,8|0,3:0|1:0,0:0:0:0:
76,323,132773,2,0,L|18:330,1,57.5000010967254,0|0,3:0|1:0,0:0:0:0:
140,282,132965,6,0,P|127:208|122:132,1,152.250001277733,4|0,3:2|0:0,0:0:0:0:
128,125,133734,2,0,L|44:133,1,85.0000016212463,4|0,3:2|0:0,0:0:0:0:
135,41,134119,5,2,0:0:0:0:
150,51,134215,1,2,0:0:0:0:
175,60,134312,5,0,3:0:0:0:
204,59,134408,1,0,3:0:0:0:
299,178,134696,6,0,P|278:135|285:89,1,94.9999974632263,0|0,3:0|1:0,0:0:0:0:
279,83,134984,2,0,P|252:121|209:139,1,94.9999974632263,0|0,3:0|1:0,0:0:0:0:
208,149,135273,1,0,3:0:0:0:
142,72,135465,6,0,L|109:75,1,32.4999985122681,0|0,0:0|3:0,0:0:0:0:
151,84,135561,2,0,P|179:41|228:22,1,104.999996795654,0|0,3:0|1:0,0:0:0:0:
234,15,135850,1,0,3:0:0:0:
354,67,136042,5,0,3:0:0:0:
256,192,136138,12,0,137677,1:0:0:0:
