osu file format v14

[General]
AudioFilename: audio.mp3
AudioLeadIn: 0
PreviewTime: 86037
Countdown: 0
SampleSet: Soft
StackLeniency: 0.2
Mode: 0
LetterboxInBreaks: 0
WidescreenStoryboard: 1

[Editor]
Bookmarks: 644,3144,6028,9394,11220,12951,19105,24490,24586,24682,24778,24874,24970,25067,25163,25259,37567,49874,56028,61413,61509,61605,61701,61797,61894,61990,62086,62182,64682,68336,70932,72951,77567,80644,86028,86124,86220,86317,86413,86509,86605,86701,86797,87567,89105,89874,90644,92182,93720,95259,96797,97951,99874,100355,101413,102951,104490,106028,107567,108336,109105,111413,117567,123720,129874,136028,137567
DistanceSpacing: 0.3
BeatDivisor: 6
GridSize: 32
TimelineZoom: 6.400002

[Metadata]
Title:Ether Strike
TitleUnicode:Ether Strike
Artist:Akira Complex
ArtistUnicode:Akira Complex
Creator:Mun
Version:Rhonen's Insane
Source:Arcaea
Tags:aether mir icekalt xenon- xehn rhonen english electronic hypersynthetic
BeatmapID:1979370
BeatmapSetID:945019

[Difficulty]
HPDrainRate:5.5
CircleSize:4
OverallDifficulty:8
ApproachRate:9
SliderMultiplier:1.95
SliderTickRate:1

[Events]
//Background and Video events
0,0,"bastien-grivet-img-3141.jpg",0,0
//Break Periods
//Storyboard Layer 0 (Background)
//Storyboard Layer 1 (Fail)
//Storyboard Layer 2 (Pass)
//Storyboard Layer 3 (Foreground)
//Storyboard Sound Samples

[TimingPoints]
658,384.615384615385,4,2,1,100,1,0
658,-50,4,2,1,100,0,0
3158,-133.333333333333,4,2,1,100,0,0
3446,-66.6666666666667,4,2,1,100,0,0
6042,-55.5555555555556,4,2,1,100,0,0
11234,-50,4,2,1,100,0,0
11619,-66.6666666666667,4,2,1,100,0,0
12965,-66.6666666666667,4,2,1,60,0,0
19119,-133.333333333333,4,2,1,70,0,0
19696,-100,4,2,1,70,0,0
20273,-80,4,2,1,70,0,0
20561,-80,4,2,1,75,0,0
20850,-66.6666666666667,4,2,1,75,0,0
21427,-57.1428571428571,4,2,1,75,0,0
22196,-57.1428571428571,4,2,1,80,0,0
23734,-25,4,2,1,85,0,0
25273,-57.1428571428571,4,2,1,70,0,1
26811,-50,4,2,1,70,0,1
27388,-57.1428571428571,4,2,1,70,0,1
28158,-44.4444444444445,4,2,1,70,0,1
28927,-57.1428571428571,4,2,1,70,0,1
30946,-57.1428571428571,4,2,1,90,0,1
31138,-111.111111111111,4,2,1,90,0,1
31424,-111.111111111111,4,2,1,80,0,1
31427,-50,4,2,1,80,0,1
34311,-40,4,2,1,80,0,1
34504,-40,4,2,1,100,0,1
34888,-40,4,2,1,80,0,1
35081,-50,4,2,1,80,0,1
36042,-50,4,2,1,80,0,0
36234,-50,4,2,1,100,0,0
36811,-40,4,2,1,100,0,0
37388,-50,4,2,1,100,0,0
37581,-50,4,2,1,90,0,1
37965,-57.1428571428571,4,2,1,90,0,1
39888,-57.1428571428571,4,2,1,100,0,1
40754,-50,4,2,1,90,0,1
41234,-57.1428571428571,4,2,1,90,0,1
42196,-50,4,2,1,90,0,1
42773,-57.1428571428571,4,2,1,90,0,1
42965,-57.1428571428571,4,2,1,100,0,1
43734,-57.1428571428571,4,2,1,90,0,1
45273,-50,4,2,1,90,0,1
45850,-57.1428571428571,4,2,1,90,0,1
46619,-40,4,2,1,90,0,1
46908,-40,4,2,1,100,0,1
47292,-40,4,2,1,90,0,1
47388,-57.1428571428571,4,2,1,90,0,1
48350,-50,4,2,1,90,0,0
48542,-50,4,2,1,100,0,0
49119,-33.3333333333333,4,2,1,100,0,0
49311,-25,4,2,1,100,0,0
49501,-57.1428571428571,4,2,1,100,0,0
49888,-50,4,2,1,70,0,0
50465,-57.1428571428571,4,2,1,70,0,0
52004,-57.4712643678161,4,2,1,70,0,0
52773,-50,4,2,1,70,0,0
53542,-66.6666666666667,4,2,1,70,0,0
56908,-57.1428571428571,4,2,1,70,0,0
57484,-57.1428571428571,4,2,1,75,0,0
57773,-50,4,2,1,75,0,0
58638,-44.4444444444445,4,2,1,75,0,0
59119,-44.4444444444445,4,2,1,80,0,0
60658,-50,4,2,1,85,0,0
62196,-50,4,2,1,100,0,0
64696,-133.333333333333,4,2,1,70,0,0
64984,-66.6666666666667,4,2,1,70,0,0
65273,-120.992135511192,4,2,1,60,0,0
68350,-125,4,2,1,60,0,0
70946,-66.6666666666667,4,2,1,60,0,0
71427,-111.111111111111,4,2,1,60,0,0
72965,-66.6666666666667,4,2,1,100,0,0
74504,-133.333333333333,4,2,1,60,0,0
77581,-136.054421768707,4,2,1,60,0,0
80658,-133.333333333333,4,2,1,70,0,0
81234,-100,4,2,1,70,0,0
81811,-80,4,2,1,70,0,0
82100,-80,4,2,1,75,0,0
82388,-66.6666666666667,4,2,1,75,0,0
82965,-57.1428571428571,4,2,1,75,0,0
83542,-50,4,2,1,75,0,0
83734,-50,4,2,1,80,0,0
85273,-25,4,2,1,90,0,0
86811,-66.6666666666667,4,2,1,100,0,1
89119,-117.647058823529,4,2,1,100,0,1
89888,-66.6666666666667,4,2,1,100,0,1
94119,-68.9655172413793,4,2,1,100,0,1
95273,-117.647058823529,4,2,1,100,0,1
96042,-66.6666666666667,4,2,1,100,0,1
97196,-90.9090909090909,4,2,1,100,0,1
98254,-66.6666666666667,4,2,1,100,0,1
101427,-117.647058823529,4,2,1,100,0,1
102196,-66.6666666666667,4,2,1,100,0,1
105273,-62.5,4,2,1,100,0,1
107581,-117.647058823529,4,2,1,100,0,1
108350,-90.9090909090909,4,2,1,100,0,1
109504,-117.647058823529,4,2,1,100,0,1
110273,-238.095238095238,4,2,1,100,0,1
111427,-50,4,2,1,90,0,0
114504,-66.6666666666667,4,2,1,90,0,0
115273,-50,4,2,1,90,0,0
116042,-66.6666666666667,4,2,1,90,0,0
116811,-50,4,2,1,90,0,0
120658,-133.333333333333,4,2,1,90,0,0
121427,-76.9230769230769,4,2,1,90,0,0
122196,-40,4,2,1,100,0,0
122484,-43.4782608695652,4,2,1,100,0,0
122772,-50,4,2,1,100,0,0
123734,-50,4,2,1,90,0,0
126811,-66.6666666666667,4,2,1,90,0,0
127581,-50,4,2,1,90,0,0
128350,-66.6666666666667,4,2,1,90,0,0
129119,-50,4,2,1,90,0,0
132965,-133.333333333333,4,2,1,100,0,0
133734,-76.9230769230769,4,2,1,100,0,0
134696,-40,4,2,1,100,0,0
135465,-76.9230769230769,4,2,1,100,0,0
135850,-20,4,2,1,100,0,0
136042,-222.222222222222,4,2,1,100,0,0

[Colours]
Combo1 : 133,154,186
Combo2 : 250,50,85
Combo3 : 120,82,82
Combo4 : 241,116,141

[HitObjects]
448,234,658,6,0,B|503:299|503:299|451:296|451:296|411:253|411:253|399:219|399:219|356:172,1,292.5,0|0,3:0|0:0,0:0:0:0:
174,138,3158,6,0,L|142:186,2,36.5625013947487,0|0|0,0:0|0:0|0:0,0:0:0:0:
239,75,3446,2,0,P|265:125|226:212,1,146.250005578995,4|0,3:2|1:0,0:0:0:0:
96,233,3734,2,0,P|70:183|109:96,1,146.250005578995,4|0,3:2|1:0,0:0:0:0:
329,201,6042,6,0,B|401:273|401:273|347:327|347:327|329:309|329:309|256:382|256:382|184:309|184:309|165:327|165:327|111:273|111:273|184:201,1,614.249981254578,0|0,0:0|1:0,0:0:0:0:
256,99,6811,1,4,3:2:0:0:
197,333,9408,6,0,P|154:341|114:327,1,87.7499973220826,4|0,3:2|1:0,0:0:0:0:
32,319,9600,2,0,P|46:277|78:250,1,87.7499973220826,4|0,3:2|1:0,0:0:0:0:
163,256,9792,1,0,3:0:0:0:
163,256,9888,2,0,P|155:213|127:181,1,87.7499973220826,4|0,3:2|1:0,0:0:0:0:
449,13,11234,6,0,B|529:13|529:13|455:66|455:66|400:66|400:66|346:102,1,292.5,0|0,0:0|1:0,0:0:0:0:
225,250,11619,6,0,P|295:242|336:184,1,146.250005578995,0|0,3:0|1:0,0:0:0:0:
411,215,11908,2,0,P|378:116|337:102,1,146.250005578995,0|0,3:0|1:0,0:0:0:0:
379,27,12196,2,0,P|309:33|268:91,1,146.250005578995,0|0,3:0|1:0,0:0:0:0:
192,61,12484,2,0,P|224:159|266:174,1,146.250005578995,0|0,3:0|1:0,0:0:0:0:
346,103,12773,2,0,P|392:128|409:154,1,73.1250027894975,0|0,3:0|1:0,0:0:0:0:
381,247,12965,6,0,B|396:323|396:323|462:347,1,146.250005578995,2|0,3:0|0:0,0:0:0:0:
294,265,13350,1,2,0:3:0:0:
208,282,13734,1,2,0:3:0:0:
121,298,14119,1,2,0:3:0:0:
165,163,14504,6,0,B|149:91|149:91|83:62,1,146.250005578995,2|0,3:3|0:0,0:0:0:0:
252,145,14889,1,2,0:3:0:0:
338,128,15273,1,2,0:3:0:0:
425,112,15658,1,2,0:3:0:0:
446,116,15754,1,2,0:3:0:0:
461,131,15850,1,2,0:3:0:0:
466,152,15946,1,2,0:3:0:0:
444,149,16042,6,0,B|416:78|416:78|457:20,1,146.250005578995,2|0,3:3|0:0,0:0:0:0:
370,199,16427,1,2,0:3:0:0:
295,245,16811,1,2,0:3:0:0:
221,292,17196,1,2,0:3:0:0:
237,108,17581,6,0,B|228:34|228:34|166:0,1,146.250005578995,2|0,3:3|0:0,0:0:0:0:
325,118,17966,1,2,0:3:0:0:
413,125,18350,1,2,0:3:0:0:
500,134,18735,1,2,0:3:0:0:
344,118,18927,5,0,3:0:0:0:
298,113,19023,1,0,3:0:0:0:
255,108,19119,2,0,L|160:98,1,73.1250027894975,0|0,3:2|1:0,0:0:0:0:
105,102,19408,2,0,L|200:112,1,73.1250027894975,0|0,3:2|1:0,0:0:0:0:
255,108,19696,6,0,L|141:158,1,97.5,0|0,3:2|1:0,0:0:0:0:
89,193,19985,2,0,L|202:142,1,97.5,0|0,3:2|1:0,0:0:0:0:
255,108,20273,6,0,L|164:232,1,121.875,0|0,3:2|1:0,0:0:0:0:
130,300,20562,2,0,L|220:175,1,121.875,0|0,3:2|1:0,0:0:0:0:
255,108,20850,6,0,L|235:289,1,146.250005578995,0|0,3:2|1:0,0:0:0:0:
235,379,21139,2,0,L|254:197,1,146.250005578995,0|0,3:0|1:0,0:0:0:0:
255,108,21427,6,0,L|338:295,1,170.625001627207,0|0,3:0|1:0,0:0:0:0:
388,384,21716,2,0,L|304:196,1,170.625001627207,0|0,3:0|1:0,0:0:0:0:
255,108,22004,6,0,L|324:159,1,85.3125008136034,0|0,3:0|1:0,0:0:0:0:
293,316,22196,5,0,3:0:0:0:
267,316,22292,1,2,0:0:0:0:
242,316,22388,1,2,0:0:0:0:
216,316,22484,1,2,0:0:0:0:
206,290,22581,5,0,3:0:0:0:
239,290,22677,1,2,0:0:0:0:
273,290,22773,1,2,0:0:0:0:
306,290,22869,1,2,0:0:0:0:
321,255,22965,5,0,3:0:0:0:
277,255,23061,1,2,0:0:0:0:
234,255,23157,1,2,0:0:0:0:
191,255,23253,1,2,0:0:0:0:
172,218,23350,5,0,3:0:0:0:
226,218,23446,1,2,0:0:0:0:
284,218,23542,1,2,0:0:0:0:
340,218,23638,1,2,0:0:0:0:
314,141,23734,6,0,B|313:107|313:107|343:124|343:124|316:140,6,97.5,2|2|2|2|2|2|2,0:0|0:0|0:0|0:0|0:0|0:0|0:0,0:0:0:0:
195,139,24119,2,0,B|165:122|165:122|195:105|195:105|195:136,6,97.5,2|2|2|2|2|2|2,0:0|0:0|0:0|0:0|0:0|0:0|0:0,0:0:0:0:
296,297,25273,6,0,B|250:251|250:251|216:240|216:240|171:195|171:195|160:161|160:161|114:115,1,255.93750244081,4|0,3:2|1:0,0:0:0:0:
22,102,25658,5,0,3:0:0:0:
21,118,25754,1,0,0:0:0:0:
22,134,25850,2,0,P|40:180|90:217,1,85.3125008136034
186,46,26042,1,0,3:0:0:0:
173,37,26138,1,0,0:0:0:0:
158,29,26234,2,0,P|110:22|52:47,1,85.3125008136034,0|0,0:0|0:0,0:0:0:0:
150,215,26427,1,0,3:0:0:0:
165,208,26523,1,0,0:0:0:0:
180,199,26619,2,0,P|210:161|217:98,1,85.3125008136034,0|0,0:0|0:0,0:0:0:0:
120,121,26811,6,0,B|174:135|174:135|220:127|220:127|271:144|271:144|302:178|302:178|388:208,1,292.5,0|0,3:0|1:0,0:0:0:0:
489,189,27196,5,0,3:0:0:0:
489,205,27292,1,0,0:0:0:0:
489,221,27388,2,0,P|471:266|420:303,1,85.3125008136034,0|0,0:0|0:0,0:0:0:0:
324,133,27581,1,0,3:0:0:0:
338,124,27677,1,0,0:0:0:0:
353,116,27773,2,0,P|401:108|458:134,1,85.3125008136034,0|0,0:0|0:0,0:0:0:0:
360,302,27965,1,0,3:0:0:0:
345,295,28061,1,0,0:0:0:0:
330,285,28158,2,0,P|273:258|202:294,1,109.687504184246,0|0,0:0|0:0,0:0:0:0:
306,253,28350,5,0,3:0:0:0:
276,248,28446,2,0,B|233:247|199:274|199:274|214:224|214:224|238:199|238:199|254:133,1,219.375008368492,0|0,0:0|1:0,0:0:0:0:
266,50,28734,5,0,3:0:0:0:
249,50,28831,1,0,0:0:0:0:
233,50,28927,2,0,P|187:67|150:118,1,85.3125008136034,0|0,0:0|0:0,0:0:0:0:
321,214,29119,1,0,3:0:0:0:
330,200,29215,1,0,0:0:0:0:
338,185,29311,2,0,P|345:136|319:79,1,85.3125008136034,0|0,0:0|0:0,0:0:0:0:
152,178,29504,1,0,3:0:0:0:
159,193,29600,1,0,0:0:0:0:
168,207,29696,2,0,P|206:237|268:244,1,85.3125008136034,0|0,0:0|0:0,0:0:0:0:
249,150,29888,6,0,B|203:195|203:195|192:229|192:229|147:274|147:274|113:285|113:285|67:331,1,255.93750244081,0|0,3:0|1:0,0:0:0:0:
170,347,30273,5,0,3:0:0:0:
170,330,30370,1,0,0:0:0:0:
170,314,30466,2,0,P|152:268|101:231,1,85.3125008136034,0|0,0:0|0:0,0:0:0:0:
69,219,30658,5,0,3:0:0:0:
104,221,30754,2,0,P|141:241|167:275,1,85.3125008136034,0|0,0:0|0:0,0:0:0:0:
185,300,30946,5,0,3:0:0:0:
171,260,31042,1,2,0:3:0:0:
141,229,31138,2,0,P|101:211|57:207,1,87.7499973220826,2|0,0:3|0:0,0:0:0:0:
73,325,31427,6,0,B|126:326|126:326|156:349|156:349|215:348|215:348|305:262|305:262|329:262,1,292.5,4|0,3:2|1:0,0:0:0:0:
424,258,31811,5,8,3:0:0:0:
418,297,31908,1,0,0:0:0:0:
397,329,32004,2,0,P|363:354|292:359,1,97.5,2|0,0:0|0:0,0:0:0:0:
270,177,32196,1,0,3:0:0:0:
306,163,32293,1,0,0:0:0:0:
345,164,32389,2,0,P|382:181|422:240,1,97.5,2|0,0:0|0:0,0:0:0:0:
277,352,32581,1,8,3:0:0:0:
246,327,32678,1,0,0:0:0:0:
228,293,32774,2,0,P|224:251|255:187,1,97.5,2|0,0:0|0:0,0:0:0:0:
323,262,32965,6,0,B|226:257|226:257|176:196|176:196|101:191|101:191|131:240,1,292.5,0|0,3:0|0:0,0:0:0:0:
22,250,33350,5,8,3:0:0:0:
37,286,33447,1,0,0:0:0:0:
66,311,33543,2,0,P|105:327|175:313,1,97.5,2|0,0:0|0:0,0:0:0:0:
149,132,33735,1,0,3:0:0:0:
111,128,33832,1,0,0:0:0:0:
73,139,33927,2,0,P|42:165|19:232,1,97.5,2|0,0:0|0:0,0:0:0:0:
188,303,34119,1,8,3:0:0:0:
211,270,34215,1,0,0:0:0:0:
220,233,34311,2,0,P|230:192|300:142,1,121.875,2|0,0:0|0:0,0:0:0:0:
213,204,34504,5,4,3:2:0:0:
227,176,34600,2,0,B|264:128|331:122|331:122|370:86|370:86|291:98,1,243.75,2|0,0:0|1:0,0:0:0:0:
208,58,34888,5,2,0:3:0:0:
229,24,34985,1,0,0:0:0:0:
261,4,35081,2,0,P|302:-5|369:19,1,97.5,2|0,0:0|0:0,0:0:0:0:
315,194,35273,1,4,3:2:0:0:
277,192,35370,1,2,0:0:0:0:
241,176,35466,2,0,P|214:145|201:75,1,97.5,0|0,0:0|0:0,0:0:0:0:
380,31,35658,1,0,0:0:0:0:
398,67,35755,1,0,0:0:0:0:
386,152,35850,1,0,3:0:0:0:
315,194,35946,1,0,3:0:0:0:
376,261,36234,6,0,B|365:271|351:278|351:278|387:285|416:300|416:300|400:271|394:235|394:235|386:248|376:261,1,195,4|0,3:2|1:0,0:0:0:0:
248,128,36523,2,0,B|258:117|272:110|272:110|236:103|207:88|207:88|223:117|229:153|229:153|237:140|248:128,1,195,0|0,3:0|1:0,0:0:0:0:
398,113,36811,2,0,B|410:126|419:143|419:143|427:99|446:62|446:62|410:82|365:90|365:90|382:100|398:113,1,243.75,0|0,3:0|1:0,0:0:0:0:
231,275,37100,2,0,B|218:261|209:244|209:244|200:288|182:325|182:325|218:305|263:297|263:297|246:287|231:275,1,243.75,0|0,3:0|1:0,0:0:0:0:
330,202,37388,2,0,B|328:203|331:201|331:201|333:197|333:197|334:193|334:193|334:190|334:190|334:186|334:186|333:182|333:182|330:178|330:178|327:176|327:176|323:175|323:175|319:174|319:174|315:175|315:175|311:176|311:176|308:179|308:179|306:182|306:182|304:186|304:186|304:190|304:190|304:193|304:193|305:197|305:197|307:201|307:201|310:203|310:203|313:205|313:205|316:206|316:206|320:206|320:206|324:205|324:205|328:203,1,97.5,0|0,3:0|1:0,0:0:0:0:
321,192,37581,6,0,B|256:134|256:134|211:121|211:121|166:79|166:79|119:68|119:68|160:103,1,292.5,0|0,3:0|1:0,0:0:0:0:
41,66,37965,5,8,3:0:0:0:
56,75,38061,1,0,0:0:0:0:
70,82,38158,2,0,P|120:97|176:91,1,85.3125008136034,2|0,0:0|0:0,0:0:0:0:
235,15,38350,1,0,3:0:0:0:
219,23,38446,1,0,0:0:0:0:
206,32,38543,2,0,P|167:67|144:119,1,85.3125008136034,2|0,0:0|0:0,0:0:0:0:
181,209,38734,1,8,3:0:0:0:
182,191,38830,1,0,0:0:0:0:
180,175,38927,2,0,P|168:123|134:78,1,85.3125008136034,2|0,0:0|0:0,0:0:0:0:
151,96,39119,6,0,B|206:98|206:98|239:84|239:84|302:87|302:87|333:105|333:105|398:108,1,255.93750244081,0|0,3:0|1:0,0:0:0:0:
492,40,39504,5,8,3:0:0:0:
481,53,39600,1,0,0:0:0:0:
470,65,39697,2,0,P|428:96|374:111,1,85.3125008136034,2|0,0:0|0:0,0:0:0:0:
383,0,39889,1,4,3:2:0:0:
395,24,39984,2,0,P|403:75|388:130,1,85.3125008136034,0|0,0:0|0:0,0:0:0:0:
300,72,40176,1,4,3:2:0:0:
324,67,40273,2,0,P|373:86|412:127,1,85.3125008136034,0|0,0:0|3:0,0:0:0:0:
398,190,40465,2,0,P|390:149|397:107,1,85.3125008136034,4|0,3:2|0:0,0:0:0:0:
396,107,40754,6,0,B|382:150|399:190|399:190|380:233|380:233|356:247|356:247|332:285,1,195,2|0,0:0|1:0,0:0:0:0:
256,359,41042,5,4,3:2:0:0:
264,343,41138,1,0,0:0:0:0:
273,330,41235,2,0,P|308:292|360:269,1,85.3125008136034,2|0,0:0|0:0,0:0:0:0:
449,306,41427,1,0,3:0:0:0:
431,307,41523,1,0,0:0:0:0:
416,306,41620,2,0,P|364:295|318:261,1,85.3125008136034,2|0,0:0|0:0,0:0:0:0:
306,165,41811,1,8,3:0:0:0:
315,180,41907,1,0,0:0:0:0:
322,195,42004,2,0,P|337:246|330:302,1,85.3125008136034,2|0,0:0|0:0,0:0:0:0:
336,277,42196,6,0,B|319:268|319:268|200:304|200:304|147:278|147:278|131:244|131:244|84:219,1,292.5,0|0,3:0|1:0,0:0:0:0:
49,110,42581,5,8,3:0:0:0:
49,127,42677,1,2,0:0:0:0:
50,142,42774,2,0,P|65:191|101:234,1,85.3125008136034,2|0,0:0|0:0,0:0:0:0:
133,304,42965,1,4,3:2:0:0:
168,230,43061,2,0,P|127:218|84:219,1,85.3125008136034,0|0,3:0|0:0,0:0:0:0:
1,204,43254,1,4,3:2:0:0:
34,285,43350,2,0,P|65:255|84:217,1,85.3125008136034,0|0,0:0|3:0,0:0:0:0:
134,151,43542,2,0,P|103:180|84:218,1,85.3125008136034,4|0,3:2|0:0,0:0:0:0:
84,217,43734,6,0,B|133:192|133:192|169:192|169:192|225:163|225:163|246:134|246:134|304:105,1,255.93750244081,4|0,3:2|1:0,0:0:0:0:
389,8,44119,5,8,3:0:0:0:
398,40,44215,1,0,0:0:0:0:
392,74,44312,2,0,P|370:120|328:158,1,85.3125008136034,2|0,0:0|0:0,0:0:0:0:
180,79,44504,1,0,3:0:0:0:
204,55,44600,1,0,0:0:0:0:
236,44,44697,2,0,P|287:39|341:56,1,85.3125008136034,2|0,0:0|0:0,0:0:0:0:
351,229,44888,1,8,3:0:0:0:
318,221,44984,1,0,0:0:0:0:
292,199,45081,2,0,P|262:156|250:101,1,85.3125008136034,2|0,0:0|0:0,0:0:0:0:
305,105,45273,6,0,B|325:65|325:65|368:155|368:155|361:178|361:178|415:299,1,292.5,0|0,3:0|1:0,0:0:0:0:
493,384,45658,5,8,3:0:0:0:
502,352,45754,1,0,0:0:0:0:
496,318,45851,2,0,P|474:271|432:233,1,85.3125008136034,2|0,0:0|0:0,0:0:0:0:
284,313,46042,1,0,3:0:0:0:
308,337,46138,1,0,0:0:0:0:
340,348,46234,2,0,P|391:352|445:335,1,85.3125008136034,2|0,0:0|0:0,0:0:0:0:
455,163,46427,1,8,3:0:0:0:
422,171,46523,1,2,0:0:0:0:
396,193,46620,2,0,P|351:219|281:208,1,121.875,2|0,0:0|0:0,0:0:0:0:
352,230,46811,5,4,3:2:0:0:
327,231,46908,2,0,B|262:229|228:159|228:159|206:206|206:206|177:222|177:222|159:247,1,243.75,0|0,3:0|1:0,0:0:0:0:
77,342,47196,5,8,2:3:0:0:
68,310,47292,1,0,0:0:0:0:
74,276,47389,2,0,P|96:230|138:192,1,85.3125008136034,2|0,0:0|0:0,0:0:0:0:
286,271,47581,1,0,3:0:0:0:
262,295,47677,1,0,0:0:0:0:
230,306,47774,2,0,P|179:311|125:294,1,85.3125008136034,2|0,0:0|0:0,0:0:0:0:
115,121,47965,1,8,0:3:0:0:
148,129,48061,1,0,0:0:0:0:
174,151,48158,2,0,P|204:194|208:217,3,42.6562504068017,2|2|2|2,0:0|0:0|0:0|0:0,0:0:0:0:
103,222,48542,6,0,B|92:212|85:198|85:198|78:234|63:263|63:263|92:247|128:241|128:241|115:233|103:222,1,195,4|0,3:2|1:0,0:0:0:0:
244,223,48831,2,0,B|234:234|220:241|220:241|256:248|285:263|285:263|269:234|263:198|263:198|255:211|247:220,1,195,0|0,3:0|1:0,0:0:0:0:
239,83,49119,2,0,B|232:76|222:70|222:70|249:65|271:53|271:53|259:75|254:102|254:102|249:91|241:84,1,146.250005578995,0|0,3:0|1:0,0:0:0:0:
100,86,49311,2,0,B|94:93|88:102|88:102|84:77|73:56|73:56|93:67|119:71|119:71|109:77|102:84,2,130,0|0|0,3:0|3:0|3:0,3:0:0:0:
174,151,49504,1,0,3:0:0:0:
198,175,49600,1,0,3:0:0:0:
222,198,49696,1,0,3:0:0:0:
245,222,49792,1,0,3:0:0:0:
271,243,49888,6,0,B|320:222|320:222|356:231|356:231|410:206|410:206|438:111|438:111|380:134,1,292.5,0|0,3:0|1:0,0:0:0:0:
301,108,50273,5,0,3:0:0:0:
300,124,50369,1,0,0:0:0:0:
301,140,50465,2,0,P|319:186|369:223,1,85.3125008136034,0|0,0:0|0:0,0:0:0:0:
465,52,50657,1,0,3:0:0:0:
452,43,50753,1,0,0:0:0:0:
437,35,50849,2,0,P|389:28|331:53,1,85.3125008136034,0|0,0:0|0:0,0:0:0:0:
429,221,51042,1,0,3:0:0:0:
444,214,51138,1,0,0:0:0:0:
459,205,51234,2,0,P|489:167|496:104,1,85.3125008136034,0|0,0:0|0:0,0:0:0:0:
397,126,51427,6,0,B|342:160|342:160|324:191|324:191|271:226|271:226|235:229|235:229|181:265,1,255.93750244081,0|0,3:0|1:0,0:0:0:0:
100,277,51812,5,0,3:0:0:0:
99,262,51908,1,0,0:0:0:0:
100,248,52004,2,0,P|116:206|161:173,1,85.3125008136034,0|0,0:0|0:0,0:0:0:0:
247,327,52196,1,0,3:0:0:0:
235,335,52292,1,0,0:0:0:0:
222,342,52388,2,0,P|178:348|126:325,1,85.3125008136034,0|0,0:0|0:0,0:0:0:0:
215,175,52581,1,0,3:0:0:0:
228,181,52677,1,2,0:0:0:0:
242,189,52773,2,0,P|280:209|340:206,1,97.5,2|0,0:0|0:0,0:0:0:0:
290,197,52965,5,0,3:0:0:0:
309,197,53061,2,0,B|369:198|401:166|401:166|396:211|396:211|385:230|385:230|380:274,1,195,2|0,0:0|1:0,0:0:0:0:
319,305,53350,5,0,3:0:0:0:
327,313,53446,1,0,0:0:0:0:
338,321,53542,2,0,P|375:335|424:325,1,73.1250027894975,0|0,0:0|0:0,0:0:0:0:
373,177,53734,1,0,3:0:0:0:
361,181,53830,1,0,0:0:0:0:
348,185,53926,2,0,P|318:210|302:258,1,73.1250027894975,0|0,0:0|0:0,0:0:0:0:
454,289,54119,1,0,3:0:0:0:
458,276,54215,1,0,0:0:0:0:
461,263,54311,2,0,P|454:224|421:187,1,73.1250027894975,0|0,0:0|0:0,0:0:0:0:
382,257,54504,6,0,B|336:228|336:228|322:202|322:202|260:163|260:163|231:165|231:165|259:184,1,219.375008368492,0|0,3:0|1:0,0:0:0:0:
263,258,54889,5,0,3:0:0:0:
251,258,54985,1,0,0:0:0:0:
241,256,55081,2,0,P|209:240|187:202,1,73.1250027894975,0|0,0:0|0:0,0:0:0:0:
326,156,55273,1,2,3:0:0:0:
332,166,55369,2,0,P|333:202|316:234,1,73.1250027894975,0|2,0:0|0:0,0:0:0:0:
204,133,55561,2,0,P|233:112|269:108,1,73.1250027894975,2|0,0:0|0:0,0:0:0:0:
309,262,55753,1,2,0:0:0:0:
165,188,55946,1,0,0:0:0:0:
165,188,56042,6,0,P|179:233|276:277,1,146.250005578995,0|0,3:0|1:0,0:0:0:0:
302,100,56331,2,0,P|258:89|172:147,1,146.250005578995,0|0,3:0|1:0,0:0:0:0:
309,262,56619,2,0,P|340:228|326:117,1,146.250005578995,0|0,3:0|1:0,0:0:0:0:
213,274,56908,6,0,P|262:286|356:218,1,170.625001627207,0|0,3:0|1:0,0:0:0:0:
203,95,57197,2,0,P|169:132|178:246,1,170.625001627207,0|0,3:0|1:0,0:0:0:0:
360,179,57485,2,0,P|346:130|233:84,1,170.625001627207,0|0,3:0|1:0,0:0:0:0:
322,279,57773,6,0,P|362:237|349:106,1,195,0|0,3:0|1:0,0:0:0:0:
141,186,58062,2,0,P|157:242|274:298,1,195,0|0,3:0|1:0,0:0:0:0:
312,79,58350,2,0,P|256:66|146:152,1,195,0|0,3:0|1:0,0:0:0:0:
389,174,58638,6,0,P|370:111|234:48,1,219.375008368492,0|0,3:0|1:0,0:0:0:0:
197,298,58927,2,0,P|259:313|365:247,1,109.687504184246,0|0,3:0|1:0,0:0:0:0:
285,121,59119,5,0,3:0:0:0:
264,113,59215,1,2,0:0:0:0:
242,113,59311,1,2,0:0:0:0:
221,121,59408,1,2,0:0:0:0:
210,99,59504,5,0,3:0:0:0:
237,89,59601,1,2,0:0:0:0:
266,89,59697,1,0,0:0:0:0:
293,99,59793,1,2,0:0:0:0:
305,71,59888,5,0,3:0:0:0:
269,57,59984,1,2,0:0:0:0:
232,57,60080,1,2,0:0:0:0:
196,71,60177,1,2,0:0:0:0:
178,35,60273,5,0,3:0:0:0:
225,17,60370,1,2,0:0:0:0:
273,17,60466,1,0,0:0:0:0:
319,35,60562,1,2,0:0:0:0:
306,112,60658,6,0,B|304:112|306:112|306:112|308:113|308:113|310:114|310:114|310:116|310:116|311:118|311:118|312:120|312:120|312:122|312:122|311:124|311:124|309:125|309:125|308:127|308:127|306:127|306:127|304:128|304:128|302:127|302:127|300:127|300:127|298:125|298:125|297:124|297:124|296:122|296:122|296:120|296:120|295:118|295:118|296:116|296:116|297:115|297:115|298:113|298:113|300:112|300:112|302:112|302:112|304:112,6,48.75,2|2|2|2|2|2|2,0:0|0:0|0:0|0:0|0:0|0:0|0:0,0:0:0:0:
200,111,61042,2,0,B|201:111|199:111|199:111|197:112|197:112|195:113|195:113|195:115|195:115|194:117|194:117|193:119|193:119|193:121|193:121|194:123|194:123|196:124|196:124|197:126|197:126|199:126|199:126|201:127|201:127|203:126|203:126|205:126|205:126|207:124|207:124|208:123|208:123|209:121|209:121|209:119|209:119|210:117|210:117|209:115|209:115|208:114|208:114|207:112|207:112|205:111|205:111|203:111|203:111|201:111,6,48.75,2|2|2|2|2|2|2,0:0|0:0|0:0|0:0|0:0|0:0|0:0,0:0:0:0:
256,192,62196,5,0,3:0:0:0:
256,192,62292,12,0,64504,0:0:0:0:
124,116,64696,6,0,L|103:85,2,36.5625013947487,0|0|0,0:3|0:3|0:3,0:0:0:0:
181,179,64984,2,0,P|207:114|177:50,1,146.250005578995,0|0,3:0|0:0,0:0:0:0:
37,22,65273,2,0,B|-9:71|13:132|42:152|42:152|-22:197|11:300|69:354|69:354|166:288|116:239|104:191|104:191|72:230|5:258|69:354|69:354|142:340|213:248|178:185|178:185|212:147|221:92|177:50|177:50|131:63|119:122,1,1209,4|0,3:2|1:0,0:0:0:0:
298,287,68350,6,0,B|361:359|505:341|519:208|484:155|484:155|455:103|358:91|288:240|460:315|516:213|484:155|484:155|435:66|292:54|236:196|284:262,1,1014,6|2,3:2|0:0,0:0:0:0:
263,176,70946,6,0,P|278:142|308:110,1,73.1250027894975,0|0,3:0|0:0,0:0:0:0:
325,90,71138,2,0,P|293:108|252:224,1,146.250005578995,0|0,3:0|1:0,0:0:0:0:
254,273,71427,2,0,B|199:156|302:58|385:67|385:67|303:93|304:223|449:278|530:147|452:77,1,658.12497991562,4|0,3:2|1:0,0:0:0:0:
325,66,72965,6,0,P|274:98|226:194,1,146.250005578995,4|0,3:2|1:0,0:0:0:0:
130,242,73254,2,0,P|191:204|229:142,1,146.250005578995,4|0,3:2|1:0,0:0:0:0:
200,209,73542,2,0,P|140:250|69:260,1,146.250005578995,4|0,3:2|1:0,0:0:0:0:
4,252,73831,2,0,P|73:272|144:259,1,146.250005578995,4|0,3:2|1:0,0:0:0:0:
83,245,74119,1,0,3:0:0:0:
112,244,74215,2,0,P|178:215|220:153,1,146.250005578995,4|0,3:2|1:0,0:0:0:0:
216,91,74504,6,0,B|224:141|198:194|160:215|160:215|82:165|59:-43|286:-143|490:17|432:221|296:265|240:251|240:251|296:265|353:314|350:377|350:377|341:314|291:295,1,1133.43754323721,4|0,3:2|1:0,0:0:0:0:
261,242,77581,6,0,B|421:213|405:0|273:-59|113:10|132:144|132:144|110:86|65:80|49:13|49:13|-7:100|36:270|160:267|202:183,1,1039.10620164072,2|0,0:0|1:0,0:0:0:0:
244,127,80465,5,0,3:0:0:0:
250,118,80561,1,0,3:0:0:0:
254,109,80658,2,0,P|241:144|220:173,1,73.1250027894975,0|0,3:0|1:0,0:0:0:0:
163,209,80946,2,0,P|193:188|217:161,1,73.1250027894975,0|0,3:0|1:0,0:0:0:0:
254,109,81234,6,0,P|271:155|298:193,1,97.5,0|0,3:0|1:0,0:0:0:0:
375,239,81522,2,0,P|332:213|297:178,1,97.5,0|0,3:0|1:0,0:0:0:0:
254,109,81811,6,0,P|232:166|197:214,1,121.875,0|0,3:0|1:0,0:0:0:0:
112,271,82099,2,0,P|164:236|205:189,1,121.875,0|0,3:0|1:0,0:0:0:0:
254,109,82388,6,0,P|279:177|321:236,1,146.250005578995,0|0,3:0|1:0,0:0:0:0:
423,304,82676,2,0,P|361:265|311:212,1,146.250005578995,0|0,3:0|1:0,0:0:0:0:
254,109,82965,6,0,P|224:189|174:258,1,170.625001627207,0|0,3:0|1:0,0:0:0:0:
61,332,83253,2,0,P|133:286|191:224,1,170.625001627207,0|0,3:0|1:0,0:0:0:0:
254,109,83542,6,0,P|277:178|297:207,1,97.5,0|0,3:0|1:0,0:0:0:0:
247,264,83734,5,0,3:0:0:0:
234,286,83830,1,2,0:0:0:0:
221,308,83926,1,2,0:0:0:0:
208,330,84022,1,2,0:0:0:0:
244,332,84119,5,0,3:0:0:0:
276,332,84215,1,2,0:0:0:0:
306,332,84311,1,2,0:0:0:0:
337,332,84407,1,2,0:0:0:0:
325,305,84504,5,0,3:0:0:0:
305,271,84600,1,2,0:0:0:0:
287,240,84696,1,2,0:0:0:0:
268,207,84792,1,2,0:0:0:0:
244,246,84888,5,0,3:0:0:0:
220,286,84984,1,2,0:0:0:0:
198,324,85080,1,2,0:0:0:0:
175,363,85176,1,2,0:0:0:0:
250,379,85273,6,0,B|266:349|266:349|283:378|283:378|252:379,6,97.5,2|2|2|2|2|2|2,0:0|0:0|0:0|0:0|0:0|0:0|0:0,0:0:0:0:
121,307,85658,2,0,B|138:277|138:277|104:277|104:277|119:304,6,97.5,2|2|0|2|0|2|0,0:0|0:0|0:0|0:0|0:0|0:0|0:0,0:0:0:0:
49,37,86811,6,0,B|141:15|174:151|44:186|12:102|12:102|36:176|7:254|7:254|30:199|72:180,1,511.875019526482,4|0,3:2|1:0,0:0:0:0:
107,276,87581,1,8,0:0:0:0:
26,384,87773,1,0,0:0:0:0:
220,342,87965,6,0,B|224:280|278:251|278:251|182:262|153:111|311:84|329:185|329:185|387:94|506:147|506:147|420:204|450:266|346:262,1,804.375030684472,0|0,3:0|1:0,0:0:0:0:
268,191,89119,2,0,B|214:132|279:107|249:23|249:23|270:59|309:78,1,248.625004742146,8|0,0:0|0:0,0:0:0:0:
508,249,89888,6,0,B|589:298|516:418|399:351|436:269|436:269|405:265|345:311|401:312|382:361|322:375|322:375|315:320|347:287,1,511.875019526482,0|0,3:0|1:0,0:0:0:0:
450,185,90658,1,8,0:0:0:0:
334,218,90850,1,0,3:0:0:0:
501,105,91042,6,0,B|566:53|512:-58|382:-35|383:71|419:102|419:102|377:83|451:44|248:0|290:53|194:41|194:41|199:108|273:136|320:122|320:122|273:136|251:196,1,804.375030684472,0|0,3:0|1:0,0:0:0:0:
83,143,92196,2,0,P|30:93|2:26,1,146.250005578995,12|0,0:2|1:0,0:0:0:0:
52,98,92484,2,0,P|108:143|178:163,1,146.250005578995,0|0,3:0|1:0,0:0:0:0:
235,198,92773,2,0,P|201:182|167:173,1,73.1250027894975,0|0,3:0|1:0,0:0:0:0:
50,340,92965,6,0,B|28:320|-19:334|-19:334|68:301|49:239|96:230|96:230|47:276|45:354|165:437|240:299|178:256|108:295,1,511.875019526482,0|0,3:0|1:0,0:0:0:0:
167,212,93734,1,8,0:0:0:0:
343,278,93927,1,0,0:0:0:0:
278,65,94119,6,0,B|198:62|213:183|323:172|365:64|365:64|407:129|357:217|337:200|306:226|306:226|227:283|312:415|400:363|481:290|386:192|330:224,1,777.562523729325,0|0,3:0|1:0,0:0:0:0:
343,278,95273,2,0,B|367:305|443:322|453:255|512:285|512:285|502:332|446:334,1,248.625004742146,8|0,0:0|0:0,0:0:0:0:
288,152,96042,6,0,B|345:72|404:145|473:134|494:48|494:48|447:-25|378:-15|345:72|266:14,1,511.875019526482,0|0,3:0|1:0,0:0:0:0:
83,0,96811,1,8,0:0:0:0:
157,113,97004,1,0,3:0:0:0:
6,164,97196,6,0,B|-18:224|115:340|37:117|206:306|137:417|4:429|-51:306|45:244|57:306,1,375.375011455536,0|0,3:0|1:0,0:0:0:0:
183,377,97965,2,0,P|273:383|323:355,1,107.25000327301,0|0,3:0|0:0,0:0:0:0:
218,373,98254,1,0,3:0:0:0:
245,374,98350,2,0,B|283:369|337:350|366:313|366:313|357:247|292:240|292:240|311:250|321:267,1,292.50001115799,8|0,0:0|0:0,0:0:0:0:
356,337,98831,2,0,P|399:271|369:177,1,146.250005578995,0|0,3:0|0:0,0:0:0:0:
508,76,99119,6,0,B|530:-16|394:-49|359:81|443:113|443:113|394:89|344:101|310:135|310:135|351:89|349:35,1,511.875019526482,4|0,3:2|1:0,0:0:0:0:
242,51,99888,1,8,0:0:0:0:
390,207,100081,1,0,0:0:0:0:
227,203,100273,6,0,B|170:152|57:211|103:373|254:332|248:249|248:249|266:313|148:391|134:279|18:380|18:380|31:254|98:226,1,804.375030684472,0|0,3:0|1:0,0:0:0:0:
188,249,101427,2,0,B|191:310|267:338|320:307|320:307|336:366|404:386|442:359,1,290.062505532503,8|0,0:0|1:0,0:0:0:0:
402,245,102196,6,0,B|410:146|460:197|501:104|437:80|452:8|452:8|408:67|347:36|306:128|382:133|310:204,1,511.875019526482,0|0,3:0|1:0,0:0:0:0:
320,307,102965,1,8,0:0:0:0:
494,244,103158,1,0,3:0:0:0:
247,84,103350,6,0,B|233:44|177:28|177:28|131:17|46:57|129:232|272:112|220:40|177:28|177:28|93:8|8:44|8:44|90:94|8:166|171:215|204:176,1,804.375030684472,0|0,3:0|1:0,0:0:0:0:
350,133,104504,2,0,P|354:51|309:-9,1,146.250005578995,8|0,0:0|1:0,0:0:0:0:
364,135,104792,2,0,P|372:207|420:261,1,146.250005578995,4|0,3:2|1:0,0:0:0:0:
429,345,105081,2,0,P|428:308|413:275,1,73.1250027894975,4|0,3:2|1:0,0:0:0:0:
294,347,105273,6,0,B|273:406|389:399|407:253|209:245|219:383|219:383|172:332|224:305|159:235|159:235|194:269|235:262,1,546,0|0,3:0|1:0,0:0:0:0:
233,157,106042,1,8,0:0:0:0:
118,357,106234,1,0,0:0:0:0:
67,215,106427,6,0,B|107:234|150:211|150:211|107:234|74:306|118:357|118:357|177:281|185:348|298:173|218:198|234:155|234:155|231:202|305:278|413:202|373:86|290:95,1,780,0|0,3:0|1:0,0:0:0:0:
297,155,107581,2,0,B|356:209|381:144|465:174|465:174|429:153|410:114,1,248.625004742146,8|0,0:0|0:0,0:0:0:0:
150,85,108350,6,0,B|174:132|76:168|31:43|101:-47|251:-36|276:217|151:16|177:193|221:221,1,375.375011455536,0|0,3:0|1:0,0:0:0:0:
291,154,109119,1,8,0:0:0:0:
113,202,109311,1,0,3:0:0:0:
283,282,109504,6,0,P|332:288|505:136,1,290.062505532503,0|0,3:0|1:0,0:0:0:0:
485,173,110273,2,0,B|421:248|421:248|318:276,1,204.749993751526,0|0,0:0|1:0,0:0:0:0:
297,122,111427,6,0,B|250:92|250:92|169:109|169:109|139:157,1,195,0|0,3:0|0:0,0:0:0:0:
235,185,111715,1,0,0:0:0:0:
235,185,111811,2,0,L|320:245,1,97.5,8|0,3:0|1:0,0:0:0:0:
375,295,112004,2,0,L|295:238,1,97.5,0|0,3:0|1:0,0:0:0:0:
128,225,112196,6,0,B|118:171|118:171|163:101|163:101|220:91,1,195,0|0,3:0|0:0,0:0:0:0:
221,189,112484,1,0,0:0:0:0:
221,189,112580,2,0,L|238:292,1,97.5,8|0,3:0|1:0,0:0:0:0:
261,362,112773,2,0,L|244:265,1,97.5,0|0,3:0|1:0,0:0:0:0:
371,106,112965,6,0,B|406:102|406:102|452:183|452:183|369:196,1,195,0|0,3:0|0:0,0:0:0:0:
299,165,113254,1,0,0:0:0:0:
299,165,113350,2,0,L|271:63,1,97.5,8|0,3:0|1:0,0:0:0:0:
345,11,113542,2,0,L|370:105,1,97.5,0|0,3:0|1:0,0:0:0:0:
394,282,113734,6,0,B|429:276|429:276|452:185|452:185|368:195,1,195,0|0,3:0|0:0,0:0:0:0:
306,245,114023,1,0,0:0:0:0:
306,245,114119,2,0,L|310:350,1,97.5,8|0,3:0|1:0,0:0:0:0:
398,379,114311,2,0,L|393:281,1,97.5,0|0,3:0|1:0,0:0:0:0:
185,227,114504,6,0,L|39:181,1,146.250005578995,4|0,3:2|0:0,0:0:0:0:
20,89,114792,1,0,0:0:0:0:
20,89,114888,2,0,L|106:116,1,73.1250027894975,8|0,3:0|1:0,0:0:0:0:
238,156,115081,2,0,L|168:134,1,73.1250027894975,0|0,3:0|1:0,0:0:0:0:
257,249,115273,6,0,L|467:185,1,195,0|0,3:0|0:0,0:0:0:0:
512,256,115561,1,0,0:0:0:0:
512,256,115658,2,0,L|405:291,1,97.5,8|0,3:0|1:0,0:0:0:0:
382,384,115850,2,0,L|474:353,1,97.5,0|0,3:0|1:0,0:0:0:0:
297,384,116042,6,0,L|82:318,1,219.375008368492,0|0,3:0|1:0,0:0:0:0:
18,341,116427,2,0,L|175:292,1,146.250005578995,0|0,3:0|1:0,0:0:0:0:
314,259,116715,5,0,3:0:0:0:
314,259,116811,2,0,L|110:196,1,195,4|0,3:2|1:0,0:0:0:0:
19,235,117100,2,0,L|205:177,1,195,4|0,3:2|1:0,0:0:0:0:
309,125,117388,5,0,3:0:0:0:
281,116,117484,1,0,3:0:0:0:
252,107,117581,2,0,B|212:94|212:94|186:94|186:94|112:67|112:67|156:47,1,195,0|0,3:0|0:0,0:0:0:0:
234,15,117869,1,0,0:0:0:0:
234,15,117965,2,0,L|339:52,1,97.5,8|0,3:0|1:0,0:0:0:0:
402,48,118158,2,0,L|310:15,1,97.5,0|0,3:0|1:0,0:0:0:0:
155,47,118350,6,0,B|195:60|195:60|221:60|221:60|295:87|295:87|251:107,1,195,0|0,3:0|0:0,0:0:0:0:
173,139,118638,1,0,0:0:0:0:
173,139,118734,2,0,L|68:102,1,97.5,8|0,3:0|1:0,0:0:0:0:
0,103,118927,2,0,L|91:135,1,97.5,0|0,3:0|1:0,0:0:0:0:
291,290,119119,6,0,B|219:304|219:304|254:253|254:253|242:190,1,195,0|0,3:0|0:0,0:0:0:0:
167,234,119408,1,0,0:0:0:0:
167,234,119504,2,0,L|107:316,1,97.5,8|0,3:0|1:0,0:0:0:0:
48,357,119696,2,0,L|105:278,1,97.5,0|0,3:0|1:0,0:0:0:0:
195,99,119888,6,0,B|266:84|266:84|231:135|231:135|243:198,1,195,0|0,3:0|0:0,0:0:0:0:
319,155,120177,1,0,0:0:0:0:
319,155,120273,2,0,L|378:72,1,97.5,4|0,3:2|1:0,0:0:0:0:
437,32,120465,2,0,L|379:110,1,97.5,0|0,3:0|1:0,0:0:0:0:
362,274,120658,6,0,P|395:349|365:272,1,255.937509763241,4|0,3:2|1:0,0:0:0:0:
232,257,121427,6,0,B|190:258|190:258|170:297|170:297|192:332|192:332|236:331|236:331|256:292|256:292|234:257,1,253.499988395691,4|0,3:2|0:0,0:0:0:0:
258,164,121908,1,0,3:0:0:0:
258,164,122004,2,0,L|306:145,2,31.6874985494614,0|0|0,3:0|0:0|3:0,0:0:0:0:
153,154,122196,6,0,B|129:110|129:110|80:120|80:120|74:170|74:170|119:190|119:190|151:156,1,243.75,4|0,3:2|1:0,0:0:0:0:
303,75,122484,6,0,B|358:63|358:63|347:6|347:6|291:18|291:18|303:75,1,224.250004277229,4|0,3:2|1:0,0:0:0:0:
321,240,122773,6,0,B|341:305|341:305|386:256|386:256|323:240,1,195,4|0,3:2|1:0,0:0:0:0:
187,257,123061,6,0,L|-10:315,1,195,4|0,3:2|1:0,0:0:0:0:
104,157,123349,1,8,3:0:0:0:
187,257,123542,2,0,L|247:333,1,97.5,0|0,3:0|1:0,0:0:0:0:
285,367,123734,6,0,B|238:304|238:304|249:222|249:222|221:186,1,195,0|0,3:0|0:0,0:0:0:0:
320,278,124023,1,0,0:0:0:0:
320,278,124119,2,0,L|380:354,1,97.5,8|0,3:0|1:0,0:0:0:0:
327,193,124311,2,0,L|266:116,1,97.5,0|0,3:0|1:0,0:0:0:0:
89,115,124504,6,0,B|138:175|138:175|220:184|220:184|249:220,1,195,0|0,3:0|0:0,0:0:0:0:
183,102,124792,1,0,0:0:0:0:
183,102,124888,2,0,L|123:25,1,97.5,8|0,3:0|1:0,0:0:0:0:
266,116,125081,2,0,L|325:192,1,97.5,0|0,3:0|1:0,0:0:0:0:
463,12,125273,6,0,B|335:8|335:8|390:78,1,195,0|0,3:0|0:0,0:0:0:0:
432,126,125561,1,0,0:0:0:0:
432,126,125658,2,0,L|500:217,1,97.5,8|0,3:0|1:0,0:0:0:0:
443,286,125850,2,0,L|384:209,1,97.5,0|0,0:0|1:0,0:0:0:0:
306,123,126042,6,0,B|434:127|434:127|391:72,1,195,4|0,3:2|1:0,0:0:0:0:
512,213,126331,2,0,B|384:209|384:209|425:261,1,195,4|0,3:2|1:0,0:0:0:0:
512,372,126619,1,4,3:2:0:0:
292,323,126811,6,0,L|399:191,1,146.250005578995,0|0,3:0|0:0,0:0:0:0:
346,123,127100,1,0,0:0:0:0:
346,123,127196,2,0,L|300:179,1,73.1250027894975,8|0,3:0|1:0,0:0:0:0:
206,301,127388,2,0,L|251:244,1,73.1250027894975,0|0,3:0|1:0,0:0:0:0:
407,198,127581,6,0,L|270:29,1,195,0|0,3:0|0:0,0:0:0:0:
161,20,127869,1,0,0:0:0:0:
161,20,127965,2,0,L|222:101,1,97.5,8|0,3:0|1:0,0:0:0:0:
100,95,128158,2,0,L|41:17,1,97.5,0|0,3:0|1:0,0:0:0:0:
219,97,128350,6,0,L|76:276,1,219.375008368492,0|0,3:2|1:0,0:0:0:0:
36,211,128734,2,0,L|128:324,1,146.250005578995,8|0,3:0|3:0,0:0:0:0:
242,245,129023,5,0,3:0:0:0:
242,245,129119,2,0,L|366:90,1,195,4|0,3:2|1:0,0:0:0:0:
303,16,129408,2,0,L|424:168,1,195,4|0,3:2|1:0,0:0:0:0:
473,215,129696,2,0,L|411:139,1,97.5,4|0,3:2|1:0,0:0:0:0:
243,97,129888,6,0,B|166:100|166:100|127:125|127:125|49:128,1,195,0|0,3:0|0:0,0:0:0:0:
100,50,130177,1,0,0:0:0:0:
100,50,130273,2,0,L|209:47,1,97.5,8|0,3:0|1:0,0:0:0:0:
190,174,130465,2,0,L|92:176,1,97.5,0|0,3:0|1:0,0:0:0:0:
243,97,130658,6,0,B|320:94|320:94|359:69|359:69|437:66,1,195,0|0,3:0|0:0,0:0:0:0:
386,144,130947,1,0,0:0:0:0:
386,144,131043,2,0,L|277:147,1,97.5,8|0,3:0|1:0,0:0:0:0:
296,20,131235,2,0,L|393:17,1,97.5,0|0,3:0|1:0,0:0:0:0:
500,220,131427,6,0,B|511:274|511:274|489:315|489:315|392:332,1,195,0|0,3:0|0:0,0:0:0:0:
331,264,131715,1,0,0:0:0:0:
331,264,131811,2,0,L|428:248,1,97.5,8|0,3:0|1:0,0:0:0:0:
317,343,132004,2,0,L|220:359,1,97.5,0|0,3:0|1:0,0:0:0:0:
367,146,132196,6,0,B|460:133|460:133|493:165|493:165|500:220,1,195,0|0,3:0|0:0,0:0:0:0:
422,214,132484,1,0,0:0:0:0:
422,214,132580,2,0,L|325:229,1,97.5,8|0,3:0|1:0,0:0:0:0:
189,172,132773,2,0,L|287:158,1,97.5,0|0,3:0|1:0,0:0:0:0:
255,274,132965,6,0,L|1:312,1,255.937509763241,4|0,3:2|0:0,0:0:0:0:
67,190,133734,2,0,B|100:110|100:110|153:178|153:178|72:190,1,253.499988395691,4|2,3:2|0:0,0:0:0:0:
75,273,134215,1,2,0:0:0:0:
123,266,134311,1,0,3:0:0:0:
171,259,134407,1,0,3:0:0:0:
123,266,134696,6,0,B|86:315|86:315|137:353|137:353|173:302|173:302|126:267,1,243.75,0|0,3:0|1:0,0:0:0:0:
258,286,134984,6,0,B|289:323|289:323|335:303|335:303|330:253|330:253|282:243|282:243|258:283,1,243.75,0|0,3:0|1:0,0:0:0:0:
194,195,135273,1,0,3:0:0:0:
409,199,135465,2,0,L|443:170,2,31.6874985494614,0|0|0,0:0|3:0|3:0,0:0:0:0:
409,199,135850,6,0,B|448:213|448:213|484:184|484:184|476:140|476:140|434:123|434:123|399:152|399:152|406:197,1,243.75,0|0,3:0|1:0,0:0:0:0:
194,195,136042,6,0,P|113:144|202:192,1,372.937488618851,0|0,3:0|1:0,0:0:0:0:
