osu file format v14

[General]
AudioFilename: audio.mp3
AudioLeadIn: 0
PreviewTime: 86037
Countdown: 0
SampleSet: Soft
StackLeniency: 0.4
Mode: 0
LetterboxInBreaks: 0
WidescreenStoryboard: 1

[Editor]
Bookmarks: 644,12951,19105,22182,23720,24490,25259,31413,37567,49874,56028,59105,60644,61413,62182,74490,80644,83720,85259,86028,86797,99105,111413,111990,123720,137567
DistanceSpacing: 0.3
BeatDivisor: 8
GridSize: 32
TimelineZoom: 2.699999

[Metadata]
Title:Ether Strike
TitleUnicode:Ether Strike
Artist:Akira Complex
ArtistUnicode:Akira Complex
Creator:Mun
Version:Mir's Aethereal Expert
Source:Arcaea
Tags:aether mir icekalt xenon- xehn rhonen english electronic hypersynthetic
BeatmapID:1973467
BeatmapSetID:945019

[Difficulty]
HPDrainRate:6
CircleSize:4
OverallDifficulty:8
ApproachRate:9
SliderMultiplier:1.95
SliderTickRate:1

[Events]
//Background and Video events
0,0,"bastien-grivet-img-3141.jpg",0,0
//Break Periods
//Storyboard Layer 0 (Background)
//Storyboard Layer 1 (Fail)
//Storyboard Layer 2 (Pass)
//Storyboard Layer 3 (Foreground)
//Storyboard Sound Samples

[TimingPoints]
658,384.615384615385,4,2,1,100,1,0
6811,-66.6666666666667,4,2,1,100,0,0
6908,-66.6666666666667,4,2,1,100,0,0
7004,-66.6666666666667,4,2,1,100,0,0
9408,-100,4,2,1,100,0,0
11234,-66.6666666666667,4,2,1,100,0,0
12965,-66.6666666666667,4,2,1,60,0,0
17581,-100,4,2,1,60,0,0
19119,-1000,4,2,1,70,0,0
19408,-500,4,2,1,70,0,0
19696,-333.333333333333,4,2,1,70,0,0
19984,-250,4,2,1,70,0,0
20273,-200,4,2,1,70,0,0
20561,-166.666666666667,4,2,1,75,0,0
20850,-142.857142857143,4,2,1,75,0,0
21138,-125,4,2,1,75,0,0
21427,-111.111111111111,4,2,1,75,0,0
21715,-100,4,2,1,75,0,0
22004,-66.6666666666667,4,2,1,75,0,0
22196,-66.6666666666667,4,2,1,80,0,0
23734,-66.6666666666667,4,2,1,85,0,0
25273,-100,4,2,1,70,0,0
30754,-83.3333333333333,4,2,1,70,0,0
30946,-83.3333333333333,4,2,1,90,0,0
31424,-83.3333333333333,4,2,1,80,0,0
31427,-66.6666666666667,4,2,1,80,0,1
34504,-66.6666666666667,4,2,1,100,0,1
34888,-66.6666666666667,4,2,1,80,0,1
36234,-50,4,2,1,100,0,0
37581,-66.6666666666667,4,2,1,90,0,1
39888,-66.6666666666667,4,2,1,100,0,1
40754,-66.6666666666667,4,2,1,90,0,1
42965,-66.6666666666667,4,2,1,100,0,1
43734,-66.6666666666667,4,2,1,90,0,1
46908,-66.6666666666667,4,2,1,100,0,1
47292,-66.6666666666667,4,2,1,90,0,1
48542,-50,4,2,1,100,0,1
49888,-66.6666666666667,4,2,1,70,0,0
53350,-100,4,2,1,70,0,0
56042,-1000,4,2,1,70,0,0
56331,-500,4,2,1,70,0,0
56619,-333.333333333333,4,2,1,70,0,0
56908,-250,4,2,1,70,0,0
57196,-200,4,2,1,70,0,0
57484,-166.666666666667,4,2,1,75,0,0
57773,-142.857142857143,4,2,1,75,0,0
58061,-125,4,2,1,75,0,0
58350,-111.111111111111,4,2,1,75,0,0
58638,-100,4,2,1,75,0,0
58927,-66.6666666666667,4,2,1,75,0,0
59119,-66.6666666666667,4,2,1,80,0,0
60658,-66.6666666666667,4,2,1,85,0,0
62196,-66.6666666666667,4,2,1,100,0,0
64696,-66.6666666666667,4,2,1,70,0,0
65273,-133.333333333333,4,2,1,60,0,0
72965,-100,4,2,1,100,0,0
74504,-133.333333333333,4,2,1,60,0,0
80658,-1000,4,2,1,70,0,0
80946,-500,4,2,1,70,0,0
81234,-333.333333333333,4,2,1,70,0,0
81523,-250,4,2,1,70,0,0
81811,-200,4,2,1,70,0,0
82100,-166.666666666667,4,2,1,75,0,0
82388,-142.857142857143,4,2,1,75,0,0
82677,-125,4,2,1,75,0,0
82965,-111.111111111111,4,2,1,75,0,0
83254,-100,4,2,1,75,0,0
83542,-66.6666666666667,4,2,1,75,0,0
83734,-66.6666666666667,4,2,1,80,0,0
85273,-66.6666666666667,4,2,1,90,0,0
86811,-133.333333333333,4,2,1,100,0,1
87965,-200,4,2,1,100,0,1
89504,-100,4,2,1,100,0,1
89888,-133.333333333333,4,2,1,100,0,1
90658,-66.6666666666667,4,2,1,100,0,1
91042,-200,4,2,1,100,0,1
92196,-100,4,2,1,100,0,1
92965,-133.333333333333,4,2,1,100,0,1
94119,-200,4,2,1,100,0,1
96811,-66.6666666666667,4,2,1,100,0,1
97196,-200,4,2,1,100,0,1
97965,-133.333333333333,4,2,1,100,0,1
98831,-100,4,2,1,100,0,1
99023,-100,4,2,1,100,0,0
99119,-133.333333333333,4,2,1,100,0,1
100273,-200,4,2,1,100,0,1
102196,-133.333333333333,4,2,1,100,0,1
102965,-66.6666666666667,4,2,1,100,0,1
103350,-200,4,2,1,100,0,1
104504,-100,4,2,1,100,0,1
105273,-133.333333333333,4,2,1,100,0,1
106427,-200,4,2,1,100,0,1
108350,-133.333333333333,4,2,1,100,0,1
109504,-200,4,2,1,100,0,1
111234,-200,4,2,1,100,0,0
111427,-66.6666666666667,4,2,1,90,0,0
116811,-50,4,2,1,90,0,0
117581,-66.6666666666667,4,2,1,90,0,0
120658,-133.333333333333,4,2,1,90,0,0
122196,-66.6666666666667,4,2,1,100,0,0
123734,-66.6666666666667,4,2,1,90,0,0
126042,-50,4,2,1,90,0,0
126908,-133.333333333333,4,2,1,90,0,0
127196,-66.6666666666667,4,2,1,90,0,0
129119,-50,4,2,1,90,0,0
129888,-66.6666666666667,4,2,1,90,0,0
131427,-57.1428571428571,4,2,1,90,0,0
132965,-200,4,2,1,100,0,0
134696,-50,4,2,1,100,0,0
136042,-500,4,2,1,100,0,0

[Colours]
Combo1 : 133,154,186
Combo2 : 250,50,85
Combo3 : 120,82,82
Combo4 : 241,116,141

[HitObjects]
101,193,6042,6,0,B|299:247|196:84|431:148,1,341.25,0|0,0:0|1:0,0:0:0:0:
419,145,6811,6,0,P|357:169|337:161,1,73.1250027894975,4|0,3:2|1:0,0:0:0:0:
89,108,9408,6,0,P|110:146|119:171,1,48.75,4|0,3:2|1:0,0:0:0:0:
189,103,9600,2,0,P|199:145|201:171,1,48.75,4|0,3:2|1:0,0:0:0:0:
171,305,9792,1,0,3:0:0:0:
159,226,9888,5,4,3:2:0:0:
141,114,11234,6,0,B|106:106|94:117|104:136|116:151|134:158|160:155|181:143|193:83|285:120,1,219.375008368492,0|0,0:0|1:0,0:0:0:0:
339,172,11619,6,0,L|345:225,1,36.5625013947487,0|0,3:0|1:0,0:0:0:0:
321,52,11908,2,0,L|327:-1,1,36.5625013947487,0|0,3:0|1:0,0:0:0:0:
427,169,12195,2,0,L|433:222,1,36.5625013947487,0|0,3:0|1:0,0:0:0:0:
409,49,12484,2,0,L|415:-4,1,36.5625013947487,0|0,3:0|1:0,0:0:0:0:
508,169,12773,2,0,L|512:205,1,36.5625013947487,0|0,3:0|1:0,0:0:0:0:
495,47,12965,5,2,3:0:0:0:
234,308,13350,5,2,0:3:0:0:
234,308,13734,1,2,0:3:0:0:
234,308,14119,1,2,0:3:0:0:
278,76,14504,5,2,3:3:0:0:
278,76,14888,1,2,0:3:0:0:
278,76,15273,1,2,0:3:0:0:
278,76,15658,5,2,0:3:0:0:
256,81,15754,1,2,0:3:0:0:
234,86,15850,1,2,0:3:0:0:
212,91,15946,1,2,0:3:0:0:
190,96,16042,5,2,3:3:0:0:
190,96,16427,1,2,0:3:0:0:
190,96,16811,1,2,0:3:0:0:
190,96,17196,1,2,0:3:0:0:
190,96,17581,6,0,L|199:211,1,97.5,2|0,3:3|0:0,0:0:0:0:
208,282,17965,5,2,0:3:0:0:
208,282,18350,1,2,0:3:0:0:
208,282,18734,1,2,0:3:0:0:
31,364,18927,1,0,3:0:0:0:
31,364,19023,1,0,3:0:0:0:
31,364,19119,6,0,L|42:363,1,9.75,0|0,3:2|1:0,0:0:0:0:
389,350,19408,6,0,L|368:348,1,19.5,0|0,3:2|1:0,0:0:0:0:
39,283,19696,6,0,L|72:279,1,29.2499991073609,0|0,3:2|1:0,0:0:0:0:
410,270,19984,6,0,L|368:264,1,39,0|0,3:2|1:0,0:0:0:0:
51,204,20273,6,0,L|100:199,1,48.75,0|0,3:2|1:0,0:0:0:0:
427,189,20561,6,0,L|348:181,1,58.4999982147217,0|0,3:2|1:0,0:0:0:0:
64,123,20850,6,0,L|142:115,1,68.2499979171753,0|0,3:2|1:0,0:0:0:0:
440,108,21138,6,0,L|361:100,1,78,0|0,3:0|1:0,0:0:0:0:
75,42,21427,6,0,L|167:33,1,87.7499973220826,0|0,3:0|1:0,0:0:0:0:
458,25,21715,6,0,L|348:15,1,97.5,0|0,3:0|1:0,0:0:0:0:
262,53,22004,6,0,B|268:129,1,73.1250027894975,0|0,3:0|1:0,0:0:0:0:
39,307,22196,5,0,3:0:0:0:
71,265,22292,1,2,0:0:0:0:
122,252,22388,1,2,0:0:0:0:
168,277,22484,1,2,0:0:0:0:
206,314,22581,1,0,3:0:0:0:
258,322,22677,1,2,0:0:0:0:
307,305,22773,1,2,0:0:0:0:
331,257,22869,1,2,0:0:0:0:
285,176,22965,5,0,3:0:0:0:
239,200,23061,1,2,0:0:0:0:
189,186,23158,1,2,0:0:0:0:
163,141,23254,1,2,0:0:0:0:
174,91,23350,1,0,3:0:0:0:
168,40,23446,1,2,0:0:0:0:
122,15,23543,1,0,0:0:0:0:
71,21,23639,1,2,0:0:0:0:
33,50,23734,6,0,P|42:65|51:81,1,36.5625013947487,2|2,0:0|0:0,0:0:0:0:
16,73,23831,2,0,P|33:77|51:81,1,36.5625013947487,2|2,0:0|0:0,0:0:0:0:
20,100,23927,2,0,P|35:91|50:80,1,36.5625013947487,2|2,0:0|0:0,0:0:0:0:
43,117,24023,2,0,P|47:99|51:81,1,36.5625013947487,2|2,0:0|0:0,0:0:0:0:
103,161,24119,6,0,P|93:176|84:192,1,36.5625013947487,2|2,0:0|0:0,0:0:0:0:
120,184,24216,2,0,P|102:188|84:192,1,36.5625013947487,2|2,0:0|0:0,0:0:0:0:
116,211,24312,2,0,P|100:202|85:191,1,36.5625013947487,2|2,0:0|0:0,0:0:0:0:
93,228,24408,2,0,P|88:210|84:192,1,36.5625013947487,2|2,0:0|0:0,0:0:0:0:
22,267,24504,6,0,L|35:339,1,73.1250027894975
267,314,24696,2,0,B|233:282|233:282|134:296,1,146.250005578995,2|0,0:0|0:0,0:0:0:0:
105,378,24984,1,2,0:0:0:0:
396,158,25273,6,0,B|342:167|342:167|333:165|333:165|311:168|311:168|301:166|301:166|243:173,1,146.25,4|0,3:2|1:0,0:0:0:0:
163,182,25658,5,0,3:0:0:0:
162,172,25754,1,0,0:0:0:0:
161,162,25850,1,0,0:0:0:0:
160,152,25946,1,0,0:0:0:0:
166,212,26042,5,0,3:0:0:0:
165,202,26138,1,0,0:0:0:0:
164,192,26234,1,0,0:0:0:0:
163,182,26330,1,0,0:0:0:0:
169,242,26427,5,0,3:0:0:0:
168,232,26523,1,0,0:0:0:0:
167,222,26619,1,0,0:0:0:0:
166,212,26715,1,0,0:0:0:0:
109,312,26811,6,0,B|152:333|152:333|281:304,1,146.25,0|0,3:0|1:0,0:0:0:0:
397,285,27196,5,0,3:0:0:0:
387,282,27292,1,0,0:0:0:0:
377,280,27388,1,0,0:0:0:0:
367,278,27484,1,0,0:0:0:0:
417,290,27581,5,0,3:0:0:0:
407,287,27677,1,0,0:0:0:0:
397,285,27773,1,0,0:0:0:0:
387,283,27869,1,0,0:0:0:0:
300,268,27965,5,0,3:0:0:0:
223,237,28061,1,0,0:0:0:0:
253,158,28158,1,0,0:0:0:0:
334,190,28254,1,0,0:0:0:0:
300,268,28350,5,0,3:0:0:0:
318,284,28446,2,0,L|303:391,1,97.5,0|0,0:0|1:0,0:0:0:0:
192,343,28734,5,0,3:0:0:0:
196,333,28830,1,0,0:0:0:0:
203,325,28926,1,0,0:0:0:0:
212,320,29022,1,0,0:0:0:0:
191,364,29119,5,0,3:0:0:0:
190,354,29215,1,0,0:0:0:0:
192,343,29311,1,0,0:0:0:0:
197,334,29407,1,0,0:0:0:0:
200,383,29503,5,0,3:0:0:0:
195,374,29599,1,0,0:0:0:0:
191,364,29695,1,0,0:0:0:0:
191,354,29791,1,0,0:0:0:0:
288,353,29888,6,0,B|343:348|343:348|384:370|384:370|451:362,1,146.25,0|0,3:0|1:0,0:0:0:0:
484,270,30273,5,0,3:0:0:0:
474,267,30369,1,0,0:0:0:0:
464,264,30465,1,0,0:0:0:0:
454,261,30561,1,0,0:0:0:0:
366,265,30658,5,0,3:0:0:0:
349,245,30754,2,0,B|327:187|327:187|367:118,1,116.999996429443,0|0,0:0|3:0,0:0:0:0:
506,57,31042,5,2,0:3:0:0:
471,129,31138,2,0,L|336:140,1,116.999996429443,2|0,0:3|0:0,0:0:0:0:
84,98,31427,6,0,P|159:62|226:185,1,219.375008368492,4|0,3:2|1:0,0:0:0:0:
194,272,31811,5,8,3:0:0:0:
162,253,31908,1,0,0:0:0:0:
126,263,32004,1,2,0:0:0:0:
94,244,32101,1,0,0:0:0:0:
262,281,32196,5,0,3:0:0:0:
230,262,32293,1,0,0:0:0:0:
194,272,32388,1,2,0:0:0:0:
162,253,32484,1,0,0:0:0:0:
330,290,32581,5,8,3:0:0:0:
298,271,32678,1,0,0:0:0:0:
262,281,32774,1,2,0:0:0:0:
230,262,32869,1,0,0:0:0:0:
214,353,32965,6,0,B|253:371|295:360|295:360|305:372|305:372|385:380|413:313,1,219.375008368492,0|0,3:0|1:0,0:0:0:0:
356,100,33350,5,8,3:0:0:0:
320,110,33446,1,0,0:0:0:0:
298,139,33542,1,2,0:0:0:0:
292,175,33638,1,0,0:0:0:0:
414,142,33734,5,0,3:0:0:0:
390,109,33830,1,0,0:0:0:0:
356,100,33926,1,2,0:0:0:0:
320,110,34022,1,0,0:0:0:0:
368,214,34119,5,8,3:0:0:0:
455,217,34215,1,0,0:0:0:0:
497,140,34311,1,2,0:0:0:0:
449,65,34408,1,0,0:0:0:0:
320,110,34504,5,4,3:2:0:0:
309,126,34600,2,0,B|202:147|202:147|156:104,1,146.250005578995,2|0,0:0|1:0,0:0:0:0:
84,64,34888,5,2,0:3:0:0:
81,100,34984,1,0,0:0:0:0:
78,136,35081,1,2,0:0:0:0:
76,172,35177,1,0,0:0:0:0:
174,121,35273,5,4,3:2:0:0:
171,157,35369,1,2,0:0:0:0:
168,193,35466,1,0,0:0:0:0:
166,229,35562,1,0,0:0:0:0:
88,286,35658,5,0,0:0:0:0:
167,322,35754,1,0,0:0:0:0:
247,288,35850,1,0,3:0:0:0:
260,201,35946,1,0,3:0:0:0:
260,201,36234,6,0,B|312:173|312:173|476:219,1,195,4|0,3:2|1:0,0:0:0:0:
512,276,36523,2,0,B|460:304|460:304|296:258,1,195,0|0,3:0|1:0,0:0:0:0:
412,3,36811,6,0,P|485:69|388:119,1,195,0|0,3:0|1:0,0:0:0:0:
257,116,37100,2,0,P|227:32|310:0,1,195,0|0,3:0|1:0,0:0:0:0:
341,170,37388,2,0,L|325:296,1,97.5,0|0,3:0|1:0,0:0:0:0:
137,223,37581,6,0,B|99:173|99:173|271:242,1,219.375008368492,0|0,3:0|1:0,0:0:0:0:
200,335,37965,5,8,3:0:0:0:
166,348,38061,1,0,0:0:0:0:
131,335,38158,1,2,0:0:0:0:
97,348,38254,1,0,0:0:0:0:
269,335,38350,5,0,3:0:0:0:
235,348,38446,1,0,0:0:0:0:
200,335,38543,1,2,0:0:0:0:
166,348,38639,1,0,0:0:0:0:
338,335,38734,5,8,3:0:0:0:
304,348,38830,1,0,0:0:0:0:
269,335,38927,1,2,0:0:0:0:
235,348,39023,1,0,0:0:0:0:
238,243,39119,6,0,B|275:232|303:257|303:257|328:234|328:234|381:266|447:247,1,219.375008368492,0|0,3:0|1:0,0:0:0:0:
469,130,39504,5,8,3:0:0:0:
443,156,39600,1,0,0:0:0:0:
407,166,39696,1,2,0:0:0:0:
371,156,39792,1,0,0:0:0:0:
331,83,39888,6,0,P|371:74|428:69,1,73.1250027894975,4|0,3:2|1:0,0:0:0:0:
273,145,40081,1,0,0:0:0:0:
247,68,40177,2,0,P|259:28|283:-23,1,73.1250027894975,4|0,3:2|1:0,0:0:0:0:
273,145,40369,1,0,3:0:0:0:
187,130,40465,2,0,P|159:99|126:52,1,73.1250027894975,4|0,3:2|1:0,0:0:0:0:
140,75,40754,6,0,B|85:70|85:70|53:90|53:90|-23:86,1,146.250005578995,2|0,0:0|1:0,0:0:0:0:
89,245,41042,5,4,3:2:0:0:
66,217,41138,1,0,0:0:0:0:
85,182,41234,1,2,0:0:0:0:
108,154,41331,1,0,0:0:0:0:
85,308,41427,5,0,3:0:0:0:
108,280,41523,1,0,0:0:0:0:
89,245,41619,1,2,0:0:0:0:
66,217,41716,1,0,0:0:0:0:
89,371,41811,5,8,3:0:0:0:
66,343,41907,1,0,0:0:0:0:
85,308,42003,1,2,0:0:0:0:
108,280,42100,1,0,0:0:0:0:
184,332,42196,6,0,B|230:321|230:321|241:326|241:326|311:313|311:313|345:347|345:347|409:343,1,219.375008368492,0|0,3:0|1:0,0:0:0:0:
461,287,42581,5,8,3:0:0:0:
465,258,42677,1,2,0:0:0:0:
469,229,42773,1,2,0:0:0:0:
473,200,42869,1,0,0:0:0:0:
387,191,42965,6,0,P|386:231|391:290,1,73.1250027894975,4|0,3:2|0:0,0:0:0:0:
438,115,43158,1,0,0:0:0:0:
346,109,43254,2,0,P|310:128|262:161,1,73.1250027894975,4|0,3:2|1:0,0:0:0:0:
438,115,43446,1,0,3:0:0:0:
397,36,43542,2,0,P|362:15|309:-10,1,73.1250027894975,4|0,3:2|1:0,0:0:0:0:
102,46,43734,6,0,B|169:38|169:38|194:52|194:52|264:46|264:46|186:107,1,219.375008368492,4|0,3:2|1:0,0:0:0:0:
148,165,44119,5,8,3:0:0:0:
113,177,44215,1,0,0:0:0:0:
85,152,44311,1,2,0:0:0:0:
50,164,44408,1,0,0:0:0:0:
211,178,44504,5,0,3:0:0:0:
176,190,44600,1,0,0:0:0:0:
148,165,44696,1,2,0:0:0:0:
113,177,44793,1,0,0:0:0:0:
274,191,44888,5,8,3:0:0:0:
239,203,44984,1,0,0:0:0:0:
211,178,45080,1,2,0:0:0:0:
176,190,45177,1,0,0:0:0:0:
180,291,45273,6,0,B|164:221|164:221|193:154|193:154|176:61,1,219.375008368492,0|0,3:0|1:0,0:0:0:0:
287,90,45658,5,8,3:0:0:0:
251,86,45754,1,0,0:0:0:0:
215,83,45850,1,2,0:0:0:0:
179,80,45946,1,0,0:0:0:0:
359,97,46042,5,0,3:0:0:0:
323,93,46138,1,0,0:0:0:0:
287,90,46234,1,2,0:0:0:0:
251,87,46330,1,0,0:0:0:0:
343,183,46427,5,8,3:0:0:0:
426,157,46523,1,2,0:0:0:0:
439,70,46619,1,2,0:0:0:0:
369,16,46715,1,0,0:0:0:0:
287,90,46811,5,4,3:2:0:0:
276,109,46908,2,0,B|238:131|238:131|101:106,1,146.250005578995,0|0,3:0|1:0,0:0:0:0:
29,47,47196,5,8,2:3:0:0:
35,82,47292,1,0,0:0:0:0:
41,117,47388,1,2,0:0:0:0:
47,152,47484,1,0,0:0:0:0:
137,112,47581,5,0,3:0:0:0:
131,147,47677,1,0,0:0:0:0:
125,182,47773,1,2,0:0:0:0:
119,217,47869,1,0,0:0:0:0:
112,252,47965,1,8,0:3:0:0:
106,288,48061,1,0,0:0:0:0:
100,324,48158,6,0,L|93:371,3,36.5625013947487,2|2|2|0,0:0|0:0|0:0|0:0,0:0:0:0:
100,324,48542,6,0,B|188:310|188:310|199:317|199:317|327:299,1,195,4|0,3:2|1:0,0:0:0:0:
512,236,48831,2,2,B|424:222|424:222|413:229|413:229|285:211,1,195,0|0,3:0|1:0,0:0:0:0:
199,75,49119,2,0,B|248:31|248:31|217:183,1,195,0|0,3:0|1:0,0:0:0:0:
17,230,49375,5,0,0:0:0:0:
27,215,49440,1,0,0:0:0:0:
37,200,49504,2,0,L|147:210,1,97.5,0|0,3:0|3:0,0:0:0:0:
421,76,49696,2,0,L|311:86,1,97.5,0|0,3:0|3:0,0:0:0:0:
233,368,49888,6,0,B|277:261|179:270|226:143,1,219.375008368492,0|0,3:0|1:0,0:0:0:0:
397,198,50273,5,0,3:0:0:0:
375,202,50369,1,0,0:0:0:0:
353,206,50465,1,0,0:0:0:0:
331,210,50561,1,0,0:0:0:0:
441,190,50658,5,0,3:0:0:0:
419,194,50754,1,0,0:0:0:0:
397,198,50850,1,0,0:0:0:0:
375,202,50946,1,0,0:0:0:0:
485,182,51042,5,0,3:0:0:0:
463,186,51138,1,0,0:0:0:0:
441,190,51234,1,0,0:0:0:0:
419,194,51330,1,0,0:0:0:0:
407,277,51427,5,0,3:0:0:0:
400,290,51523,2,0,P|478:315|511:247,1,146.250005578995,0|0,0:0|1:0,0:0:0:0:
284,216,51811,5,0,3:0:0:0:
262,220,51907,1,0,0:0:0:0:
240,224,52003,1,0,0:0:0:0:
218,228,52099,1,0,0:0:0:0:
328,208,52196,5,0,3:0:0:0:
306,212,52292,1,0,0:0:0:0:
284,216,52388,1,0,0:0:0:0:
262,220,52484,1,0,0:0:0:0:
372,200,52580,5,0,3:0:0:0:
350,204,52676,1,2,0:0:0:0:
328,208,52772,1,2,0:0:0:0:
306,212,52868,1,0,0:0:0:0:
327,125,52965,5,0,3:0:0:0:
320,112,53061,2,0,P|398:87|431:155,1,146.250005578995,2|0,0:0|1:0,0:0:0:0:
371,230,53350,5,0,3:0:0:0:
371,220,53446,1,0,0:0:0:0:
371,210,53542,1,0,0:0:0:0:
372,200,53638,1,0,0:0:0:0:
370,260,53734,5,0,3:0:0:0:
370,250,53830,1,0,0:0:0:0:
370,240,53926,1,0,0:0:0:0:
371,230,54022,1,0,0:0:0:0:
369,290,54119,5,0,3:0:0:0:
369,280,54215,1,0,0:0:0:0:
369,270,54311,1,0,0:0:0:0:
370,260,54407,1,0,0:0:0:0:
286,257,54504,5,0,3:0:0:0:
282,266,54600,2,0,L|160:278,1,97.5,0|0,0:0|1:0,0:0:0:0:
42,286,54888,5,0,3:0:0:0:
50,291,54984,1,0,0:0:0:0:
58,296,55081,1,0,0:0:0:0:
65,302,55177,1,0,0:0:0:0:
131,358,55273,5,2,3:0:0:0:
149,351,55369,2,0,L|271:363,1,97.5,2|2,0:0|0:0,0:0:0:0:
264,259,55658,5,0,0:0:0:0:
282,266,55754,2,0,L|404:254,1,97.5,2|0,0:0|0:0,0:0:0:0:
89,34,56042,6,0,L|90:45,1,9.75,0|0,3:0|1:0,0:0:0:0:
117,321,56331,6,0,L|118:301,1,19.5,0|0,3:0|1:0,0:0:0:0:
170,27,56619,6,0,L|172:56,1,29.2499991073609,0|0,3:0|1:0,0:0:0:0:
197,319,56908,6,0,L|201:274,1,39,0|0,3:0|1:0,0:0:0:0:
249,16,57196,6,0,L|253:66,1,48.75,0|0,3:0|1:0,0:0:0:0:
276,324,57484,6,0,L|281:261,1,58.4999982147217,0|0,3:0|1:0,0:0:0:0:
326,8,57773,6,0,L|333:91,1,68.2499979171753,0|0,3:0|1:0,0:0:0:0:
360,329,58061,6,0,L|367:245,1,78,0|0,3:0|1:0,0:0:0:0:
404,0,58350,6,0,L|412:97,1,87.7499973220826,0|0,3:0|1:0,0:0:0:0:
441,336,58638,6,0,L|449:238,1,97.5,0|0,3:0|1:0,0:0:0:0:
372,168,58927,6,0,B|336:167|336:167|327:162|327:162|241:157,1,73.1250027894975,0|0,3:0|1:0,0:0:0:0:
46,117,59119,5,0,3:0:0:0:
96,97,59215,1,2,0:0:0:0:
148,116,59311,1,2,0:0:0:0:
174,163,59407,1,2,0:0:0:0:
154,215,59504,1,0,3:0:0:0:
107,247,59601,1,2,0:0:0:0:
107,303,59697,1,0,0:0:0:0:
148,339,59793,1,2,0:0:0:0:
250,338,59888,5,0,3:0:0:0:
305,331,59984,1,2,0:0:0:0:
361,324,60081,1,2,0:0:0:0:
416,317,60177,1,2,0:0:0:0:
426,289,60273,1,0,3:0:0:0:
371,282,60369,1,2,0:0:0:0:
315,275,60466,1,0,0:0:0:0:
259,269,60562,1,2,0:0:0:0:
254,232,60658,6,0,L|260:277,1,36.5625013947487,2|2,0:0|0:0,0:0:0:0:
267,203,60754,2,0,L|273:248,1,36.5625013947487,2|2,0:0|0:0,0:0:0:0:
283,181,60850,2,0,L|289:226,1,36.5625013947487,2|2,0:0|0:0,0:0:0:0:
301,152,60946,2,0,L|307:197,1,36.5625013947487,2|2,0:0|0:0,0:0:0:0:
389,118,61042,6,0,L|383:163,1,36.5625013947487,2|2,0:0|0:0,0:0:0:0:
376,89,61138,2,0,L|370:134,1,36.5625013947487,2|2,0:0|0:0,0:0:0:0:
360,67,61234,2,0,L|354:112,1,36.5625013947487,2|2,0:0|0:0,0:0:0:0:
342,38,61330,2,0,L|336:83,1,36.5625013947487,2|2,0:0|0:0,0:0:0:0:
324,12,61427,5,2,0:0:0:0:
116,78,61619,1,0,0:0:0:0:
122,98,61715,2,0,P|202:106|262:58,1,146.250005578995,0|0,0:0|1:0,0:0:0:0:
253,70,62004,2,0,P|239:126|263:166,1,73.1250027894975,0|0,0:0|1:0,0:0:0:0:
315,275,62196,5,0,3:0:0:0:
256,192,62388,12,0,64696,0:3:0:0:
153,83,64888,5,0,0:3:0:0:
136,98,64984,2,0,P|183:127|251:127,1,73.1250027894975,0|0,3:0|1:0,0:0:0:0:
199,130,65273,6,0,L|186:270,1,109.687504184246,4|0,3:2|0:0,0:0:0:0:
130,301,65658,2,0,L|83:317,3,36.5625013947487,2|0|0|0,0:0|0:0|0:0|0:0,0:0:0:0:
183,365,66042,2,0,L|230:381,3,36.5625013947487,2|0|0|0,0:0|0:0|0:0|0:0,0:0:0:0:
130,293,66427,2,0,L|83:309,3,36.5625013947487,2|0|0|0,0:0|0:0|0:0|0:0,0:0:0:0:
246,250,66811,6,0,L|236:306,3,36.5625013947487,2|0|0|0,0:0|0:0|0:0|0:0,0:0:0:0:
306,349,67196,2,0,L|316:405,3,36.5625013947487,2|0|0|0,0:0|0:0|0:0|0:0,0:0:0:0:
256,243,67581,2,0,L|246:299,3,36.5625013947487,2|0|0|0,0:0|0:0|0:0|0:0,0:0:0:0:
316,342,67966,2,0,L|326:398,3,36.5625013947487,2|0|0|0,0:0|0:0|0:0|0:0,0:0:0:0:
468,268,68350,6,0,B|391:242|391:242|342:272,1,109.687504184246,6|0,3:2|0:0,0:0:0:0:
322,176,68734,2,0,L|315:122,3,36.5625013947487,2|0|0|0,0:0|0:0|0:0|0:0,0:0:0:0:
413,160,69119,2,0,L|420:106,3,36.5625013947487,2|0|0|0,0:0|0:0|0:0|0:0,0:0:0:0:
314,188,69504,2,0,L|307:134,3,36.5625013947487,2|0|0|0,0:0|0:0|0:0|0:0,0:0:0:0:
310,68,69888,6,0,L|358:75,3,36.5625013947487,2|0|0|0,0:0|0:0|0:0|0:0,0:0:0:0:
406,20,70273,2,0,L|442:14,3,36.5625013947487,2|0|0|0,0:0|0:0|0:0|0:0,0:0:0:0:
302,75,70658,2,0,L|338:80,2,36.5625013947487,2|0|0,0:0|0:0|0:0,0:0:0:0:
213,112,70946,6,0,L|208:56,1,36.5625013947487,0|0,3:0|0:0,0:0:0:0:
131,14,71138,2,0,L|127:50,1,36.5625013947487,0|0,3:0|0:0,0:0:0:0:
127,50,71427,6,0,P|60:53|22:105,1,109.687504184246,4|0,3:2|0:0,0:0:0:0:
36,168,71811,2,0,L|41:217,3,36.5625013947487,2|0|0|0,0:0|0:0|0:0|0:0,0:0:0:0:
107,258,72196,2,0,L|102:307,3,36.5625013947487,2|0|0|0,0:0|0:0|0:0|0:0,0:0:0:0:
45,168,72581,2,0,L|50:217,3,36.5625013947487,2|0|0|0,0:0|0:0|0:0|0:0,0:0:0:0:
139,179,72965,6,0,L|247:159,1,97.5,4|0,3:2|0:0,0:0:0:0:
344,255,73254,2,0,L|236:235,1,97.5,4|0,3:2|0:0,0:0:0:0:
311,68,73542,2,0,B|326:96|326:96|314:171,1,97.5,4|0,3:2|0:0,0:0:0:0:
252,330,73831,2,0,B|237:302|237:302|249:227,1,97.5,4|0,3:2|0:0,0:0:0:0:
247,237,74119,5,0,3:0:0:0:
337,281,74215,2,0,B|348:346|348:346|333:374,1,97.5,4|0,3:2|0:0,0:0:0:0:
512,248,74504,6,0,B|470:265|470:265|395:237,1,109.687504184246,4|0,3:2|0:0,0:0:0:0:
435,161,74888,1,0,0:0:0:0:
435,161,74984,2,0,L|477:177,2,36.5625013947487,2|0|0,0:0|0:0|0:0,0:0:0:0:
346,187,75273,1,0,0:0:0:0:
346,187,75369,2,0,L|304:203,2,36.5625013947487,2|0|0,0:0|0:0|0:0,0:0:0:0:
444,149,75658,1,0,0:0:0:0:
444,149,75754,2,0,L|486:165,2,36.5625013947487,2|0|0,0:0|0:0|0:0,0:0:0:0:
368,63,76042,5,0,0:0:0:0:
368,63,76138,2,0,L|364:107,2,36.5625013947487,2|0|0,0:0|0:0|0:0,0:0:0:0:
273,83,76427,1,0,0:0:0:0:
273,83,76523,2,0,L|277:127,2,36.5625013947487,2|0|0,0:0|0:0|0:0,0:0:0:0:
381,51,76811,5,0,0:0:0:0:
381,51,76907,2,0,L|377:95,2,36.5625013947487,2|0|0,0:0|0:0|0:0,0:0:0:0:
254,69,77196,1,0,0:0:0:0:
254,69,77292,2,0,L|258:113,2,36.5625013947487,2|0|0,0:0|0:0|0:0,0:0:0:0:
128,91,77581,6,0,L|175:98,3,36.5625013947487,2|0|0|0,0:0|0:0|0:0|0:0,0:0:0:0:
78,25,77965,2,0,L|31:32,3,36.5625013947487,2|0|0|0,0:0|0:0|0:0|0:0,0:0:0:0:
124,103,78350,2,0,L|171:110,3,36.5625013947487,2|0|0|0,0:0|0:0|0:0|0:0,0:0:0:0:
74,37,78734,2,0,L|27:44,3,36.5625013947487,2|0|0|0,0:0|0:0|0:0|0:0,0:0:0:0:
32,177,79119,6,0,L|44:129,3,36.5625013947487,2|0|0|0,0:0|0:0|0:0|0:0,0:0:0:0:
132,138,79504,2,0,L|120:90,3,36.5625013947487,2|0|0|0,0:0|0:0|0:0|0:0,0:0:0:0:
41,180,79888,2,0,L|53:132,3,36.5625013947487,2|0|0|0,0:0|0:0|0:0|0:0,0:0:0:0:
141,141,80273,2,0,L|129:93,1,36.5625013947487,2|0,0:0|0:0,0:0:0:0:
99,327,80465,1,0,3:0:0:0:
99,327,80561,1,0,3:0:0:0:
99,327,80658,6,0,L|97:318,1,9.75,0|0,3:0|1:0,0:0:0:0:
114,217,80946,6,0,L|119:235,1,19.5,0|0,3:0|1:0,0:0:0:0:
183,339,81234,6,0,L|176:311,1,29.2499991073609,0|0,3:0|1:0,0:0:0:0:
174,147,81523,6,0,L|185:185,1,39,0|0,3:0|1:0,0:0:0:0:
267,351,81811,6,0,L|255:304,1,48.75,0|0,3:0|1:0,0:0:0:0:
242,85,82100,6,0,L|258:142,1,58.4999982147217,0|0,3:0|1:0,0:0:0:0:
352,363,82388,6,0,L|335:298,1,68.2499979171753,0|0,3:0|1:0,0:0:0:0:
320,36,82677,6,0,L|341:112,1,78,0|0,3:0|1:0,0:0:0:0:
440,376,82965,6,0,L|417:292,1,87.7499973220826,0|0,3:0|1:0,0:0:0:0:
399,1,83254,6,0,L|425:96,1,97.5,0|0,3:0|1:0,0:0:0:0:
477,202,83542,6,0,L|394:192,1,73.1250027894975,0|0,3:0|1:0,0:0:0:0:
56,194,83734,5,0,3:0:0:0:
96,163,83830,1,2,0:0:0:0:
146,154,83926,1,2,0:0:0:0:
194,169,84022,1,2,0:0:0:0:
230,204,84118,1,0,3:0:0:0:
270,234,84215,1,2,0:0:0:0:
320,243,84311,1,2,0:0:0:0:
368,228,84407,1,2,0:0:0:0:
454,190,84504,5,0,3:0:0:0:
487,228,84600,1,2,0:0:0:0:
501,277,84696,1,2,0:0:0:0:
486,325,84792,1,2,0:0:0:0:
446,357,84888,1,0,3:0:0:0:
395,365,84984,1,2,0:0:0:0:
352,335,85081,1,2,0:0:0:0:
301,330,85177,1,2,0:0:0:0:
254,352,85273,6,0,L|197:362,1,36.5625013947487,2|2,0:0|0:0,0:0:0:0:
226,343,85369,2,0,L|169:353,1,36.5625013947487,2|2,0:0|0:0,0:0:0:0:
198,334,85465,2,0,L|141:344,1,36.5625013947487,2|2,0:0|0:0,0:0:0:0:
170,325,85561,2,0,L|113:335,1,36.5625013947487,2|2,0:0|0:0,0:0:0:0:
215,255,85658,6,0,L|272:265,1,36.5625013947487,2|2,0:0|0:0,0:0:0:0:
243,246,85754,2,0,L|300:256,1,36.5625013947487,2|2,0:0|0:0,0:0:0:0:
271,237,85850,2,0,L|328:247,1,36.5625013947487,2|2,0:0|0:0,0:0:0:0:
299,228,85946,2,0,L|356:238,1,36.5625013947487,2|2,0:0|0:0,0:0:0:0:
324,220,86042,5,2,0:0:0:0:
38,148,86811,6,0,B|102:106|186:137|159:189|253:211|322:147,1,292.50001115799,4|8,3:2|0:0,0:0:0:0:
103,222,87773,1,0,0:0:0:0:
240,77,87965,6,0,B|304:35|388:66|361:118|455:140|524:76,1,292.50001115799,0|8,3:0|0:0,0:0:0:0:
310,156,89504,2,0,P|317:183|333:267,1,97.5,2|0,0:0|0:0,0:0:0:0:
490,322,89888,6,0,B|394:338|394:338|363:361|363:361|242:338,1,255.937509763241,0|0,3:0|0:0,0:0:0:0:
170,265,90658,2,0,P|228:250|261:246,1,73.1250027894975,8|0,0:0|0:0,0:0:0:0:
439,243,90850,1,0,3:0:0:0:
256,102,91042,6,0,B|167:85|167:85|134:110|134:110|-4:132,1,268.125,0|0,3:0|0:0,0:0:0:0:
84,237,92196,6,0,P|131:222|178:209,1,97.5,12|0,0:2|1:0,0:0:0:0:
267,236,92484,2,0,P|309:247|360:263,1,97.5,0|0,3:0|1:0,0:0:0:0:
400,352,92773,1,0,3:0:0:0:
512,146,92965,6,0,P|406:129|264:244,1,292.50001115799,0|8,3:0|0:0,0:0:0:0:
210,162,93927,1,0,0:0:0:0:
387,339,94119,6,0,P|287:368|130:276,1,292.5,0|8,3:0|0:0,0:0:0:0:
235,58,95658,5,2,0:0:0:0:
235,58,95850,1,0,0:0:0:0:
22,238,96042,6,0,P|129:231|193:197,1,170.625,0|0,3:0|1:0,0:0:0:0:
185,204,96811,6,0,P|193:149|169:109,1,73.1250027894975,8|0,0:0|1:0,0:0:0:0:
99,32,97004,2,0,P|91:67|101:102,1,73.1250027894975,0|0,3:0|1:0,0:0:0:0:
203,291,97196,6,0,P|296:301|347:246,1,170.625,0|0,3:0|1:0,0:0:0:0:
424,200,97965,2,0,P|413:183|362:160,1,73.1250027894975,0|0,3:0|1:0,0:0:0:0:
443,295,98254,1,0,3:0:0:0:
443,295,98350,6,0,P|476:282|510:177,1,146.250005578995,8|0,0:0|0:0,0:0:0:0:
347,244,98831,2,0,P|326:295|329:351,1,97.5,0|0,3:0|1:0,0:0:0:0:
126,358,99119,6,0,P|126:303|54:72,1,292.50001115799,4|8,3:2|0:0,0:0:0:0:
241,317,100081,1,0,0:0:0:0:
483,158,100273,6,0,P|349:102|203:89,1,292.50001115799,0|8,3:0|0:0,0:0:0:0:
493,172,101811,1,2,0:0:0:0:
350,21,102004,1,0,0:0:0:0:
250,299,102196,6,0,B|206:215|267:159|183:50,1,255.937509763241,0|0,3:0|0:0,0:0:0:0:
149,263,102965,2,0,P|159:308|177:355,1,73.1250027894975,8|0,0:0|1:0,0:0:0:0:
320,152,103158,1,0,3:0:0:0:
350,351,103350,6,0,P|487:353|494:249,1,268.125,0|0,3:0|0:0,0:0:0:0:
180,213,104504,6,0,P|222:224|282:246,1,97.5,8|0,0:0|1:0,0:0:0:0:
357,192,104792,2,0,P|402:175|449:162,1,97.5,4|0,3:2|1:0,0:0:0:0:
495,250,105081,1,4,3:2:0:0:
323,76,105273,6,0,B|260:113|206:88|206:88|172:91|148:107|148:107|98:84|16:118,1,292.50001115799,0|8,3:0|0:0,0:0:0:0:
252,13,106234,1,0,0:0:0:0:
100,232,106427,6,0,B|163:269|217:244|217:244|251:247|275:263|275:263|325:240|407:274,1,292.50001115799,0|8,3:0|0:0,0:0:0:0:
449,331,107773,1,0,0:0:0:0:
507,263,107965,2,0,P|505:238|498:215,1,48.75,2|0,0:0|0:0,0:0:0:0:
208,55,108350,6,0,P|266:110|478:104,1,292.50001115799,0|8,3:0|0:0,0:0:0:0:
304,16,109311,1,0,3:0:0:0:
304,233,109504,6,0,P|246:288|164:313,1,146.25,0|0,3:0|0:0,0:0:0:0:
67,204,110273,2,0,P|134:230|167:392,1,243.75,0|0,0:0|0:0,0:0:0:0:
271,320,111427,6,0,P|350:343|417:386,1,146.250005578995,0|0,3:0|0:0,0:0:0:0:
511,271,111715,2,0,P|476:279|440:283,1,73.1250027894975,2|8,0:0|3:0,0:0:0:0:
297,139,111908,1,0,0:0:0:0:
304,130,112004,2,0,P|339:121|375:117,1,73.1250027894975,0|0,3:0|1:0,0:0:0:0:
279,228,112196,6,0,P|207:213|137:193,1,146.250005578995,0|0,3:0|0:0,0:0:0:0:
35,157,112484,2,0,P|68:142|96:119,1,73.1250027894975,0|8,0:0|3:0,0:0:0:0:
16,33,112677,1,0,0:0:0:0:
26,22,112773,2,0,P|62:25|96:38,1,73.1250027894975,0|0,3:0|1:0,0:0:0:0:
279,228,112965,6,0,P|255:143|240:54,1,146.250005578995,0|0,3:0|0:0,0:0:0:0:
97,39,113254,2,0,P|136:42|187:59,1,73.1250027894975,0|8,0:0|3:0,0:0:0:0:
321,45,113446,1,0,0:0:0:0:
306,34,113542,2,0,P|341:24|378:22,1,73.1250027894975,0|0,3:0|1:0,0:0:0:0:
349,164,113734,5,0,3:0:0:0:
351,178,113831,2,0,L|422:164,1,73.1250027894975,0|0,0:0|1:0,0:0:0:0:
428,282,114023,2,0,L|356:268,1,73.1250027894975,0|8,0:0|3:0,0:0:0:0:
178,185,114215,1,0,0:0:0:0:
253,159,114311,2,0,P|269:192|279:228,1,73.1250027894975,0|0,3:0|1:0,0:0:0:0:
61,242,114504,6,0,B|153:234|104:286|223:263,1,146.250005578995,4|0,3:2|0:0,0:0:0:0:
277,314,114792,2,0,P|257:399|261:411,1,73.1250027894975,0|8,0:0|3:0,0:0:0:0:
268,173,114984,1,0,0:0:0:0:
253,159,115081,2,0,P|285:137|355:132,1,73.1250027894975,0|0,3:0|1:0,0:0:0:0:
82,158,115273,6,0,P|59:93|35:-22,1,146.250005578995,0|0,3:0|0:0,0:0:0:0:
162,13,115561,2,0,P|152:54|140:92,1,73.1250027894975,0|8,0:0|3:0,0:0:0:0:
171,279,115754,1,0,0:0:0:0:
185,265,115850,2,0,P|176:230|166:195,1,73.1250027894975,0|0,3:0|1:0,0:0:0:0:
339,59,116042,6,0,P|443:58|493:150,1,219.375008368492,0|0,3:0|1:0,0:0:0:0:
220,352,116427,2,0,P|150:368|90:331,1,146.250005578995,0|0,3:0|0:0,0:0:0:0:
162,91,116715,1,0,3:0:0:0:
66,136,116811,6,0,B|144:120|144:120|189:136|189:136|278:117,1,195,4|0,3:2|1:0,0:0:0:0:
488,222,117100,2,0,B|442:217|425:209|425:209|365:222|365:222|340:205|299:207|299:207|359:246|351:305,1,292.5,4|0,3:2|3:0,0:0:0:0:
310,365,117484,1,0,3:0:0:0:
262,295,117581,6,0,B|203:282|203:282|171:288|171:288|91:272,1,146.250005578995,0|0,3:0|1:0,0:0:0:0:
29,278,117869,2,0,P|22:319|18:365,1,73.1250027894975,0|8,0:0|3:0,0:0:0:0:
152,167,118061,1,0,0:0:0:0:
132,155,118158,2,0,P|98:179|62:208,1,73.1250027894975,0|0,3:0|1:0,0:0:0:0:
322,65,118350,6,0,P|301:151|261:229,1,146.250005578995,0|0,3:0|0:0,0:0:0:0:
73,198,118638,2,0,P|51:128|53:80,1,73.1250027894975,0|8,0:0|3:0,0:0:0:0:
235,4,118831,1,0,0:0:0:0:
249,18,118927,2,0,P|241:53|227:87,1,73.1250027894975,0|0,3:0|1:0,0:0:0:0:
186,307,119119,6,0,L|169:136,1,146.250005578995,0|0,3:0|0:0,0:0:0:0:
276,203,119408,2,0,L|265:289,1,73.1250027894975,0|8,0:0|3:0,0:0:0:0:
341,373,119600,1,0,0:0:0:0:
336,355,119696,2,0,P|291:359|241:371,1,73.1250027894975,0|0,3:0|1:0,0:0:0:0:
33,254,119888,5,0,3:0:0:0:
42,273,119984,2,0,P|74:292|139:290,1,73.1250027894975,0|0,0:0|1:0,0:0:0:0:
75,122,120177,2,0,P|42:140|11:197,1,73.1250027894975,0|4,0:0|3:2,0:0:0:0:
102,209,120369,1,0,0:0:0:0:
187,221,120465,2,0,P|187:183|153:128,1,73.1250027894975,0|0,3:0|1:0,0:0:0:0:
42,28,120658,6,0,P|139:51|297:61,1,255.937509763241,4|0,3:2|1:0,0:0:0:0:
482,116,121427,2,0,P|409:125|352:140,1,109.687504184246,4|0,3:2|0:0,0:0:0:0:
317,209,121811,5,0,0:0:0:0:
317,209,121908,1,0,3:0:0:0:
317,209,122004,2,0,L|325:243,2,18.2812506973744,0|0|0,3:0|3:0|3:0,0:0:0:0:
189,149,122196,6,0,L|240:157,1,36.5625013947487,4|0,3:2|1:0,0:0:0:0:
444,223,122484,2,0,L|393:231,1,36.5625013947487,4|0,3:2|1:0,0:0:0:0:
180,242,122773,2,0,L|231:250,1,36.5625013947487,4|0,3:2|1:0,0:0:0:0:
461,314,123061,2,0,L|410:322,1,36.5625013947487,4|0,3:2|1:0,0:0:0:0:
180,242,123542,2,0,L|231:250,1,36.5625013947487,0|0,3:0|1:0,0:0:0:0:
461,314,123734,6,0,B|424:346|424:346|308:324,1,146.250005578995,0|0,3:0|1:0,0:0:0:0:
293,169,124023,2,0,P|310:222|319:276,1,73.1250027894975,0|8,0:0|3:0,0:0:0:0:
158,312,124215,1,0,0:0:0:0:
167,297,124311,2,0,L|286:288,1,73.1250027894975,0|0,3:0|1:0,0:0:0:0:
408,239,124504,6,0,P|440:151|443:84,1,146.250005578995,0|0,3:0|1:0,0:0:0:0:
432,0,124792,2,0,P|477:17|537:27,1,73.1250027894975,0|8,0:0|3:0,0:0:0:0:
306,153,124984,1,0,0:0:0:0:
293,169,125081,2,0,P|248:186|188:196,1,73.1250027894975,0|0,3:0|1:0,0:0:0:0:
53,70,125273,6,0,B|150:67|91:127|253:103,1,146.250005578995,0|0,3:0|1:0,0:0:0:0:
326,14,125561,2,0,P|292:52|285:115,1,73.1250027894975,0|8,0:0|3:0,0:0:0:0:
253,323,125754,1,0,0:0:0:0:
277,315,125850,2,0,P|311:277|318:214,1,73.1250027894975,0|0,0:0|1:0,0:0:0:0:
475,134,126042,6,0,B|421:155|390:143|390:143|384:153|368:165|368:165|322:151|260:182,1,195,4|0,3:2|1:0,0:0:0:0:
38,209,126331,2,0,B|92:230|123:218|123:218|129:228|145:240|145:240|191:226|253:257,1,195,4|0,3:2|1:0,0:0:0:0:
299,351,126619,2,0,P|314:305|314:221,1,97.5,4|0,3:2|1:0,0:0:0:0:
157,34,126811,5,0,3:0:0:0:
158,56,126908,2,0,P|215:86|253:91,1,73.1250027894975,0|0,0:0|1:0,0:0:0:0:
317,24,127196,6,0,P|299:114|289:203,1,146.250005578995,8|0,3:0|3:0,0:0:0:0:
490,260,127484,1,0,0:0:0:0:
509,166,127581,6,0,B|367:166|462:234|288:261,1,219.375008368492,0|0,3:0|1:0,0:0:0:0:
236,284,127965,2,0,P|251:316|278:341,1,73.1250027894975,8|0,3:0|1:0,0:0:0:0:
334,110,128158,2,0,P|307:135|291:167,1,73.1250027894975,0|0,3:0|1:0,0:0:0:0:
52,231,128350,6,0,P|141:241|206:139,1,219.375008368492,0|0,3:2|1:0,0:0:0:0:
132,0,128734,2,0,P|113:93|134:162,1,146.250005578995,8|0,3:0|3:0,0:0:0:0:
291,167,129023,1,0,3:0:0:0:
386,146,129119,6,0,P|397:74|286:105,1,195,4|0,3:2|1:0,0:0:0:0:
399,239,129408,2,0,P|485:245|486:158,1,195,4|0,3:2|1:0,0:0:0:0:
386,146,129696,2,0,P|341:153|271:174,1,97.5,4|0,3:2|1:0,0:0:0:0:
116,324,129888,6,0,P|234:350|293:299,1,146.250005578995,0|0,3:0|1:0,0:0:0:0:
335,304,130177,2,0,P|289:265|255:254,1,73.1250027894975,0|8,0:0|3:0,0:0:0:0:
30,171,130369,1,0,0:0:0:0:
37,151,130465,2,0,P|83:112|117:101,1,73.1250027894975,0|0,3:0|1:0,0:0:0:0:
242,135,130658,6,0,P|136:181|88:230,1,146.250005578995,0|0,3:0|1:0,0:0:0:0:
191,69,130946,2,0,P|208:31|211:-6,1,73.1250027894975,0|8,0:0|3:0,0:0:0:0:
231,226,131138,1,0,0:0:0:0:
228,243,131234,2,0,P|232:279|248:312,1,73.1250027894975,0|0,3:0|1:0,0:0:0:0:
437,384,131427,6,0,B|477:349|477:349|447:180,1,170.625001627207,0|0,3:0|1:0,0:0:0:0:
501,83,131715,2,0,L|512:167,1,85.3125008136034,0|8,0:0|3:0,0:0:0:0:
384,314,131908,1,0,0:0:0:0:
380,295,132004,2,0,L|369:211,1,85.3125008136034,0|0,3:0|1:0,0:0:0:0:
501,83,132196,6,0,B|421:49|431:144|299:73,1,170.625001627207,0|0,3:0|1:0,0:0:0:0:
178,23,132484,2,0,P|199:111|192:135,1,85.3125008136034,0|8,0:0|3:0,0:0:0:0:
80,204,132677,1,0,0:0:0:0:
91,189,132773,2,0,P|136:187|204:204,1,85.3125008136034,0|0,3:0|1:0,0:0:0:0:
293,321,132965,6,0,P|266:252|263:151,1,146.250005578995,4|0,3:2|1:0,0:0:0:0:
473,27,133734,2,0,P|472:91|457:141,1,97.5,4|2,3:2|0:0,0:0:0:0:
387,183,134215,5,2,0:0:0:0:
387,183,134311,1,0,3:0:0:0:
387,183,134408,1,0,3:0:0:0:
387,183,134696,6,0,B|319:160|319:160|265:170|265:170|195:146,1,195,0|0,3:0|1:0,0:0:0:0:
71,77,134984,2,0,B|139:54|139:54|193:64|193:64|263:40,1,195,0|0,3:0|1:0,0:0:0:0:
208,262,135273,2,0,P|102:238|138:141,1,195,0|0,3:0|1:0,0:0:0:0:
123,166,135513,1,0,3:0:0:0:
139,162,135561,6,0,B|262:148|182:214|351:186,1,195,0|0,3:0|1:0,0:0:0:0:
422,51,135850,2,0,P|366:76|325:125,1,97.5,0|0,3:0|1:0,0:0:0:0:
406,302,136042,6,0,B|423:241|423:241|411:198|411:198|428:139,1,165.75,0|0,3:0|1:0,0:0:0:0:
