osu file format v14

[General]
AudioFilename: audio.mp3
AudioLeadIn: 0
PreviewTime: 86037
Countdown: 0
SampleSet: Soft
StackLeniency: 0.2
Mode: 0
LetterboxInBreaks: 0
WidescreenStoryboard: 0

[Editor]
Bookmarks: 644,12951,19105,22182,23720,24490,25259,31413,37567,49874,56028,59105,60644,61413,62182,74490,80644,83720,85259,86028,86797,99105,111413,123720,137567
DistanceSpacing: 0.1
BeatDivisor: 4
GridSize: 8
TimelineZoom: 1.9

[Metadata]
Title:Ether Strike
TitleUnicode:Ether Strike
Artist:Akira Complex
ArtistUnicode:Akira Complex
Creator:Mun
Version:Luminiferous
Source:Arcaea
Tags:aether mir icekalt xenon- xehn rhonen english electronic hypersynthetic
BeatmapID:1973466
BeatmapSetID:945019

[Difficulty]
HPDrainRate:6
CircleSize:3.8
OverallDifficulty:9
ApproachRate:9.6
SliderMultiplier:2
SliderTickRate:1

[Events]
//Background and Video events
0,0,"bastien-grivet-img-3141.jpg",0,0
//Break Periods
//Storyboard Layer 0 (Background)
//Storyboard Layer 1 (Fail)
//Storyboard Layer 2 (Pass)
//Storyboard Layer 3 (Foreground)
//Storyboard Sound Samples

[TimingPoints]
658,384.615384615385,4,2,1,100,1,0
658,-66.6666666666667,4,2,1,80,0,0
12965,-66.6666666666667,4,2,1,60,0,0
19119,-142.857142857143,4,2,1,70,0,0
20561,-142.857142857143,4,2,1,75,0,0
22196,-142.857142857143,4,2,1,80,0,0
23734,-66.6666666666667,4,2,1,85,0,0
25273,-100,4,2,1,70,0,1
28158,-66.6666666666667,4,2,1,70,0,1
28734,-100,4,2,1,70,0,1
29888,-66.6666666666667,4,2,1,70,0,1
30754,-50,4,2,1,70,0,1
30946,-50,4,2,1,90,0,1
31424,-50,4,2,1,80,0,1
31811,-66.6666666666667,4,2,1,80,0,1
32965,-50,4,2,1,80,0,1
33446,-66.6666666666667,4,2,1,80,0,1
34311,-50,4,2,1,80,0,1
34504,-50,4,2,1,100,0,1
34888,-66.6666666666667,4,2,1,80,0,1
36234,-41.6666666666667,4,2,1,100,0,1
37581,-83.3333333333333,4,2,1,90,0,1
39888,-83.3333333333333,4,2,1,100,0,1
40754,-71.4285714285714,4,2,1,90,0,1
42196,-62.5,4,2,1,90,0,1
42965,-62.5,4,2,1,100,0,1
43734,-71.4285714285714,4,2,1,90,0,1
46908,-55.5555555555556,4,2,1,100,0,1
47292,-83.3333333333333,4,2,1,90,0,1
48542,-41.6666666666667,4,2,1,100,0,1
49888,-100,4,2,1,70,0,0
52773,-66.6666666666667,4,2,1,70,0,0
53350,-100,4,2,1,70,0,0
54504,-66.6666666666667,4,2,1,70,0,0
55273,-50,4,2,1,70,0,0
56042,-142.857142857143,4,2,1,70,0,0
57484,-142.857142857143,4,2,1,75,0,0
59119,-142.857142857143,4,2,1,80,0,0
60658,-66.6666666666667,4,2,1,85,0,0
62196,-125,4,2,1,100,0,0
64696,-125,4,2,1,70,0,0
65273,-125,4,2,1,60,0,0
72965,-66.6666666666667,4,2,1,100,0,0
74504,-125,4,2,1,60,0,0
80658,-142.857142857143,4,2,1,70,0,0
82100,-142.857142857143,4,2,1,75,0,0
83734,-142.857142857143,4,2,1,80,0,0
85273,-66.6666666666667,4,2,1,90,0,0
86811,-33.3333333333333,4,2,1,100,0,1
87581,-333.333333333333,4,2,1,100,0,1
87965,-100,4,2,1,100,0,1
89119,-37.037037037037,4,2,1,100,0,1
89504,-125,4,2,1,100,0,1
89888,-33.3333333333333,4,2,1,100,0,1
90658,-47.6190476190476,4,2,1,100,0,1
90850,-100,4,2,1,100,0,1
91042,-83.3333333333333,4,2,1,100,0,1
92196,-41.6666666666667,4,2,1,100,0,1
92965,-33.3333333333333,4,2,1,100,0,1
93734,-333.333333333333,4,2,1,100,0,1
94119,-100,4,2,1,100,0,1
95273,-37.037037037037,4,2,1,100,0,1
95658,-100,4,2,1,100,0,1
96042,-41.6666666666667,4,2,1,100,0,1
96811,-55.5555555555556,4,2,1,100,0,1
97004,-100,4,2,1,100,0,1
98061,-50,4,2,1,100,0,1
99119,-38.4615384615385,4,2,1,100,0,1
99888,-333.333333333333,4,2,1,100,0,1
100273,-100,4,2,1,100,0,1
101427,-37.037037037037,4,2,1,100,0,1
101811,-125,4,2,1,100,0,1
102196,-33.3333333333333,4,2,1,100,0,1
102965,-47.6190476190476,4,2,1,100,0,1
103158,-100,4,2,1,100,0,1
103350,-83.3333333333333,4,2,1,100,0,1
104504,-41.6666666666667,4,2,1,100,0,1
105273,-33.3333333333333,4,2,1,100,0,1
106042,-333.333333333333,4,2,1,100,0,1
106427,-100,4,2,1,100,0,1
107581,-37.037037037037,4,2,1,100,0,1
107965,-100,4,2,1,100,0,1
108350,-41.6666666666667,4,2,1,100,0,1
109119,-55.5555555555556,4,2,1,100,0,1
109311,-100,4,2,1,100,0,1
109504,-250,4,2,1,100,0,1
111427,-62.5,4,2,1,90,0,0
116042,-50,4,2,1,90,0,0
116811,-41.6666666666667,4,2,1,90,0,0
117581,-62.5,4,2,1,90,0,0
122196,-50,4,2,1,100,0,0
123734,-62.5,4,2,1,90,0,0
126042,-50,4,2,1,90,0,0
126811,-62.5,4,2,1,90,0,0
128350,-55.5555555555556,4,2,1,90,0,0
129119,-45.4545454545455,4,2,1,90,0,0
129888,-62.5,4,2,1,90,0,0
132965,-100,4,2,1,100,0,0
134696,-41.6666666666667,4,2,1,100,0,0

[Colours]
Combo1 : 133,154,186
Combo2 : 250,50,85
Combo3 : 120,82,82
Combo4 : 241,116,141

[HitObjects]
271,207,6042,6,0,B|265:223|204:233|166:152|213:83|333:83|383:132|412:200|370:325|291:331|186:317|152:237|149:202,1,525.000020027161,2|0,0:0|1:0,0:0:0:0:
177,96,6811,1,4,3:2:0:0:
177,96,9408,6,0,P|206:83|286:80,1,75.0000028610231,4|0,3:2|1:0,0:0:0:0:
336,203,9600,2,0,P|312:173|282:151,1,75.0000028610231,4|0,3:2|1:0,0:0:0:0:
166,225,9792,1,0,3:0:0:0:
290,144,9888,2,0,P|319:166|343:195,1,75.0000028610231,4|0,3:2|1:0,0:0:0:0:
236,307,11619,6,0,B|183:263|203:212|203:212|249:170,1,150.000005722046,0|0,3:0|1:0,0:0:0:0:
417,172,11908,2,0,B|405:239|351:248|351:248|291:229,1,150.000005722046,0|0,3:0|1:0,0:0:0:0:
210,83,12196,2,0,B|274:59|308:101|308:101|322:162,1,150.000005722046,0|0,3:0|1:0,0:0:0:0:
236,307,12484,2,0,B|183:263|203:212|203:212|249:170,1,150.000005722046,0|0,3:0|1:0,0:0:0:0:
417,172,12773,2,0,P|361:256|358:258,1,75.0000028610231,0|0,3:0|1:0,0:0:0:0:
319,15,12965,5,2,3:0:0:0:
319,15,13350,1,2,0:3:0:0:
319,15,13734,1,2,0:3:0:0:
319,15,14119,1,2,0:3:0:0:
357,92,14504,5,2,3:3:0:0:
355,103,14888,1,2,0:3:0:0:
353,114,15273,1,2,0:3:0:0:
351,125,15658,1,2,0:3:0:0:
321,131,15754,1,2,0:3:0:0:
291,130,15850,1,2,0:3:0:0:
263,119,15946,1,2,0:3:0:0:
240,98,16042,5,2,3:3:0:0:
236,127,16427,1,2,0:3:0:0:
233,156,16811,1,2,0:3:0:0:
230,185,17196,1,2,0:3:0:0:
365,242,17581,5,2,3:3:0:0:
360,277,17966,1,2,0:3:0:0:
356,312,18350,1,2,0:3:0:0:
353,347,18735,1,2,0:3:0:0:
110,308,18927,1,0,3:0:0:0:
105,294,19023,1,0,3:0:0:0:
91,282,19119,6,0,P|135:260|175:259,1,69.9999978637696,0|0,3:2|1:0,0:0:0:0:
74,129,19408,2,0,P|107:165|120:202,1,69.9999978637696,0|0,3:2|1:0,0:0:0:0:
215,68,19696,2,0,P|191:111|159:136,1,69.9999978637696,0|0,3:2|1:0,0:0:0:0:
316,184,19985,2,0,P|266:175|234:153,1,69.9999978637696,0|0,3:2|1:0,0:0:0:0:
237,315,20273,2,0,P|229:265|241:228,1,69.9999978637696,0|0,3:2|1:0,0:0:0:0:
237,315,20561,6,0,P|261:344|283:405,1,69.9999978637696,0|0,3:2|1:0,0:0:0:0:
316,184,20850,2,0,P|365:157|400:154,1,69.9999978637696,0|0,3:2|1:0,0:0:0:0:
215,68,21138,2,0,P|210:33|218:0,1,69.9999978637696,0|0,3:0|1:0,0:0:0:0:
74,129,21427,2,0,P|39:121|9:104,1,69.9999978637696,0|0,3:0|1:0,0:0:0:0:
91,282,21715,2,0,P|73:312|47:335,1,69.9999978637696,0|0,3:0|1:0,0:0:0:0:
26,341,22004,1,0,3:0:0:0:
79,273,22196,5,0,3:0:0:0:
91,282,22293,1,2,0:0:0:0:
103,282,22388,1,2,0:0:0:0:
116,283,22485,1,2,0:0:0:0:
223,327,22581,5,0,3:0:0:0:
237,315,22677,1,2,0:0:0:0:
242,298,22772,1,2,0:0:0:0:
246,281,22869,1,2,0:0:0:0:
315,199,22965,5,0,3:0:0:0:
314,182,23062,1,2,0:0:0:0:
297,170,23157,1,2,0:0:0:0:
279,157,23254,1,2,0:0:0:0:
241,76,23350,5,0,3:0:0:0:
214,68,23446,1,2,0:0:0:0:
192,84,23541,1,2,0:0:0:0:
170,97,23638,1,2,0:0:0:0:
75,127,23735,6,2,L|32:126,1,37.5000014305115
75,156,23831,2,2,L|34:141,1,37.5000014305115
65,182,23927,2,2,L|32:154,1,37.5000014305115
46,205,24023,2,2,L|23:168,1,37.5000014305115
11,220,24119,6,2,L|51:234,1,37.5000014305115
0,246,24215,2,2,L|41:246,1,37.5000014305115
1,275,24311,2,2,L|40:260,1,37.5000014305115
12,302,24407,2,2,L|44:275,1,37.5000014305115
28,323,24504,5,2,0:0:0:0:
118,238,25273,6,0,P|170:227|250:301,1,150,4|0,3:2|1:0,0:0:0:0:
248,300,25658,5,0,3:0:0:0:
165,219,25754,2,0,P|128:227|103:243,2,50
252,319,26042,5,0,3:0:0:0:
208,149,26138,2,0,P|171:137|142:138,2,50
256,338,26427,5,0,3:0:0:0:
280,110,26523,2,0,P|254:81|228:68,2,50
118,238,26811,6,0,B|175:237|175:237|208:254|208:254|276:253,1,150,0|0,3:0|1:0,0:0:0:0:
279,253,27196,5,0,3:0:0:0:
159,228,27292,2,0,L|109:228,2,50
294,252,27581,5,0,3:0:0:0:
141,154,27677,2,0,L|91:154,2,50
309,251,27965,5,0,3:0:0:0:
123,80,28061,1,0,0:0:0:0:
123,80,28158,2,0,B|81:82|81:82|51:66,1,75.0000028610231
280,165,28350,5,0,3:0:0:0:
325,39,28446,2,0,P|271:73|272:156,1,150.000005722046,0|0,0:0|1:0,0:0:0:0:
280,165,28734,5,0,3:0:0:0:
280,51,28831,2,0,P|332:29|364:31,2,50
289,176,29119,5,0,3:0:0:0:
173,71,29215,2,0,P|207:25|235:11,2,50
298,187,29504,5,0,3:0:0:0:
90,141,29600,2,0,P|96:84|114:58,2,50
307,198,29888,6,0,B|422:197|422:197|467:196|503:155|497:101,1,225.000008583069,0|0,3:0|1:0,0:0:0:0:
496,111,30273,5,0,3:0:0:0:
386,208,30369,2,0,L|311:208,2,75.0000028610231
495,93,30658,5,0,3:0:0:0:
361,288,30754,2,0,B|293:289|293:289|251:265,1,100,0|0,0:0|1:0,0:0:0:0:
494,75,30946,5,0,3:0:0:0:
365,276,31042,1,2,0:3:0:0:
361,288,31138,2,0,B|373:352|373:352|399:380,2,100,2|0|0,0:3|0:0|0:0,0:0:0:0:
90,326,31427,6,0,B|118:386|208:402|264:358|284:294|284:294|294:344,1,300,4|0,3:2|1:0,0:0:0:0:
295,350,31811,5,8,3:0:0:0:
265,209,31908,1,0,0:0:0:0:
265,209,32004,2,0,L|250:135,1,75.0000028610231,2|0,0:0|0:0,0:0:0:0:
296,358,32196,5,0,3:0:0:0:
180,190,32292,1,0,0:0:0:0:
180,190,32388,2,0,L|166:117,1,75.0000028610231,2|0,0:0|0:0,0:0:0:0:
297,366,32581,5,8,3:0:0:0:
95,171,32677,1,0,0:0:0:0:
95,171,32773,2,0,L|81:98,1,75.0000028610231,2|0,0:0|0:0,0:0:0:0:
47,312,32965,6,0,B|77:250|170:244|205:308|205:308|222:334|284:364|346:265,1,300,0|0,3:0|1:0,0:0:0:0:
306,306,33350,5,8,3:0:0:0:
96,258,33446,1,0,0:0:0:0:
96,258,33542,2,0,P|64:277|39:305,1,75.0000028610231,2|0,0:0|0:0,0:0:0:0:
312,294,33734,5,0,3:0:0:0:
118,163,33831,1,0,0:0:0:0:
118,163,33927,2,0,P|81:163|46:176,1,75.0000028610231,2|0,0:0|0:0,0:0:0:0:
318,282,34119,5,8,3:0:0:0:
204,103,34215,1,0,0:0:0:0:
204,103,34311,2,0,B|166:72|166:72|117:64,1,100,2|0,0:0|0:0,0:0:0:0:
324,270,34504,5,4,3:2:0:0:
364,74,34600,2,0,B|367:142|367:142|326:186|326:186|332:305,1,200,2|0,0:0|1:0,0:0:0:0:
422,225,34888,5,2,0:3:0:0:
377,65,34984,1,0,0:0:0:0:
370,70,35081,2,0,B|374:180,1,75.0000028610231,2|0,0:0|0:0,0:0:0:0:
299,317,35273,5,4,3:2:0:0:
175,242,35369,1,2,0:0:0:0:
170,254,35466,2,0,B|96:258,1,75.0000028610231
461,108,35658,6,0,B|460:34,1,75.0000028610231
305,187,35850,1,0,3:0:0:0:
462,235,35946,1,0,3:0:0:0:
462,235,36234,6,0,B|407:288|343:246|343:246|280:207|216:263,1,239.999992675781,4|0,3:2|1:0,0:0:0:0:
212,359,36523,2,0,P|225:266|374:303,1,239.999992675781,0|0,3:0|1:0,0:0:0:0:
120,242,36811,6,0,B|175:295|239:253|239:253|302:214|366:270,1,239.999992675781,0|0,3:0|1:0,0:0:0:0:
370,366,37100,2,0,P|356:273|207:310,1,239.999992675781,0|0,3:0|1:0,0:0:0:0:
120,242,37388,2,0,P|61:259|2:223,1,119.999996337891,0|0,3:0|1:0,0:0:0:0:
3,209,37581,6,0,B|58:207|88:272|73:315|73:315|61:350,1,179.999994506836,0|0,3:0|1:0,0:0:0:0:
59,355,37965,5,8,3:0:0:0:
3,209,38061,1,0,0:0:0:0:
3,209,38158,2,0,P|54:229|70:256,1,59.9999981689454,2|0,0:0|0:0,0:0:0:0:
56,365,38350,5,0,3:0:0:0:
101,165,38446,1,0,0:0:0:0:
101,165,38543,2,0,P|135:207|135:239,1,59.9999981689454,2|0,0:0|0:0,0:0:0:0:
53,375,38734,5,8,3:0:0:0:
207,175,38831,1,0,0:0:0:0:
207,175,38927,2,0,P|215:229|199:256,1,59.9999981689454,2|0,0:0|0:0,0:0:0:0:
181,360,39119,6,0,B|155:328|155:328|306:349,1,179.999994506836,0|0,3:0|1:0,0:0:0:0:
315,352,39504,5,8,3:0:0:0:
181,360,39600,1,0,0:0:0:0:
181,360,39696,2,0,B|140:309,1,59.9999981689454,2|0,0:0|0:0,0:0:0:0:
337,358,39888,5,4,3:2:0:0:
127,294,39984,2,0,L|82:236,1,59.9999981689454
356,363,40177,1,4,3:2:0:0:
265,195,40369,5,0,3:0:0:0:
378,367,40465,2,0,L|333:309,1,59.9999981689454,4|0,3:2|1:0,0:0:0:0:
292,73,40754,2,0,P|301:152|254:202,1,139.999995727539,2|0,0:0|1:0,0:0:0:0:
253,207,41042,5,4,3:2:0:0:
292,73,41138,1,0,0:0:0:0:
292,73,41234,2,0,P|305:104|304:139,1,69.9999978637696,2|0,0:0|0:0,0:0:0:0:
240,218,41427,5,0,3:0:0:0:
385,134,41523,1,0,0:0:0:0:
385,134,41619,2,0,P|380:168|362:197,1,69.9999978637696,2|0,0:0|0:0,0:0:0:0:
227,229,41811,5,8,3:0:0:0:
435,233,41908,1,0,0:0:0:0:
435,233,42004,2,0,P|414:260|383:276,1,69.9999978637696,2|0,0:0|0:0,0:0:0:0:
214,240,42196,6,0,B|143:75|143:75|233:97,1,240,0|0,3:0|1:0,0:0:0:0:
217,95,42581,1,8,3:0:0:0:
125,249,42677,1,2,0:0:0:0:
125,249,42773,2,0,L|86:157,1,80,2|0,0:0|0:0,0:0:0:0:
303,234,42965,5,4,3:2:0:0:
214,240,43061,2,0,P|301:230|325:255,1,80,0|0,3:0|1:0,0:0:0:0:
429,375,43254,2,0,P|376:304|386:271,1,80,4|0,3:2|1:0,0:0:0:0:
400,202,43446,1,0,3:0:0:0:
439,121,43542,2,0,P|404:201|370:209,1,80,4|0,3:2|1:0,0:0:0:0:
182,102,43734,6,0,P|265:113|272:242,1,209.999993591309,4|0,3:2|1:0,0:0:0:0:
276,237,44119,5,8,3:0:0:0:
182,102,44215,1,0,0:0:0:0:
182,102,44311,2,0,P|226:97|275:117,1,69.9999978637696,2|0,0:0|0:0,0:0:0:0:
264,251,44504,5,0,3:0:0:0:
301,46,44600,1,0,0:0:0:0:
301,46,44696,2,0,P|341:63|374:105,1,69.9999978637696,2|0,0:0|0:0,0:0:0:0:
252,265,44888,5,8,3:0:0:0:
432,57,44984,1,0,0:0:0:0:
432,57,45081,2,0,P|458:92|465:145,1,69.9999978637696,2|0,0:0|0:0,0:0:0:0:
240,279,45273,6,0,B|176:281|176:281|112:304|112:304|17:272,1,209.999993591309,0|0,3:0|1:0,0:0:0:0:
30,276,45658,5,8,3:0:0:0:
240,279,45754,1,0,0:0:0:0:
240,279,45850,2,0,L|139:283,1,69.9999978637696,2|0,0:0|0:0,0:0:0:0:
22,272,46042,5,0,3:0:0:0:
252,199,46138,1,0,0:0:0:0:
252,199,46234,2,0,L|151:203,1,69.9999978637696,2|0,0:0|0:0,0:0:0:0:
14,268,46427,5,8,3:0:0:0:
264,119,46523,1,2,0:0:0:0:
264,119,46619,2,0,L|163:123,1,69.9999978637696,2|0,0:0|0:0,0:0:0:0:
5,264,46811,5,4,3:2:0:0:
111,367,46908,2,0,B|108:329|108:329|105:285|65:244|6:264,1,179.999994506836,0|0,3:0|1:0,0:0:0:0:
97,173,47196,5,8,2:3:0:0:
111,367,47292,1,0,0:0:0:0:
111,367,47388,2,0,L|102:265,1,59.9999981689454,2|0,0:0|0:0,0:0:0:0:
192,119,47581,5,0,3:0:0:0:
206,313,47677,1,0,0:0:0:0:
206,313,47773,2,0,L|196:210,1,59.9999981689454,2|0,0:0|0:0,0:0:0:0:
287,65,47966,5,8,0:3:0:0:
301,259,48062,1,0,0:0:0:0:
301,259,48158,2,2,L|301:222,3,29.9999990844727
474,143,48542,6,0,B|419:196|355:154|355:154|292:115|228:171,1,239.999992675781,4|0,3:2|1:0,0:0:0:0:
224,267,48831,2,0,P|237:174|386:211,1,239.999992675781,0|0,3:0|1:0,0:0:0:0:
132,150,49119,6,0,B|187:203|251:161|251:161|314:122|378:178,1,239.999992675781,0|0,3:0|1:0,0:0:0:0:
122,120,49408,1,0,3:0:0:0:
125,131,49504,1,0,3:0:0:0:
128,142,49600,1,0,3:0:0:0:
132,150,49696,2,0,P|73:167|14:131,1,119.999996337891,0|0,3:0|3:0,3:0:0:0:
222,279,49888,6,0,P|220:225|306:159,1,150,0|0,3:0|1:0,0:0:0:0:
305,161,50273,5,0,3:0:0:0:
123,97,50369,2,0,P|101:107|83:124,2,50
325,161,50657,5,0,3:0:0:0:
148,174,50754,2,0,P|135:194|127:218,2,50
344,160,51042,5,0,3:0:0:0:
210,229,51138,2,0,P|210:253|215:278,2,50
328,305,51426,6,0,B|327:248|327:248|344:215|344:215|343:147,1,150,0|0,3:0|1:0,0:0:0:0:
343,144,51811,5,0,3:0:0:0:
244,282,51907,2,0,L|244:332,2,50
342,129,52196,5,0,3:0:0:0:
318,264,52292,2,0,L|318:314,2,50
341,114,52580,5,0,3:0:0:0:
399,245,52676,1,2,0:0:0:0:
399,245,52773,2,0,B|398:287|398:287|415:316,1,75.0000028610231,2|0,0:0|0:0,0:0:0:0:
263,172,52965,5,0,3:0:0:0:
137,127,53061,2,0,P|171:181|254:180,1,150.000005722046,2|0,0:0|1:0,0:0:0:0:
344,253,53350,5,0,3:0:0:0:
192,370,53447,2,0,P|172:354|158:333,2,50
358,254,53735,5,0,3:0:0:0:
201,262,53832,2,0,P|192:238|191:213,2,50
372,255,54120,5,0,3:0:0:0:
262,172,54216,2,0,P|268:147|279:125,2,50
386,257,54504,6,0,B|384:142|384:142|383:97|343:61|289:67,1,225.000008583069,0|0,3:0|1:0,0:0:0:0:
301,66,54889,5,0,3:0:0:0:
248,251,54985,2,0,L|248:326,2,75.0000028610231
283,65,55274,5,2,3:0:0:0:
168,276,55370,2,0,B|167:344|167:344|191:386,1,100,2|0,0:0|1:0,0:0:0:0:
348,251,55561,2,0,L|228:251,1,100,2|0,0:0|1:0,0:0:0:0:
88,288,55754,2,0,B|86:351|86:351|48:384,2,100,2|0|0,0:0|0:0|0:0,0:0:0:0:
118,122,56042,6,0,P|147:162|155:201,1,69.9999978637696,0|0,3:0|1:0,0:0:0:0:
266,81,56331,2,0,P|236:120|202:140,1,69.9999978637696,0|0,3:0|1:0,0:0:0:0:
350,209,56619,2,0,P|303:193|273:166,1,69.9999978637696,0|0,3:0|1:0,0:0:0:0:
254,328,56908,2,0,P|254:278|270:242,1,69.9999978637696,0|0,3:0|1:0,0:0:0:0:
111,273,57196,2,0,P|158:257|197:262,1,69.9999978637696,0|0,3:0|1:0,0:0:0:0:
111,273,57484,6,0,P|86:302|30:334,1,69.9999978637696,0|0,3:0|1:0,0:0:0:0:
254,328,57773,2,0,P|289:372|298:406,1,69.9999978637696,0|0,3:0|1:0,0:0:0:0:
350,209,58061,2,0,P|383:199|418:201,1,69.9999978637696,0|0,3:0|1:0,0:0:0:0:
266,81,58350,2,0,P|267:46|279:13,1,69.9999978637696,0|0,3:0|1:0,0:0:0:0:
118,122,58638,2,0,P|85:110|58:88,1,69.9999978637696,0|0,3:0|1:0,0:0:0:0:
220,201,58927,1,0,3:0:0:0:
98,99,59119,5,0,3:0:0:0:
118,122,59216,1,2,0:0:0:0:
120,136,59311,1,2,0:0:0:0:
121,149,59408,1,2,0:0:0:0:
86,301,59504,5,0,3:0:0:0:
111,273,59600,1,2,0:0:0:0:
128,275,59695,1,2,0:0:0:0:
145,277,59792,1,2,0:0:0:0:
271,354,59888,5,0,3:0:0:0:
255,326,59985,1,2,0:0:0:0:
264,307,60080,1,2,0:0:0:0:
273,288,60177,1,2,0:0:0:0:
382,201,60273,5,0,3:0:0:0:
349,209,60369,1,2,0:0:0:0:
331,189,60464,1,2,0:0:0:0:
314,170,60561,1,2,0:0:0:0:
267,81,60658,6,2,L|260:39,1,37.5000014305115
239,86,60754,2,2,L|246:44,1,37.5000014305115
211,81,60850,2,2,L|232:44,1,37.5000014305115
186,66,60946,2,2,L|218:38,1,37.5000014305115
165,34,61042,6,2,L|158:76,1,37.5000014305115
137,29,61138,2,2,L|144:70,1,37.5000014305115
109,34,61234,2,2,L|130:70,1,37.5000014305115
84,49,61330,2,2,L|116:76,1,37.5000014305115
66,70,61427,5,2,0:0:0:0:
394,317,62196,1,0,3:0:0:0:
256,192,62292,12,0,64504,0:0:0:0:
394,317,64696,5,0,0:3:0:0:
405,296,64792,1,0,0:3:0:0:
417,275,64888,1,0,0:3:0:0:
381,336,64984,2,0,P|334:352|273:336,1,80,0|0,3:0|1:0,0:0:0:0:
475,335,65273,6,0,L|488:373,2,40,4|0|0,3:2|0:0|0:0,0:0:0:0:
416,274,65561,2,0,L|429:237,2,40,2|0|0,0:0|0:0|0:0,0:0:0:0:
480,328,65850,2,0,L|492:365,1,40,2|0,0:0|0:0,0:0:0:0:
317,330,66042,6,0,L|361:335,2,40,2|0|0,0:0|0:0|0:0,0:0:0:0:
241,365,66331,2,0,L|197:370,2,40,2|0|0,0:0|0:0|0:0,0:0:0:0:
311,320,66619,2,0,L|355:325,1,40,2|0,0:0|0:0,0:0:0:0:
251,248,66811,6,0,P|249:220|255:195,2,40,2|0|0,0:0|0:0|0:0,0:0:0:0:
350,324,67100,2,0,P|352:343|349:363,2,40,2|0|0,0:0|0:0|0:0,0:0:0:0:
245,247,67388,2,0,P|243:219|249:194,1,40,2|0,0:0|0:0,0:0:0:0:
233,377,67581,6,0,L|178:383,3,40,2|0|0|0,0:0|0:0|0:0|0:0,0:0:0:0:
118,337,67965,2,0,L|63:331,3,40,2|0|0|0,0:0|0:0|0:0|0:0,0:0:0:0:
126,120,68350,6,0,P|136:156|137:179,2,40,6|0|0,3:2|0:0|0:0,0:0:0:0:
219,170,68638,2,0,P|209:206|208:229,2,40,2|0|0,0:0|0:0|0:0,0:0:0:0:
119,123,68927,2,0,P|129:159|130:182,1,40,2|0,0:0|0:0,0:0:0:0:
259,85,69119,6,0,P|239:81|221:75,2,40,2|0|0,0:0|0:0|0:0,0:0:0:0:
342,47,69408,2,0,P|360:40|380:36,2,40,2|0|0,0:0|0:0|0:0,0:0:0:0:
257,91,69696,2,0,P|237:87|219:81,1,40,2|0,0:0|0:0,0:0:0:0:
341,192,69888,6,0,P|347:161|344:135,2,40,2|0|0,0:0|0:0|0:0,0:0:0:0:
375,266,70177,2,0,P|381:297|378:323,2,40,2|0|0,0:0|0:0|0:0,0:0:0:0:
331,191,70465,2,0,P|337:160|334:134,1,40,2|0,0:0|0:0,0:0:0:0:
301,366,70658,1,2,0:0:0:0:
301,366,70754,1,2,0:0:0:0:
301,366,70850,1,2,0:0:0:0:
268,269,70946,6,0,L|210:257,1,40,0|0,3:0|0:0,0:0:0:0:
78,234,71138,2,0,L|136:222,1,40,0|0,3:0|0:0,0:0:0:0:
117,226,71427,6,0,B|96:269|115:303|128:300|142:340|122:382,1,160,4|0,3:2|1:0,0:0:0:0:
55,345,71908,2,0,P|31:340|7:342,2,40,2|0|0,0:0|0:0|0:0,0:0:0:0:
188,257,72196,2,0,P|212:252|236:254,2,40,2|0|0,0:0|0:0|0:0,0:0:0:0:
59,339,72484,2,0,P|35:334|11:336,1,40,2|0,0:0|0:0,0:0:0:0:
117,226,72677,2,0,L|115:185,2,40,2|0|0,0:0|0:0|0:0,0:0:0:0:
3,103,72965,6,0,B|57:104|57:104|87:88|87:88|153:90,1,150.000005722046,4|0,3:2|1:0,0:0:0:0:
242,240,73254,2,0,B|213:220|209:171|209:171|246:142|288:153,1,150.000005722046,4|0,3:2|1:0,0:0:0:0:
393,210,73542,2,0,B|400:137|400:137|362:44,1,150.000005722046,4|0,3:2|1:0,0:0:0:0:
242,240,73831,2,0,B|235:313|235:313|263:383,1,150.000005722046,4|0,3:2|1:0,0:0:0:0:
277,384,74119,1,0,3:0:0:0:
489,309,74215,2,0,L|328:308,1,150.000005722046,4|0,3:2|1:0,0:0:0:0:
136,303,74504,5,4,3:2:0:0:
120,302,74600,1,0,0:0:0:0:
104,301,74696,1,0,0:0:0:0:
88,301,74792,2,0,P|81:274|83:246,1,40,2|0,0:0|0:0,0:0:0:0:
193,181,74984,1,0,0:0:0:0:
201,195,75080,2,0,P|181:214|155:226,1,40,2|0,0:0|0:0,0:0:0:0:
27,191,75273,5,0,0:0:0:0:
35,177,75369,1,0,0:0:0:0:
44,164,75465,1,0,0:0:0:0:
52,150,75561,2,0,P|78:157|102:173,1,40,2|0,0:0|0:0,0:0:0:0:
193,181,75754,1,0,0:0:0:0:
201,195,75850,2,0,P|227:187|251:171,1,40,2|0,0:0|0:0,0:0:0:0:
351,88,76042,5,0,0:0:0:0:
335,84,76138,1,0,0:0:0:0:
319,86,76234,1,0,0:0:0:0:
305,94,76331,2,0,L|308:164,1,40,2|0,0:0|0:0,0:0:0:0:
375,210,76523,1,0,0:0:0:0:
389,218,76620,2,0,L|386:288,1,40,2|0,0:0|0:0,0:0:0:0:
189,375,76811,5,0,0:0:0:0:
185,359,76907,1,0,0:0:0:0:
187,343,77003,1,0,0:0:0:0:
195,329,77100,2,0,L|265:332,1,40,2|0,0:0|0:0,0:0:0:0:
356,370,77292,1,0,0:0:0:0:
364,384,77389,2,0,L|434:381,1,40,2|0,0:0|0:0,0:0:0:0:
281,245,77581,5,2,0:0:0:0:
265,244,77677,1,0,0:0:0:0:
249,243,77773,1,0,0:0:0:0:
233,243,77869,1,0,0:0:0:0:
217,243,77965,2,0,L|169:241,1,40,2|0,0:0|0:0,0:0:0:0:
111,110,78158,2,0,L|109:158,1,40,2|0,0:0|0:0,0:0:0:0:
20,309,78350,5,2,0:0:0:0:
35,303,78446,1,0,0:0:0:0:
50,305,78542,1,0,0:0:0:0:
64,311,78638,1,0,0:0:0:0:
75,321,78734,2,0,L|77:374,1,40,2|0,0:0|0:0,0:0:0:0:
177,241,78927,2,0,L|175:294,1,40,2|0,0:0|0:0,0:0:0:0:
111,110,79119,5,2,0:0:0:0:
126,113,79215,1,0,0:0:0:0:
141,116,79311,1,0,0:0:0:0:
156,119,79408,1,0,0:0:0:0:
171,121,79504,1,2,0:0:0:0:
186,125,79600,1,0,0:0:0:0:
201,126,79696,1,0,0:0:0:0:
216,124,79792,1,0,0:0:0:0:
231,118,79888,1,2,0:0:0:0:
245,110,79984,1,0,0:0:0:0:
253,96,80081,1,0,0:0:0:0:
254,80,80177,1,0,0:0:0:0:
248,64,80273,2,0,L|231:16,1,40,2|0,0:0|0:0,0:0:0:0:
80,153,80465,5,0,3:0:0:0:
80,153,80561,1,0,3:0:0:0:
80,153,80658,6,0,P|115:186|131:221,1,69.9999978637696,0|0,3:0|1:0,0:0:0:0:
218,85,80946,2,0,P|195:128|165:153,1,69.9999978637696,0|0,3:0|1:0,0:0:0:0:
323,197,81234,2,0,P|274:189|239:167,1,69.9999978637696,0|0,3:0|1:0,0:0:0:0:
249,331,81523,2,0,P|240:280|250:243,1,69.9999978637696,0|0,3:0|1:0,0:0:0:0:
99,302,81811,2,0,P|143:277|182:276,1,69.9999978637696,0|0,3:0|1:0,0:0:0:0:
99,302,82099,6,0,P|79:334|30:376,1,69.9999978637696,0|0,3:0|1:0,0:0:0:0:
249,331,82388,2,0,P|291:367|305:399,1,69.9999978637696,0|0,3:0|1:0,0:0:0:0:
323,197,82676,2,0,P|354:180|387:176,1,69.9999978637696,0|0,3:0|1:0,0:0:0:0:
218,85,82965,2,0,P|213:49|219:15,1,69.9999978637696,0|0,3:0|1:0,0:0:0:0:
80,153,83253,2,0,P|45:146|15:129,1,69.9999978637696,0|0,3:0|1:0,0:0:0:0:
2,112,83542,1,0,3:0:0:0:
80,153,83734,5,0,3:0:0:0:
80,153,83831,1,2,0:0:0:0:
84,165,83926,1,2,0:0:0:0:
88,177,84023,1,2,0:0:0:0:
87,295,84119,5,0,3:0:0:0:
99,302,84215,1,2,0:0:0:0:
117,301,84310,1,2,0:0:0:0:
134,299,84407,1,2,0:0:0:0:
232,339,84503,5,0,3:0:0:0:
250,329,84600,1,2,0:0:0:0:
256,309,84696,1,2,0:0:0:0:
262,287,84792,1,2,0:0:0:0:
334,234,84888,5,0,3:0:0:0:
323,196,84984,1,2,0:0:0:0:
301,180,85081,1,2,0:0:0:0:
281,164,85177,1,2,0:0:0:0:
220,85,85273,6,2,L|206:44,1,37.5000014305115
193,95,85369,2,2,L|193:51,1,37.5000014305115
165,95,85465,2,2,L|180:54,1,37.5000014305115
137,85,85561,2,2,L|163:50,1,37.5000014305115
111,57,85657,6,2,L|111:99,1,37.5000014305115
83,55,85753,2,2,L|97:93,1,37.5000014305115
56,66,85849,2,2,L|83:97,1,37.5000014305115
34,86,85945,2,2,L|70:106,1,37.5000014305115
20,108,86042,5,2,0:0:0:0:
20,108,86811,6,0,B|131:52|252:100|252:100|322:199|265:353|265:353|149:307|120:173|120:173|287:158|431:308,1,1050.00004005432,4|0,3:2|1:0,0:0:0:0:
411,277,87581,6,0,P|390:254|370:243,1,44.999998626709,8|0,0:0|0:0,0:0:0:0:
168,250,87965,6,0,B|127:280|63:280|28:188|38:153|131:66|264:105|276:276|180:383|56:332,1,550,0|0,3:0|1:0,0:0:0:0:
44,323,89119,6,0,P|202:294|440:364,1,405.000001544952,8|0,0:0|1:0,0:0:0:0:
506,349,89504,2,0,P|464:353|422:344,1,80,2|0,0:0|0:0,0:0:0:0:
80,229,89888,6,0,B|228:145|396:234|396:234|330:340|230:346|230:346|170:167|235:36|235:36|157:110|30:92,1,1050.00004005432,0|0,3:0|1:0,0:0:0:0:
0,50,90658,2,0,P|79:66|142:102,1,104.999996795654,8|0,0:0|1:0,0:0:0:0:
241,111,90850,2,0,P|288:101|326:79,1,50,0|0,3:0|1:0,0:0:0:0:
426,0,91042,6,0,B|339:50|353:137|402:179|417:180|534:243|476:386|384:443|255:375|236:215|328:154|434:216,1,659.999979858399,0|0,3:0|1:0,0:0:0:0:
512,236,92196,6,0,P|361:197|268:38,1,239.999992675781,12|0,0:2|1:0,0:0:0:0:
239,20,92484,2,0,P|281:168|190:330,1,239.999992675781,0|0,3:0|1:0,0:0:0:0:
189,364,92773,2,0,P|297:253|354:242,1,119.999996337891,0|0,3:0|1:0,0:0:0:0:
490,143,92965,6,0,B|332:210|176:112|176:112|228:34|310:34|310:34|395:136|364:310|364:310|261:227|108:207,1,1050.00004005432,0|0,3:0|1:0,0:0:0:0:
111,198,93734,6,0,P|144:201|166:208,1,44.999998626709,8|0,0:0|1:0,0:0:0:0:
223,306,94119,6,0,B|279:379|396:354|424:268|375:140|252:186|252:186|194:205|131:170|101:92,1,550,0|0,3:0|1:0,0:0:0:0:
128,109,95273,6,0,B|216:212|150:356|150:356|43:376|-53:239,1,405.000001544952,8|0,0:0|1:0,0:0:0:0:
0,304,95658,2,0,P|76:295|117:302,1,100,2|0,0:0|0:0,0:0:0:0:
238,234,96042,6,0,B|395:188|504:273|504:273|463:359|380:350|380:350|315:256|353:149|353:149|281:121|145:179,1,839.999974365235,0|0,3:0|1:0,0:0:0:0:
56,239,96811,2,0,P|142:256|227:244,1,89.9999972534181,8|0,0:0|1:0,0:0:0:0:
52,117,97004,2,0,P|11:121|-27:132,1,50,0|0,3:0|1:0,0:0:0:0:
277,274,97196,6,0,B|376:213|247:105|277:57|387:50|404:86|414:144|369:179|311:166,1,350,0|0,3:0|1:0,0:0:0:0:
155,143,97965,5,0,3:0:0:0:
202,66,98061,2,0,P|269:70|331:96,1,100,0|0,0:0|1:0,0:0:0:0:
431,284,98254,1,0,3:0:0:0:
507,174,98350,2,0,P|435:176|380:211,2,100,8|0|0,0:0|0:0|0:0,0:0:0:0:
416,298,98638,2,0,P|346:249|316:208,1,100,2|0,0:0|1:0,0:0:0:0:
299,79,98831,2,0,P|310:197|254:335,1,200,0|0,3:0|1:0,0:0:0:0:
27,255,99119,6,0,B|148:144|320:186|320:186|314:303|226:344|226:344|132:237|180:53|304:-1,1,909.999958343508,4|0,3:2|1:0,0:0:0:0:
318,7,99888,6,0,P|295:20|265:27,1,44.999998626709,8|0,0:0|1:0,0:0:0:0:
132,106,100273,6,0,B|91:136|27:136|-8:44|2:9|119:-42|229:-10|156:130|92:209|265:303,1,550,0|0,3:0|1:0,0:0:0:0:
356,253,101427,6,0,P|166:206|18:332,1,405.000001544952,8|0,0:0|1:0,0:0:0:0:
107,380,101811,2,0,P|106:340|98:300,1,80,2|0,0:0|0:0,0:0:0:0:
122,19,102196,6,0,B|137:117|63:195|63:195|194:130|373:190|373:190|367:290|261:356|261:356|172:188|255:41,1,1050.00004005432,0|0,3:0|1:0,0:0:0:0:
429,56,102965,6,0,P|304:78|253:66,1,104.999996795654,8|0,0:0|1:0,0:0:0:0:
462,136,103158,2,0,P|521:126|536:130,1,50,0|0,3:0|1:0,0:0:0:0:
438,234,103350,6,0,B|378:224|351:175|351:175|331:116|214:99|181:237|294:273|294:273|242:216|151:216|100:266|87:369,1,659.999979858399,0|0,3:0|1:0,0:0:0:0:
177,384,104504,6,0,P|195:250|130:118,1,239.999992675781,8|0,0:0|1:0,0:0:0:0:
240,25,104792,2,0,P|201:137|221:254,1,239.999992675781,4|0,3:2|1:0,0:0:0:0:
411,321,105081,2,0,P|319:327|256:370,1,119.999996337891,4|0,3:2|1:0,0:0:0:0:
40,240,105273,6,0,B|125:330|255:326|255:326|355:257|354:93|354:93|229:97|156:213|156:213|307:284|494:192,1,1050.00004005432,0|0,3:0|1:0,0:0:0:0:
495,157,106042,6,0,P|464:185|454:193,1,44.999998626709,8|0,0:0|1:0,0:0:0:0:
311,58,106427,6,0,B|386:92|373:199|334:233|321:234|227:284|274:400|348:412|453:391|468:262|394:212|324:254,1,550,0|0,3:0|1:0,0:0:0:0:
218,291,107581,6,0,B|327:196|475:239|475:239|388:213|334:93,1,405.000001544952,8|0,0:0|1:0,0:0:0:0:
339,30,107965,2,0,P|351:88|381:129,1,100,2|0,0:0|0:0,0:0:0:0:
448,275,108350,6,0,B|272:217|276:28|276:28|387:-4|442:79|442:79|366:226|171:230,1,839.999974365235,0|0,3:0|1:0,0:0:0:0:
114,166,109119,2,0,P|115:82|130:44,1,89.9999972534181,8|0,0:0|1:0,0:0:0:0:
66,246,109311,2,0,P|65:290|71:318,1,50,0|0,3:0|1:0,0:0:0:0:
183,370,109504,1,0,3:0:0:0:
256,192,109600,12,0,111331,0:0:0:0:
136,344,111427,6,0,B|194:337|194:337|227:312|227:312|286:307,1,160,0|0,3:0|0:0,0:0:0:0:
345,360,111715,1,0,0:0:0:0:
165,254,111811,2,0,P|158:217|184:148,1,80,8|0,3:0|1:0,0:0:0:0:
354,267,112004,2,0,P|365:231|349:159,1,80,0|0,3:0|1:0,0:0:0:0:
293,32,112196,6,0,B|254:49|238:86|238:86|200:54|140:67,1,160,0|0,3:0|0:0,0:0:0:0:
87,133,112484,1,0,0:0:0:0:
296,192,112581,2,0,L|323:96,1,80,8|0,3:0|1:0,0:0:0:0:
165,254,112773,2,0,L|192:350,1,80,0|0,3:0|1:0,0:0:0:0:
443,297,112965,6,0,B|466:256|466:256|315:270,1,160,0|0,3:0|0:0,0:0:0:0:
256,279,113254,1,0,0:0:0:0:
386,178,113350,2,0,L|500:171,1,80,8|0,3:0|1:0,0:0:0:0:
392,361,113542,2,0,L|313:366,1,80,0|0,3:0|1:0,0:0:0:0:
242,90,113734,6,0,P|217:183|112:150,1,160,0|0,3:0|0:0,0:0:0:0:
93,146,114023,1,0,0:0:0:0:
295,21,114119,2,0,P|324:71|328:132,1,80,8|0,3:0|1:0,0:0:0:0:
134,264,114311,2,0,P|173:273|213:271,1,80,0|0,3:0|1:0,0:0:0:0:
432,158,114504,6,0,B|425:216|425:216|400:249|400:249|395:308,1,160,4|0,3:2|0:0,0:0:0:0:
448,367,114792,1,0,0:0:0:0:
342,187,114888,2,0,P|305:180|236:206,1,80,8|0,3:0|1:0,0:0:0:0:
277,384,115081,2,0,P|316:387|355:376,1,80,0|0,3:0|1:0,0:0:0:0:
106,163,115273,6,0,B|115:204|149:226|149:226|111:258|113:319,1,160,0|0,3:0|0:0,0:0:0:0:
169,383,115561,1,0,0:0:0:0:
263,188,115658,2,0,L|173:144,1,80,8|0,3:0|1:0,0:0:0:0:
301,327,115850,2,0,L|400:317,1,80,0|0,3:0|1:0,0:0:0:0:
512,120,116042,6,0,B|441:191|364:139|364:139|357:27|483:11,1,300,0|0,3:0|1:0,0:0:0:0:
329,260,116427,2,0,B|328:218|307:193|307:193|377:260|493:234,1,200,0|0,3:0|1:0,0:0:0:0:
507,223,116715,1,0,3:0:0:0:
248,249,116811,2,0,B|171:243|171:243|105:300|105:300|-21:291,1,239.999992675781,4|0,3:2|1:0,0:0:0:0:
140,82,117100,2,0,B|149:159|149:159|79:219|79:219|8:214,1,239.999992675781,4|0,3:2|1:0,0:0:0:0:
45,118,117388,1,0,3:0:0:0:
248,249,117484,1,0,3:0:0:0:
247,165,117581,6,0,P|325:220|286:320,1,160,0|0,3:0|0:0,0:0:0:0:
265,331,117870,1,0,0:0:0:0:
416,253,117966,2,0,P|411:293|396:330,1,80,8|0,3:0|1:0,0:0:0:0:
277,82,118158,2,0,P|237:80|199:90,1,80,0|0,3:0|1:0,0:0:0:0:
38,316,118350,6,0,B|86:300|94:261|94:261|125:295|191:281,1,160,0|0,3:0|0:0,0:0:0:0:
248,249,118638,1,0,0:0:0:0:
25,145,118735,2,0,L|15:244,1,80,8|0,3:0|1:0,0:0:0:0:
206,169,118927,2,0,L|196:69,1,80,0|0,3:0|1:0,0:0:0:0:
469,136,119119,6,0,B|462:194|462:194|437:227|437:227|432:286,1,160,0|0,3:0|0:0,0:0:0:0:
485,345,119407,1,0,0:0:0:0:
379,165,119503,2,0,P|342:158|273:184,1,80,8|0,3:0|1:0,0:0:0:0:
314,362,119696,2,0,P|353:365|391:353,1,80,0|0,3:0|1:0,0:0:0:0:
65,253,119888,6,0,B|42:294|42:294|193:280,1,160,0|0,3:0|0:0,0:0:0:0:
252,271,120177,1,0,0:0:0:0:
116,189,120273,2,0,L|195:184,1,80,4|0,3:2|1:0,0:0:0:0:
42,376,120465,2,0,L|122:372,1,80,0|0,3:0|1:0,0:0:0:0:
402,12,120658,6,0,B|308:0|282:225|448:108|472:201|413:304|369:263,1,320,4|0,3:2|0:0,0:0:0:0:
407,262,121234,1,0,3:0:0:0:
402,12,121427,2,0,B|418:88|326:133|261:84|261:84|173:6,1,320,4|0,3:2|1:0,0:0:0:0:
102,38,121908,1,0,3:0:0:0:
229,165,122004,1,0,3:0:0:0:
229,165,122100,2,0,L|182:117,1,40,0|0,3:0|3:0,3:0:0:0:
306,200,122196,6,0,B|286:251|238:259|202:248|202:248|281:291|270:372,1,200,4|0,3:2|1:0,0:0:0:0:
28,368,122484,2,0,P|135:315|208:397,1,200,4|0,3:2|1:0,0:0:0:0:
46,201,122773,2,0,P|80:304|2:376,1,200,4|0,3:2|1:0,0:0:0:0:
98,135,123061,2,0,B|142:168|160:224|160:224|157:159|213:94,1,200,4|0,3:2|1:0,0:0:0:0:
250,68,123350,1,8,3:0:0:0:
250,68,123542,2,0,P|189:122|172:164,1,100,0|0,3:0|1:0,0:0:0:0:
136,344,123734,6,0,B|194:337|194:337|227:312|227:312|286:307,1,160,0|0,3:0|0:0,0:0:0:0:
345,360,124022,1,0,0:0:0:0:
39,334,124118,2,0,P|51:298|108:251,1,80,8|0,3:0|1:0,0:0:0:0:
444,358,124311,2,0,P|435:321|385:266,1,80,0|0,3:0|1:0,0:0:0:0:
137,204,124504,6,0,P|195:251|264:220,1,160,0|0,3:0|0:0,0:0:0:0:
280,134,124793,1,0,0:0:0:0:
50,192,124889,2,0,P|58:230|77:265,1,80,8|0,3:0|1:0,0:0:0:0:
337,245,125081,2,0,P|316:279|287:306,1,80,0|0,3:0|1:0,0:0:0:0:
8,99,125273,6,0,B|97:92|97:92|134:136|218:137,1,160,0|0,3:0|0:0,0:0:0:0:
242,90,125561,1,0,0:0:0:0:
119,229,125658,2,0,P|81:216|50:192,1,80,8|0,3:0|1:0,0:0:0:0:
331,165,125850,2,0,B|336:244,1,80,0|0,0:0|1:0,0:0:0:0:
119,229,126042,6,0,B|185:233|185:233|256:240|280:311|236:357,1,200,4|0,3:2|1:0,0:0:0:0:
50,192,126331,2,0,B|91:153|91:153|234:163,1,200,4|0,3:2|1:0,0:0:0:0:
183,310,126619,2,0,L|84:301,1,100,4|0,3:2|1:0,0:0:0:0:
53,75,126811,6,0,P|128:90|95:11,1,160,0|0,3:0|0:0,0:0:0:0:
230,86,127099,1,0,0:0:0:0:
59,195,127195,2,0,P|52:232|78:301,1,80,8|0,3:0|1:0,0:0:0:0:
230,86,127388,2,0,P|240:47|237:8,1,80,0|0,3:0|1:0,0:0:0:0:
247,291,127581,6,0,B|270:250|270:250|119:264,1,160,0|0,3:0|0:0,0:0:0:0:
60,273,127869,1,0,0:0:0:0:
190,172,127965,2,0,L|304:165,1,80,8|0,3:0|1:0,0:0:0:0:
117,360,128158,2,0,L|196:355,1,80,0|0,3:0|1:0,0:0:0:0:
412,357,128350,6,0,B|402:247|402:247|433:201|433:201|423:90,1,269.999991760254,0|0,3:2|1:0,0:0:0:0:
423,97,128734,2,0,P|413:186|328:141,1,179.999994506836,8|0,3:0|3:0,0:0:0:0:
337,164,129023,1,0,3:0:0:0:
392,285,129119,6,0,B|306:277|268:218|268:218|246:263|173:263,1,220.000006713867,4|0,3:2|1:0,0:0:0:0:
88,145,129408,2,0,P|148:143|215:204,1,110.000003356934,4|0,3:2|1:0,0:0:0:0:
210,259,129600,1,0,0:0:0:0:
276,109,129696,2,0,L|285:-11,1,110.000003356934,4|0,3:2|1:0,0:0:0:0:
444,78,129888,6,0,B|437:136|437:136|412:169|412:169|407:228,1,160,0|0,3:0|0:0,0:0:0:0:
460,287,130177,1,0,0:0:0:0:
354,107,130273,2,0,P|317:100|248:126,1,80,8|0,3:0|1:0,0:0:0:0:
367,296,130466,2,0,P|331:307|259:291,1,80,0|0,3:0|1:0,0:0:0:0:
53,236,130658,6,0,B|70:197|107:181|107:181|75:143|88:83,1,160,0|0,3:0|0:0,0:0:0:0:
154,30,130946,1,0,0:0:0:0:
213,239,131043,2,0,L|117:266,1,80,8|0,3:0|1:0,0:0:0:0:
275,108,131235,2,0,L|371:135,1,80,0|0,3:0|1:0,0:0:0:0:
501,293,131427,6,0,B|520:250|520:250|371:277,1,160,0|0,3:0|0:0,0:0:0:0:
313,291,131716,1,0,0:0:0:0:
433,179,131812,2,0,L|545:162,1,80,8|0,3:0|1:0,0:0:0:0:
455,361,132004,2,0,L|376:372,1,80,0|0,3:0|1:0,0:0:0:0:
114,245,132196,6,0,P|197:293|248:195,1,160,0|0,3:0|0:0,0:0:0:0:
258,179,132485,1,0,0:0:0:0:
27,233,132581,2,0,P|41:288|82:334,1,80,8|0,3:0|1:0,0:0:0:0:
313,291,132773,2,0,P|291:324|262:351,1,80,0|0,3:0|1:0,0:0:0:0:
188,95,132965,6,0,B|237:45|327:67|352:132|352:132|368:171|426:195|482:183,1,300,4|0,3:2|0:0,0:0:0:0:
154,178,133734,2,0,P|164:111|240:61,1,150,4|0,3:2|1:0,0:0:0:0:
251,168,134119,1,2,0:0:0:0:
210,251,134215,1,2,0:0:0:0:
323,30,134311,1,0,3:0:0:0:
323,30,134408,1,0,3:0:0:0:
323,30,134696,6,0,B|347:127|449:112|449:112|483:23,1,239.999992675781,0|0,3:0|1:0,0:0:0:0:
512,201,134984,2,0,B|415:173|377:269|377:269|438:343,1,239.999992675781,0|0,3:0|1:0,0:0:0:0:
269,279,135273,2,0,B|341:209|277:128|277:128|182:143,1,239.999992675781,0|0,3:0|1:0,0:0:0:0:
32,181,135513,1,0,3:0:0:0:
32,181,135561,2,0,B|111:168|111:168|147:184|147:184|176:157|176:157|280:139,1,239.999992675781,0|0,3:0|1:0,0:0:0:0:
114,367,135850,2,0,P|90:333|111:230,1,119.999996337891,0|0,3:0|1:0,0:0:0:0:
347,130,136042,5,0,3:0:0:0:
256,192,136138,12,0,137677,1:0:0:0:
