osu file format v14

[General]
AudioFilename: audio.mp3
AudioLeadIn: 0
PreviewTime: 86037
Countdown: 0
SampleSet: Soft
StackLeniency: 0.2
Mode: 0
LetterboxInBreaks: 0
WidescreenStoryboard: 1

[Editor]
Bookmarks: 644,12951,19105,22182,23720,24490,25259,31413,37567,49874,56028,59105,60644,61413,62182,74490,80644,83720,85259,86028,86797,99105,111413,123720,137567
DistanceSpacing: 0.4
BeatDivisor: 4
GridSize: 16
TimelineZoom: 3.299999

[Metadata]
Title:Ether Strike
TitleUnicode:Ether Strike
Artist:Akira Complex
ArtistUnicode:Akira Complex
Creator:Mun
Version:Icekalt's Extra
Source:Arcaea
Tags:aether mir icekalt xenon- xehn rhonen english electronic hypersynthetic
BeatmapID:1974246
BeatmapSetID:945019

[Difficulty]
HPDrainRate:5.6
CircleSize:3.3
OverallDifficulty:8.2
ApproachRate:9.3
SliderMultiplier:2
SliderTickRate:1

[Events]
//Background and Video events
0,0,"bastien-grivet-img-3141.jpg",0,0
//Break Periods
2,65473,67796
2,68550,70391
2,75473,77027
2,77781,79911
//Storyboard Layer 0 (Background)
//Storyboard Layer 1 (Fail)
//Storyboard Layer 2 (Pass)
//Storyboard Layer 3 (Foreground)
//Storyboard Sound Samples

[TimingPoints]
658,384.615384615385,4,2,1,100,1,0
658,-76.9230769230769,4,2,1,100,0,0
6042,-142.857142857143,4,2,1,100,0,0
6811,-76.9230769230769,4,2,1,100,0,0
11234,-100,4,2,1,100,0,0
11619,-76.9230769230769,4,2,1,100,0,0
12965,-76.9230769230769,4,2,1,60,0,0
19119,-76.9230769230769,4,2,1,70,0,1
19696,-66.6666666666667,4,2,1,70,0,1
20273,-58.8235294117647,4,2,1,70,0,1
20561,-58.8235294117647,4,2,1,75,0,1
20850,-52.6315789473684,4,2,1,75,0,1
21427,-47.6190476190476,4,2,1,75,0,1
22196,-47.6190476190476,4,2,1,80,0,1
23734,-47.6190476190476,4,2,1,85,0,1
24456,-47.6190476190476,4,2,1,85,0,0
25273,-66.6666666666667,4,2,1,70,0,0
30946,-66.6666666666667,4,2,1,90,0,0
31424,-66.6666666666667,4,2,1,80,0,0
31427,-52.6315789473684,4,2,1,80,0,0
31811,-66.6666666666667,4,2,1,80,0,0
34504,-52.6315789473684,4,2,1,100,0,0
34888,-52.6315789473684,4,2,1,80,0,0
36234,-52.6315789473684,4,2,1,100,0,0
37581,-52.6315789473684,4,2,1,90,0,0
37965,-66.6666666666667,4,2,1,90,0,0
39888,-66.6666666666667,4,2,1,100,0,0
40658,-100,4,2,1,100,0,0
40754,-100,4,2,1,90,0,0
41042,-66.6666666666667,4,2,1,90,0,0
42965,-66.6666666666667,4,2,1,100,0,0
43734,-66.6666666666667,4,2,1,90,0,0
46811,-52.6315789473684,4,2,1,90,0,0
46908,-52.6315789473684,4,2,1,100,0,0
47292,-52.6315789473684,4,2,1,90,0,0
48542,-52.6315789473684,4,2,1,100,0,0
49888,-52.6315789473684,4,2,1,70,0,0
50273,-83.3333333333333,4,2,1,70,0,0
56042,-71.4285714285714,4,2,1,70,0,1
56619,-62.5,4,2,1,70,0,1
57196,-55.5555555555556,4,2,1,70,0,1
57484,-55.5555555555556,4,2,1,75,0,1
57773,-50,4,2,1,75,0,1
58350,-45.4545454545455,4,2,1,75,0,1
59119,-45.4545454545455,4,2,1,80,0,1
60658,-45.4545454545455,4,2,1,85,0,1
61427,-66.6666666666667,4,2,1,85,0,0
62196,-66.6666666666667,4,2,1,100,0,0
64696,-66.6666666666667,4,2,1,70,0,0
65273,-66.6666666666667,4,2,1,60,0,0
70850,-66.6666666666667,4,2,1,60,0,0
72965,-66.6666666666667,4,2,1,100,0,0
74504,-100,4,2,1,60,0,0
80658,-66.6666666666667,4,2,1,70,0,1
81234,-58.8235294117647,4,2,1,70,0,1
81811,-52.6315789473684,4,2,1,70,0,1
82100,-52.6315789473684,4,2,1,75,0,1
82388,-47.6190476190476,4,2,1,75,0,1
82965,-43.4782608695652,4,2,1,75,0,1
83734,-43.4782608695652,4,2,1,80,0,1
85273,-43.4782608695652,4,2,1,90,0,1
85994,-43.4782608695652,4,2,1,90,0,0
86811,-285.714285714284,4,2,1,100,0,1
89119,-100,4,2,1,100,0,1
89888,-285.714285714284,4,2,1,100,0,1
91042,-100,4,2,1,100,0,1
92965,-285.714285714284,4,2,1,100,0,1
95273,-100,4,2,1,100,0,1
96042,-285.714285714284,4,2,1,100,0,1
97196,-100,4,2,1,100,0,1
98254,-66.6666666666667,4,2,1,100,0,1
99119,-285.714285714284,4,2,1,100,0,1
101427,-100,4,2,1,100,0,1
102196,-285.714285714284,4,2,1,100,0,1
103350,-100,4,2,1,100,0,1
105273,-285.714285714284,4,2,1,100,0,1
107581,-100,4,2,1,100,0,1
108350,-285.714285714284,4,2,1,100,0,1
109504,-100,4,2,1,100,0,1
111427,-66.6666666666667,4,2,1,90,0,0
114504,-55.5555555555556,4,2,1,90,0,0
114888,-66.6666666666667,4,2,1,90,0,0
115273,-55.5555555555556,4,2,1,90,0,0
115658,-66.6666666666667,4,2,1,90,0,0
116042,-55.5555555555556,4,2,1,90,0,0
117581,-62.5,4,2,1,90,0,0
119888,-55.5555555555556,4,2,1,90,0,0
120658,-153.846153846153,4,2,1,90,0,0
122004,-47.6190476190476,4,2,1,90,0,0
122196,-47.6190476190476,4,2,1,100,0,0
123734,-58.8235294117647,4,2,1,90,0,0
126042,-50,4,2,1,90,0,0
127196,-55.5555555555556,4,2,1,90,0,0
128350,-50,4,2,1,90,0,0
132196,-45.4545454545455,4,2,1,90,0,0
132965,-153.846153846153,4,2,1,100,0,0
134504,-50,4,2,1,100,0,0
136042,-100,4,2,1,100,0,0

[Colours]
Combo1 : 133,154,186
Combo2 : 250,50,85
Combo3 : 120,82,82
Combo4 : 241,116,141

[HitObjects]
186,262,658,6,0,B|166:180|228:103|228:103|276:120|306:163,1,259.999988098145,4|0,3:2|1:0,0:0:0:0:
361,220,3158,5,0,0:0:0:0:
357,213,3254,1,0,0:0:0:0:
350,203,3350,1,0,0:0:0:0:
345,194,3446,2,0,P|322:152|256:89,1,129.999994049073,0|0,3:0|1:0,0:0:0:0:
340,225,3734,2,0,B|318:143|228:104|228:104|194:142|187:194,1,259.999988098145,4|0,3:2|1:0,0:0:0:0:
133,251,6042,6,0,B|150:221|196:190|256:214|241:281|373:248,1,244.999992523194,0|0,3:0|1:0,0:0:0:0:
367,237,6811,2,0,B|349:172|394:131|365:66|365:66|372:130|325:169,1,259.999988098145,4|0,3:2|1:0,0:0:0:0:
186,156,9408,2,0,P|203:183|211:215,1,64.9999970245363,4|0,3:2|2:2,0:0:0:0:
234,232,9601,2,0,P|246:163|239:112,1,64.9999970245363,4|0,3:2|0:0,0:0:0:0:
245,264,9792,1,0,3:0:0:0:
250,269,9888,2,0,B|350:248|399:148|399:148|360:139|322:164,1,259.999988098145,4|0,3:2|1:0,0:0:0:0:
76,128,11234,6,0,B|37:141|37:107|77:77|103:101|123:146|194:108,1,150,2|0,0:0|1:0,0:0:0:0:
179,139,11619,6,0,L|198:290,1,129.999994049073,0|0,3:0|1:0,0:0:0:0:
210,271,11908,2,0,L|194:143,1,129.999994049073,0|0,3:0|1:0,0:0:0:0:
209,147,12196,2,0,L|228:298,1,129.999994049073,0|0,3:0|1:0,0:0:0:0:
239,278,12484,2,0,L|223:150,1,129.999994049073,0|0,3:0|1:0,0:0:0:0:
332,220,12773,2,0,L|342:136,1,64.9999970245363,0|0,3:0|1:0,0:0:0:0:
276,20,12965,5,2,3:0:0:0:
282,21,13350,1,2,0:3:0:0:
288,22,13734,1,2,0:3:0:0:
294,23,14119,1,2,0:3:0:0:
217,90,14504,5,2,3:3:0:0:
211,91,14889,1,2,0:3:0:0:
205,92,15273,1,2,0:3:0:0:
199,93,15658,1,2,0:3:0:0:
198,118,15754,1,2,0:3:0:0:
197,143,15850,1,2,0:3:0:0:
196,168,15946,1,2,0:3:0:0:
196,193,16042,5,2,3:3:0:0:
202,195,16427,1,2,0:3:0:0:
208,197,16811,1,2,0:3:0:0:
214,199,17196,1,2,0:3:0:0:
286,274,17581,5,2,3:3:0:0:
280,276,17966,1,2,0:3:0:0:
274,278,18350,1,2,0:3:0:0:
268,280,18735,1,2,0:3:0:0:
147,363,18927,5,0,3:0:0:0:
139,298,19023,1,0,3:0:0:0:
131,233,19119,6,0,P|138:190|223:206,1,129.999994049073,0|0,3:2|1:0,0:0:0:0:
307,194,19408,2,0,P|300:151|215:167,1,129.999994049073,0|0,3:2|1:0,0:0:0:0:
122,234,19696,6,0,P|127:190|217:180,1,150.000005722046,0|0,3:2|1:0,0:0:0:0:
315,194,19984,2,0,P|310:150|220:140,1,150.000005722046,0|0,3:2|1:0,0:0:0:0:
303,305,20273,6,0,P|378:306|461:259,1,170.000003242493,0|0,3:2|1:0,0:0:0:0:
300,336,20561,2,0,P|236:295|190:211,1,170.000003242493,0|0,3:2|1:0,0:0:0:0:
302,316,20850,6,0,P|378:318|474:260,1,189.999994926453,0|0,3:2|1:0,0:0:0:0:
299,346,21138,2,0,P|232:307|182:208,1,189.999994926453,0|0,3:0|1:0,0:0:0:0:
364,176,21427,6,0,P|392:117|275:58,1,209.999993591309,0|0,3:0|1:0,0:0:0:0:
283,181,21715,2,0,P|346:196|379:69,1,209.999993591309,0|0,3:0|1:0,0:0:0:0:
234,121,22004,2,0,P|244:157|299:202,1,104.999996795654,0|0,3:0|1:0,0:0:0:0:
229,299,22196,5,0,3:0:0:0:
209,358,22292,1,2,0:0:0:0:
147,369,22388,1,2,0:0:0:0:
104,322,22484,1,2,0:0:0:0:
107,258,22581,1,0,3:0:0:0:
140,204,22677,1,2,0:0:0:0:
137,141,22773,1,2,0:0:0:0:
95,93,22869,1,2,0:0:0:0:
32,86,22965,5,0,3:0:0:0:
68,149,23061,1,2,0:0:0:0:
140,163,23158,1,2,0:0:0:0:
202,124,23254,1,2,0:0:0:0:
248,67,23350,1,0,3:0:0:0:
331,57,23446,1,2,0:0:0:0:
385,120,23542,1,2,0:0:0:0:
359,199,23638,1,2,0:0:0:0:
276,211,23734,6,0,P|253:222|231:240,6,52.4999983978272,2|2|2|2|2|2|2,0:0|0:0|0:0|0:0|0:0|0:0|0:0,0:0:0:0:
342,314,24119,2,0,P|365:325|387:343,6,52.4999983978272,2|2|2|2|2|2|2,0:0|0:0|0:0|0:0|0:0|0:0|0:0,0:0:0:0:
342,314,25273,5,4,3:2:0:0:
359,310,25658,5,0,3:0:0:0:
362,295,25754,1,0,0:0:0:0:
365,280,25850,1,0,0:0:0:0:
368,265,25946,1,0,0:0:0:0:
302,202,26042,5,0,3:0:0:0:
299,187,26138,1,0,0:0:0:0:
296,172,26234,1,0,0:0:0:0:
293,157,26330,1,0,0:0:0:0:
214,123,26427,5,0,3:0:0:0:
201,131,26523,1,0,0:0:0:0:
188,139,26619,1,0,0:0:0:0:
175,148,26715,1,0,0:0:0:0:
160,235,26811,6,0,B|83:271|-8:262|-14:198|58:178|77:238,1,225.000008583069,0|0,3:0|1:0,0:0:0:0:
133,330,27196,5,0,3:0:0:0:
147,333,27292,1,0,0:0:0:0:
161,336,27388,1,0,0:0:0:0:
175,339,27484,1,0,0:0:0:0:
242,276,27581,5,0,3:0:0:0:
256,273,27677,1,0,0:0:0:0:
270,270,27773,1,0,0:0:0:0:
284,267,27869,1,0,0:0:0:0:
361,315,27965,5,0,3:0:0:0:
364,329,28061,1,0,0:0:0:0:
368,343,28158,2,0,P|407:357|455:355,1,75.0000028610231,0|0,0:0|1:0,0:0:0:0:
499,288,28350,1,0,3:0:0:0:
401,232,28446,2,0,B|443:224|473:241|473:241|457:212|453:164,1,150.000005722046,0|0,0:0|1:0,0:0:0:0:
377,58,28734,5,0,3:0:0:0:
374,72,28831,1,0,0:0:0:0:
371,86,28927,1,0,0:0:0:0:
368,100,29023,1,0,0:0:0:0:
288,141,29119,5,0,3:0:0:0:
285,127,29215,1,0,0:0:0:0:
282,113,29311,1,0,0:0:0:0:
279,99,29408,1,0,0:0:0:0:
198,57,29504,5,0,3:0:0:0:
195,71,29601,1,0,0:0:0:0:
192,85,29697,1,0,0:0:0:0:
189,99,29793,1,0,0:0:0:0:
124,162,29888,6,0,B|44:192|-3:174|34:119|97:127|128:206|118:277,1,225.000008583069,0|0,3:0|1:0,0:0:0:0:
50,291,30273,5,0,3:0:0:0:
48,305,30369,1,0,0:0:0:0:
47,319,30465,1,0,0:0:0:0:
46,334,30561,1,0,0:0:0:0:
125,369,30658,5,0,3:0:0:0:
135,357,30754,2,0,P|165:331|242:324,1,75.0000028610231,0|0,0:0|1:0,0:0:0:0:
272,365,30946,1,0,3:0:0:0:
344,292,31042,5,2,0:3:0:0:
347,227,31138,1,2,0:3:0:0:
354,161,31234,1,0,0:0:0:0:
369,150,31427,6,0,P|331:78|231:194,1,284.999992389679,4|0,3:2|1:0,0:0:0:0:
166,278,31811,5,8,3:0:0:0:
144,284,31908,1,0,0:0:0:0:
121,281,32004,1,2,0:0:0:0:
102,268,32100,1,0,0:0:0:0:
120,183,32196,5,0,3:0:0:0:
142,177,32293,1,0,0:0:0:0:
165,180,32389,1,2,0:0:0:0:
184,193,32485,1,0,0:0:0:0:
224,274,32581,5,8,3:0:0:0:
226,296,32677,1,0,0:0:0:0:
228,318,32773,1,2,0:0:0:0:
231,340,32869,1,0,0:0:0:0:
318,379,32965,6,0,B|373:372|408:278|345:225|304:313|409:350,1,225.000008583069,0|0,3:0|1:0,0:0:0:0:
494,301,33350,5,8,3:0:0:0:
501,279,33446,1,0,0:0:0:0:
500,256,33542,1,2,0:0:0:0:
490,235,33638,1,0,0:0:0:0:
416,184,33734,5,0,3:0:0:0:
409,162,33830,1,0,0:0:0:0:
410,139,33926,1,2,0:0:0:0:
420,118,34022,1,0,0:0:0:0:
369,45,34119,5,8,3:0:0:0:
346,44,34215,1,0,0:0:0:0:
323,44,34311,1,2,0:0:0:0:
317,59,34504,6,0,B|161:119|187:1|15:51,1,284.999992389679,4|0,3:2|1:0,0:0:0:0:
17,138,34888,5,2,0:3:0:0:
18,147,34984,1,0,0:0:0:0:
20,156,35081,1,2,0:0:0:0:
22,165,35177,1,0,0:0:0:0:
75,234,35273,5,4,3:2:0:0:
129,249,35369,1,2,0:0:0:0:
182,229,35465,1,0,0:0:0:0:
201,175,35561,1,0,0:0:0:0:
208,157,35658,1,0,0:0:0:0:
225,149,35754,1,0,0:0:0:0:
243,153,35850,1,0,3:0:0:0:
246,165,35946,1,0,3:0:0:0:
237,126,36234,6,0,P|299:157|422:166,1,189.999994926453,4|0,3:2|1:0,0:0:0:0:
512,180,36523,2,0,P|450:149|327:140,1,189.999994926453,0|0,3:0|1:0,0:0:0:0:
239,261,36811,2,0,P|186:336|95:285,1,189.999994926453,0|0,3:0|1:0,0:0:0:0:
72,214,37100,2,0,P|125:139|216:190,1,189.999994926453,0|0,3:0|1:0,0:0:0:0:
260,290,37388,2,0,P|282:336|328:368,1,94.9999974632264,0|0,3:0|1:0,0:0:0:0:
423,122,37581,5,0,3:0:0:0:
423,122,37965,5,8,3:0:0:0:
403,99,38061,1,0,0:0:0:0:
376,83,38158,1,2,0:0:0:0:
346,78,38254,1,0,0:0:0:0:
286,139,38350,5,0,3:0:0:0:
266,162,38446,1,0,0:0:0:0:
239,178,38543,1,2,0:0:0:0:
209,183,38639,1,0,0:0:0:0:
137,125,38734,5,8,3:0:0:0:
135,105,38831,1,0,0:0:0:0:
133,86,38927,1,2,0:0:0:0:
132,67,39023,1,0,0:0:0:0:
59,16,39119,6,0,B|25:67|24:127|70:167|83:106|29:63|-34:34,1,225.000008583069,0|0,3:0|1:0,0:0:0:0:
29,233,39504,5,8,3:0:0:0:
54,216,39600,1,0,0:0:0:0:
83,210,39696,1,2,0:0:0:0:
111,218,39792,1,0,0:0:0:0:
178,292,39888,5,4,3:2:0:0:
179,284,39984,1,0,0:0:0:0:
180,276,40080,1,0,0:0:0:0:
265,309,40177,5,4,3:2:0:0:
266,301,40273,1,0,0:0:0:0:
267,293,40369,1,0,3:0:0:0:
352,327,40465,5,4,3:2:0:0:
364,337,40754,6,0,P|367:270|399:227,1,100,2|0,0:0|1:0,0:0:0:0:
401,127,41042,5,4,3:2:0:0:
379,87,41138,1,0,0:0:0:0:
338,66,41234,1,2,0:0:0:0:
292,68,41331,1,0,0:0:0:0:
222,133,41427,5,0,3:0:0:0:
218,154,41523,1,0,0:0:0:0:
215,176,41619,1,2,0:0:0:0:
213,198,41715,1,0,0:0:0:0:
125,240,41811,5,8,3:0:0:0:
123,218,41907,1,0,0:0:0:0:
120,196,42003,1,2,0:0:0:0:
116,175,42099,1,0,0:0:0:0:
40,118,42196,6,0,B|60:6|146:11|149:84|94:108|41:51|44:-8,1,225.000008583069,0|0,3:0|1:0,0:0:0:0:
203,49,42581,5,8,3:0:0:0:
225,69,42677,1,2,0:0:0:0:
253,78,42773,1,2,0:0:0:0:
282,76,42869,1,0,0:0:0:0:
368,107,42965,6,0,P|399:176|385:303,1,150.000005722046,4|0,3:2|1:0,0:0:0:0:
245,333,43254,2,0,P|290:304|307:263,1,75.0000028610231,4|0,3:2|1:0,0:0:0:0:
189,168,43446,1,0,3:0:0:0:
193,264,43542,2,0,P|209:224|211:186,1,75.0000028610231,4|0,3:2|1:0,0:0:0:0:
198,79,43734,2,0,P|230:156|191:320,1,225.000008583069,4|0,3:2|1:0,0:0:0:0:
101,361,44119,5,8,3:0:0:0:
63,336,44215,1,0,0:0:0:0:
44,295,44311,1,2,0:0:0:0:
50,250,44408,1,0,0:0:0:0:
121,192,44504,5,0,3:0:0:0:
125,169,44600,1,0,0:0:0:0:
129,146,44696,1,2,0:0:0:0:
134,124,44792,1,0,0:0:0:0:
218,177,44888,5,8,3:0:0:0:
223,199,44984,1,0,0:0:0:0:
227,222,45080,1,2,0:0:0:0:
231,245,45176,1,0,0:0:0:0:
316,299,45273,6,0,B|358:289|398:224|395:196|355:147|320:178|344:245|414:268,1,225.000008583069,0|0,3:0|1:0,0:0:0:0:
453,128,45658,5,8,3:0:0:0:
433,87,45754,1,0,0:0:0:0:
394,63,45850,1,2,0:0:0:0:
349,62,45946,1,0,0:0:0:0:
285,133,46042,5,0,3:0:0:0:
263,139,46138,1,0,0:0:0:0:
241,144,46234,1,2,0:0:0:0:
218,149,46331,1,0,0:0:0:0:
166,223,46427,5,8,3:0:0:0:
163,245,46523,1,2,0:0:0:0:
160,268,46619,1,2,0:0:0:0:
137,300,46811,6,0,B|159:162|29:198|34:84|89:29|144:32,1,284.999992389679,4|0,3:2|1:0,0:0:0:0:
206,58,47196,5,8,2:3:0:0:
209,76,47292,1,0,0:0:0:0:
213,94,47388,1,2,0:0:0:0:
217,112,47484,1,0,0:0:0:0:
278,177,47581,5,0,3:0:0:0:
347,169,47677,1,0,0:0:0:0:
388,122,47773,1,2,0:0:0:0:
445,114,47869,1,0,0:0:0:0:
491,136,47965,1,8,0:3:0:0:
512,179,48061,1,0,0:0:0:0:
504,220,48158,2,0,P|495:242|502:284,3,47.4999987316132,2|2|2|2,0:0|0:0|0:0|0:0,0:0:0:0:
492,296,48542,6,0,P|424:230|334:286,1,189.999994926453,4|0,3:2|1:0,0:0:0:0:
183,342,48831,2,0,P|251:276|341:332,1,189.999994926453,0|0,3:0|1:0,0:0:0:0:
428,183,49119,2,0,P|408:71|330:13,1,189.999994926453,0|0,3:0|1:0,0:0:0:0:
316,69,49408,1,0,3:0:0:0:
258,93,49504,1,0,3:0:0:0:
192,68,49600,1,0,3:0:0:0:
116,59,49696,1,0,3:0:0:0:
45,105,49792,1,0,3:0:0:0:
50,195,49888,1,0,3:0:0:0:
63,216,50273,5,0,3:0:0:0:
102,241,50369,1,0,0:0:0:0:
148,234,50465,1,0,0:0:0:0:
179,198,50561,1,0,0:0:0:0:
228,133,50658,5,0,3:0:0:0:
246,130,50754,1,0,0:0:0:0:
265,128,50850,1,0,0:0:0:0:
284,126,50946,1,0,0:0:0:0:
308,154,51042,5,0,3:0:0:0:
316,157,51138,1,0,0:0:0:0:
324,160,51234,1,0,0:0:0:0:
332,163,51331,1,0,0:0:0:0:
357,154,51427,6,0,B|406:126|416:53|376:30|345:74|423:156,1,179.999994506836,0|0,3:0|1:0,0:0:0:0:
472,216,51811,5,0,3:0:0:0:
465,251,51908,1,0,0:0:0:0:
434,270,52004,1,0,0:0:0:0:
398,267,52100,1,0,0:0:0:0:
318,247,52196,5,0,3:0:0:0:
306,249,52292,1,0,0:0:0:0:
294,251,52388,1,0,0:0:0:0:
282,253,52484,1,0,0:0:0:0:
256,232,52581,5,0,3:0:0:0:
250,230,52677,1,2,0:0:0:0:
244,228,52773,1,2,0:0:0:0:
206,341,52965,5,0,3:0:0:0:
147,280,53061,2,0,P|160:242|227:278,1,119.999996337891,2|0,0:0|1:0,0:0:0:0:
315,309,53350,5,0,3:0:0:0:
338,304,53446,1,0,0:0:0:0:
356,288,53542,1,0,0:0:0:0:
364,265,53638,1,0,0:0:0:0:
332,223,53734,5,0,3:0:0:0:
327,211,53831,1,0,0:0:0:0:
325,199,53927,1,0,0:0:0:0:
327,187,54023,1,0,0:0:0:0:
355,163,54119,5,0,3:0:0:0:
358,158,54215,1,0,0:0:0:0:
360,152,54311,1,0,0:0:0:0:
361,146,54408,1,0,0:0:0:0:
291,90,54504,6,0,B|209:86|166:45|195:-12|245:-4|249:29|222:48,1,179.999994506836,0|0,3:0|1:0,0:0:0:0:
139,109,54888,5,0,3:0:0:0:
129,123,54984,1,0,0:0:0:0:
125,140,55081,1,0,0:0:0:0:
125,157,55177,1,0,0:0:0:0:
160,191,55273,5,2,3:0:0:0:
178,207,55369,2,0,P|189:240|173:309,1,59.9999981689454,2|0,0:0|1:0,0:0:0:0:
54,312,55561,1,2,0:0:0:0:
51,295,55658,1,0,0:0:0:0:
47,279,55754,2,0,P|71:242|91:294,1,119.999996337891,2|0,0:0|1:0,0:0:0:0:
161,351,56042,6,0,P|240:355|287:308,1,139.999995727539,0|0,3:0|1:0,0:0:0:0:
427,323,56331,2,0,P|348:327|301:280,1,139.999995727539,0|0,3:0|1:0,0:0:0:0:
155,360,56619,6,0,P|246:367|298:310,1,160,0|0,3:0|1:0,0:0:0:0:
434,331,56908,2,0,P|343:338|291:281,1,160,0|0,3:0|1:0,0:0:0:0:
458,198,57196,6,0,P|508:123|467:24,1,179.999994506836,0|0,3:0|1:0,0:0:0:0:
328,15,57484,2,0,P|278:90|319:189,1,179.999994506836,0|0,3:0|1:0,0:0:0:0:
463,205,57773,6,0,P|517:129|485:29,1,200,0|0,3:0|1:0,0:0:0:0:
321,9,58061,2,0,P|267:85|299:185,1,200,0|0,3:0|1:0,0:0:0:0:
170,372,58350,6,0,P|69:333|100:211,1,220.000006713867,0|0,3:0|1:0,0:0:0:0:
330,269,58638,2,0,P|288:363|185:354,1,220.000006713867,0|0,3:0|1:0,0:0:0:0:
162,170,58927,2,0,P|208:176|230:241,1,110.000003356934,0|0,3:0|1:0,0:0:0:0:
13,168,59119,5,0,3:0:0:0:
4,102,59215,1,2,0:0:0:0:
39,46,59311,1,2,0:0:0:0:
102,25,59408,1,2,0:0:0:0:
166,38,59504,1,0,3:0:0:0:
213,84,59600,1,2,0:0:0:0:
277,99,59696,1,2,0:0:0:0:
340,83,59792,1,2,0:0:0:0:
375,27,59888,5,0,3:0:0:0:
302,53,59984,1,2,0:0:0:0:
257,116,60081,1,2,0:0:0:0:
261,192,60177,1,2,0:0:0:0:
301,257,60273,5,0,3:0:0:0:
279,342,60369,1,2,0:0:0:0:
200,380,60465,1,2,0:0:0:0:
124,334,60561,1,2,0:0:0:0:
115,245,60658,6,0,P|146:237|174:238,1,55.0000016784668,2|2,0:0|0:0,0:0:0:0:
117,196,60754,2,0,P|148:199|174:209,1,55.0000016784668,2|2,0:0|0:0,0:0:0:0:
132,152,60850,2,0,P|160:165|181:184,1,55.0000016784668,2|2,0:0|0:0,0:0:0:0:
161,116,60946,2,0,P|183:138|196:163,1,55.0000016784668,2|2,0:0|0:0,0:0:0:0:
257,116,61042,6,0,P|237:135|223:158,1,55.0000016784668,2|2,0:0|0:0,0:0:0:0:
286,152,61138,2,0,P|260:163|239:180,1,55.0000016784668,2|2,0:0|0:0,0:0:0:0:
301,196,61234,2,0,P|273:198|247:207,1,55.0000016784668,2|2,0:0|0:0,0:0:0:0:
303,245,61330,2,0,P|276:237|249:237,1,55.0000016784668,2|2,0:0|0:0,0:0:0:0:
301,348,61427,5,2,0:0:0:0:
281,339,61523,2,0,P|210:382|136:311,2,150.000005722046,0|0|0,0:0|0:0|0:0,0:0:0:0:
53,30,62196,5,0,3:0:0:0:
256,192,62260,12,4,65273,3:2:0:0:
259,159,68350,5,6,3:2:0:0:
360,130,70945,6,0,P|398:106|453:102,1,75.0000028610231,2|0,0:0|3:0,0:0:0:0:
297,39,71138,1,0,0:0:0:0:
377,309,71427,2,0,P|361:206|230:42,1,300.000011444092,4|0,3:2|1:0,0:0:0:0:
47,320,72965,5,4,3:2:0:0:
64,231,73254,1,4,3:2:0:0:
81,142,73542,1,4,3:2:0:0:
98,53,73831,1,4,3:2:0:0:
181,119,74119,5,0,3:0:0:0:
182,126,74215,2,0,L|191:286,1,150.000005722046,4|0,3:2|1:0,0:0:0:0:
176,313,74504,6,0,B|143:275|176:189|287:189|276:325|403:305|448:225|424:154,1,400,4|0,3:2|1:0,0:0:0:0:
74,78,77581,5,2,0:0:0:0:
323,175,80465,5,0,3:0:0:0:
322,185,80561,1,0,3:0:0:0:
322,194,80658,6,0,P|246:221|217:167,1,150.000005722046,0|0,3:0|1:0,0:0:0:0:
87,121,80946,2,0,P|163:94|192:148,1,150.000005722046,0|0,3:0|1:0,0:0:0:0:
330,200,81234,6,0,P|238:230|204:176,1,170.000003242493,0|0,3:0|1:0,0:0:0:0:
78,116,81523,2,0,P|170:86|204:140,1,170.000003242493,0|0,3:0|1:0,0:0:0:0:
388,345,81811,6,0,P|416:238|417:128,1,189.999994926453,0|0,3:0|1:0,0:0:0:0:
413,15,82100,2,0,P|441:122|442:232,1,189.999994926453,0|0,3:0|1:0,0:0:0:0:
398,353,82388,6,0,P|429:242|430:132,1,209.999993591309,0|0,3:0|1:0,0:0:0:0:
420,1,82677,2,0,P|451:112|452:222,1,209.999993591309,0|0,3:0|1:0,0:0:0:0:
176,248,82965,6,0,B|76:240|36:157|79:108|129:106|149:132,1,230.000004386902,0|0,3:0|1:0,0:0:0:0:
246,304,83254,2,0,B|345:296|385:213|342:164|292:162|272:188,1,230.000004386902,0|0,3:0|1:0,0:0:0:0:
167,354,83542,2,0,P|119:363|87:307,1,115.000002193451,0|0,3:0|1:0,0:0:0:0:
39,115,83734,5,0,3:0:0:0:
87,65,83831,1,2,0:0:0:0:
155,54,83927,1,2,0:0:0:0:
220,74,84023,1,2,0:0:0:0:
267,123,84119,1,0,3:0:0:0:
330,150,84215,1,2,0:0:0:0:
396,133,84311,1,2,0:0:0:0:
430,72,84408,1,2,0:0:0:0:
404,8,84504,5,0,3:0:0:0:
349,66,84600,1,2,0:0:0:0:
349,146,84696,1,2,0:0:0:0:
403,204,84792,1,2,0:0:0:0:
425,281,84888,5,0,3:0:0:0:
376,359,84984,1,2,0:0:0:0:
283,367,85081,1,2,0:0:0:0:
210,310,85177,1,2,0:0:0:0:
118,298,85273,6,0,P|112:268|119:237,1,57.5000010967255,2|2,0:0|0:0,0:0:0:0:
78,266,85369,2,0,P|87:237|109:213,1,57.5000010967255,2|2,0:0|0:0,0:0:0:0:
59,222,85465,2,0,P|81:201|112:192,1,57.5000010967255,2|2,0:0|0:0,0:0:0:0:
64,174,85561,2,0,P|94:167|125:175,1,57.5000010967255,2|2,0:0|0:0,0:0:0:0:
154,154,85658,6,0,P|160:124|153:93,1,57.5000010967255,2|2,0:0|0:0,0:0:0:0:
194,122,85754,2,0,P|184:93|162:69,1,57.5000010967255,2|2,0:0|0:0,0:0:0:0:
213,78,85850,2,0,P|190:57|159:48,1,57.5000010967255,2|2,0:0|0:0,0:0:0:0:
208,30,85946,2,0,P|178:23|147:31,1,57.5000010967255,2|2,0:0|0:0,0:0:0:0:
147,372,86811,6,0,B|171:375|192:354|183:334|152:319|159:274,1,122.499996261597,4|0,3:2|1:0,0:0:0:0:
507,24,87581,5,8,0:0:0:0:
496,48,87965,6,0,B|442:32|413:69|389:87|354:63|335:41|357:18|388:34,1,192.499994125366,0|0,3:0|1:0,0:0:0:0:
343,165,89119,6,0,B|287:239|153:220|137:103|156:45|195:26|221:65|224:96|209:120,1,350,8|0,0:0|1:1,0:0:0:0:
51,326,89888,6,0,B|32:355|58:380|97:381|111:347|148:356,1,122.499996261597,0|0,3:0|0:0,0:0:0:0:
505,383,90658,5,8,0:0:0:0:
310,275,90850,1,0,3:0:0:0:
504,15,91042,6,0,B|140:31|140:31|102:32|71:56|56:111|97:164|170:137,1,550,0|0,3:0|1:0,0:0:0:0:
425,234,92196,6,0,B|430:187|430:187|422:175|422:175|429:122,1,100,12|0,0:2|1:0,0:0:0:0:
342,252,92484,2,0,B|347:205|347:205|339:193|339:193|346:140,1,100,0|0,3:0|1:0,0:0:0:0:
508,210,92773,1,0,3:0:0:0:
197,384,92965,6,0,B|167:372|161:334|218:322|221:296|209:269,1,122.499996261597,0|0,3:0|1:0,0:0:0:0:
3,0,93734,5,8,0:0:0:0:
19,22,94119,6,0,B|51:46|108:55|109:11|144:15|172:35|163:72|212:61,1,192.499994125366,0|0,3:0|1:0,0:0:0:0:
373,34,95273,6,0,B|459:72|482:213|389:274|318:205|308:151|341:129|390:135|402:178,1,350,8|0,0:0|1:0,0:0:0:0:
328,384,96042,6,0,B|304:317|339:303|354:291|316:261,1,122.499996261597,0|0,3:0|1:0,0:0:0:0:
21,35,96811,5,8,0:0:0:0:
115,214,97004,1,0,3:0:0:0:
444,196,97196,6,0,B|295:191|174:108|174:108|176:70|211:41,1,350,0|0,3:0|1:0,0:0:0:0:
356,285,97965,5,0,3:0:0:0:
355,300,98061,1,0,0:0:0:0:
87,118,98254,1,0,3:0:0:0:
28,221,98350,6,0,P|108:310|120:181,1,300.000011444092,8|0,0:0|1:0,0:0:0:0:
158,187,98831,2,0,P|225:173|203:100,1,150.000005722046,0|0,3:0|1:0,0:0:0:0:
441,19,99119,6,0,B|487:28|471:68|495:75|464:118,1,122.499996261597,4|0,3:2|1:0,0:0:0:0:
123,351,99888,5,8,0:0:0:0:
150,337,100273,6,0,B|144:288|184:295|208:292|217:245|210:222|188:192|148:199,1,192.499994125366,0|0,3:0|1:0,0:0:0:0:
24,96,101427,6,0,B|56:3|127:-28|296:7|247:113|159:118|140:74|139:41,1,350,8|0,0:0|1:0,0:0:0:0:
332,0,102196,6,0,B|386:-2|389:34|350:37|403:74|368:97,1,122.499996261597,0|0,3:0|1:0,0:0:0:0:
96,290,102965,5,8,0:0:0:0:
326,335,103158,1,0,3:0:0:0:
494,153,103350,6,0,B|148:209|148:209|220:262|193:304|163:321|202:381|251:384,1,550,0|0,3:0|1:0,0:0:0:0:
290,102,104504,6,0,B|277:39|277:39|286:24|286:24|311:26,1,100,8|0,0:0|1:0,0:0:0:0:
213,118,104792,2,0,B|200:54|200:54|186:44|186:44|163:56,1,100,4|0,3:2|1:0,0:0:0:0:
265,190,105081,1,4,3:2:0:0:
21,371,105273,6,0,B|34:329|12:332|2:304|13:289|53:276|71:296|74:310,1,122.499996261597,0|0,3:0|1:0,0:0:0:0:
479,374,106042,5,8,0:0:0:0:
447,354,106427,6,0,B|430:350|419:300|450:282|476:273|454:215|392:206|388:267|425:283,1,192.499994125366,0|0,3:0|1:0,0:0:0:0:
487,133,107581,6,0,B|422:70|340:118|343:206|234:133|232:74|289:39|324:35|354:76|331:104,1,350,8|0,0:0|1:0,0:0:0:0:
180,159,108350,6,0,B|138:146|140:119|110:100|70:125|73:144,1,122.499996261597,0|0,3:0|1:0,0:0:0:0:
367,384,109119,5,8,0:0:0:0:
444,206,109311,1,0,3:0:0:0:
208,344,109504,6,0,B|142:196|167:75|167:75|189:107|194:171,1,350,0|0,3:0|1:0,0:0:0:0:
214,384,110273,2,0,B|130:359|124:60|157:13|157:13|203:40|234:148,1,550,0|0,0:0|1:0,0:0:0:0:
346,263,111427,6,0,P|344:191|361:111,1,150.000005722046,0|0,3:0|0:0,0:0:0:0:
468,281,111715,1,0,0:0:0:0:
496,270,111811,2,0,P|474:246|428:250,1,75.0000028610231,8|0,3:0|1:0,0:0:0:0:
318,353,112004,2,0,P|319:316|347:293,1,75.0000028610231,0|0,3:0|1:0,0:0:0:0:
452,96,112196,6,0,P|408:26|321:34,1,150.000005722046,0|0,3:0|0:0,0:0:0:0:
218,167,112484,1,0,0:0:0:0:
190,147,112581,2,0,P|187:118|218:78,1,75.0000028610231,8|0,3:0|1:0,0:0:0:0:
310,97,112773,2,0,P|326:129|318:165,1,75.0000028610231,0|0,3:0|1:0,0:0:0:0:
128,268,112965,6,0,P|151:325|224:298,1,150.000005722046,0|0,3:0|0:0,0:0:0:0:
401,278,113254,1,0,0:0:0:0:
432,311,113350,2,0,P|431:362|387:371,1,75.0000028610231,8|0,3:0|1:0,0:0:0:0:
309,297,113542,2,0,P|325:264|360:259,1,75.0000028610231,0|0,3:0|1:0,0:0:0:0:
411,91,113734,6,0,P|340:40|254:31,1,150.000005722046,0|0,3:0|0:0,0:0:0:0:
177,130,114023,1,0,0:0:0:0:
99,151,114119,2,0,P|95:114|121:75,1,75.0000028610231,8|0,3:0|1:0,0:0:0:0:
256,112,114311,2,0,P|260:149|234:188,1,75.0000028610231,0|0,3:0|1:0,0:0:0:0:
19,326,114504,6,0,B|137:329|137:329|149:337|149:337|297:340,1,269.999991760254,4|0,3:2|0:0,0:0:0:0:
312,348,114888,2,0,P|329:302|339:239,1,75.0000028610231,8|0,3:0|1:0,0:0:0:0:
383,133,115081,2,0,P|392:169|405:204,1,75.0000028610231,0|0,3:0|1:0,0:0:0:0:
164,239,115273,6,0,P|136:164|288:130,1,269.999991760254,0|0,3:0|0:0,0:0:0:0:
286,139,115658,2,0,P|252:167|210:176,1,75.0000028610231,8|0,3:0|1:0,0:0:0:0:
49,98,115850,2,0,P|67:138|100:163,1,75.0000028610231,0|0,3:0|1:0,0:0:0:0:
307,14,116042,6,0,B|325:102|325:102|323:112|323:112|329:119|329:119|342:185|342:185|348:193|348:193|346:202|346:202|364:289,1,269.999991760254,0|0,3:0|1:0,0:0:0:0:
423,57,116427,2,0,B|407:120|407:120|410:131|410:131|402:140|402:140|377:238,1,179.999994506836,0|0,3:0|0:0,0:0:0:0:
158,364,116715,1,0,3:0:0:0:
80,301,116811,2,0,P|118:219|167:291,1,179.999994506836,4|0,3:2|1:0,0:0:0:0:
275,184,117100,2,0,B|256:124|176:134|159:194|186:229|186:229|237:317,1,269.999991760254,4|0,3:2|3:0,0:0:0:0:
246,314,117484,1,0,3:0:0:0:
320,367,117581,6,0,P|378:315|375:219,1,160,0|0,3:0|0:0,0:0:0:0:
505,137,117869,1,0,0:0:0:0:
477,102,117965,2,0,P|436:98|412:135,1,80,8|0,3:0|1:0,0:0:0:0:
243,134,118158,2,0,P|282:123|312:156,1,80,0|0,3:0|1:0,0:0:0:0:
122,301,118350,6,0,L|96:108,1,160,0|0,3:0|0:0,0:0:0:0:
203,39,118638,1,0,0:0:0:0:
250,57,118734,2,0,P|219:90|180:107,1,80,8|0,3:0|1:0,0:0:0:0:
41,25,118927,2,0,P|81:32|115:55,1,80,0|0,3:0|1:0,0:0:0:0:
239,235,119119,6,0,P|322:231|380:152,1,160,0|0,3:0|0:0,0:0:0:0:
396,37,119408,1,0,0:0:0:0:
448,68,119504,2,0,P|465:104|472:155,1,80,8|0,3:0|1:0,0:0:0:0:
410,298,119696,2,0,P|393:262|386:211,1,80,0|0,3:0|1:0,0:0:0:0:
150,116,119888,6,0,B|116:298|116:298|218:321,1,269.999991760254,0|0,3:0|0:0,0:0:0:0:
309,337,120273,1,4,3:2:0:0:
47,187,120465,1,0,3:0:0:0:
379,130,120658,6,0,P|404:60|315:88,1,194.999991073609,4|0,3:2|3:0,0:0:0:0:
308,86,121427,2,0,P|316:124|370:139,1,97.4999955368044,4|0,3:2|1:0,0:0:0:0:
463,232,121811,5,0,0:0:0:0:
434,272,121908,1,0,3:0:0:0:
378,302,122004,2,0,P|361:281|347:241,1,52.4999983978272,0|0,3:0|0:0,0:0:0:0:
285,305,122100,2,0,P|291:278|315:243,1,52.4999983978272,0|0,3:0|3:0,0:0:0:0:
199,240,122196,6,0,B|177:179|176:65|245:68|272:86,1,209.999993591309,4|0,3:2|1:0,0:0:0:0:
155,344,122484,2,0,B|177:283|178:169|109:172|82:190,1,209.999993591309,4|0,3:2|1:0,0:0:0:0:
360,97,122773,2,0,P|335:164|240:98,1,209.999993591309,4|0,3:2|1:0,0:0:0:0:
493,170,123061,2,0,P|422:109|371:186,1,209.999993591309,4|0,3:2|1:0,0:0:0:0:
483,366,123350,1,8,3:0:0:0:
473,350,123542,2,0,P|416:327|362:331,1,104.999996795654,0|0,3:0|1:0,0:0:0:0:
122,384,123734,6,0,P|87:337|82:206,1,170.000003242493,0|0,3:0|0:0,0:0:0:0:
190,101,124023,1,0,0:0:0:0:
271,141,124119,2,0,P|251:180|193:171,1,85.0000016212464,8|0,3:0|1:0,0:0:0:0:
62,73,124311,2,0,P|50:115|98:148,1,85.0000016212464,0|0,3:0|1:0,0:0:0:0:
281,25,124504,6,0,P|358:44|434:139,1,170.000003242493,0|0,3:0|0:0,0:0:0:0:
370,261,124792,1,0,0:0:0:0:
285,284,124888,2,0,P|265:265|247:193,1,85.0000016212464,8|0,3:0|1:0,0:0:0:0:
496,253,125081,2,0,P|475:290|441:314,1,85.0000016212464,0|0,3:0|1:0,0:0:0:0:
206,379,125273,6,0,P|184:298|85:249,1,170.000003242493,0|0,3:0|0:0,0:0:0:0:
9,127,125561,1,0,0:0:0:0:
48,52,125658,2,0,P|82:32|138:35,1,85.0000016212464,8|0,3:0|1:0,0:0:0:0:
237,142,125850,2,0,P|203:122|147:125,1,85.0000016212464,0|0,0:0|1:0,0:0:0:0:
315,302,126042,6,0,B|310:206|310:206|327:176|327:176|324:93,1,200,4|0,3:2|1:0,0:0:0:0:
417,102,126331,2,0,B|422:198|422:198|405:228|405:228|407:297,1,200,4|0,3:2|1:0,0:0:0:0:
365,31,126619,1,4,3:2:0:0:
343,17,126811,6,0,B|271:13|237:62|237:62|228:33|209:42|195:12|195:12|177:41|151:58|151:58|138:35|117:26,1,300,0|0,3:0|0:0,0:0:0:0:
26,179,127196,6,0,P|69:172|100:135,1,89.9999972534181,8|0,3:0|1:0,0:0:0:0:
300,198,127388,2,0,P|258:184|233:142,1,89.9999972534181,0|0,3:0|1:0,0:0:0:0:
115,266,127581,6,0,P|131:361|269:308,1,269.999991760254,0|0,3:0|0:0,0:0:0:0:
285,328,127965,2,0,P|338:311|390:311,1,89.9999972534181,8|0,3:0|1:0,0:0:0:0:
512,218,128158,2,0,P|459:201|407:201,1,89.9999972534181,0|0,3:0|1:0,0:0:0:0:
253,25,128350,6,0,B|239:101|239:101|266:137|266:137|233:149|233:149|230:160|230:160|198:171|198:171|225:201|225:201|206:314,1,300,0|0,3:2|1:0,0:0:0:0:
99,381,128734,2,0,L|118:280,1,100,8|0,3:0|1:0,0:0:0:0:
65,135,128927,1,0,3:0:0:0:
103,60,129023,1,0,3:0:0:0:
187,47,129119,6,0,P|228:125|350:95,1,200,4|0,3:2|1:0,0:0:0:0:
450,187,129408,2,0,P|355:196|308:114,1,200,4|0,3:2|1:0,0:0:0:0:
475,22,129696,2,0,P|501:74|502:124,1,100,4|0,3:2|1:0,0:0:0:0:
413,328,129888,6,0,B|421:413|523:399|543:323|519:251|440:209,1,300,0|0,3:0|0:0,0:0:0:0:
199,280,130273,2,0,P|240:300|303:304,1,100,8|0,3:0|1:0,0:0:0:0:
346,154,130465,2,0,P|305:174|242:178,1,100,0|0,3:0|1:0,0:0:0:0:
37,53,130658,6,0,P|86:22|166:126,1,200,0|0,3:0|0:0,0:0:0:0:
32,238,130946,1,0,0:0:0:0:
66,319,131042,2,0,P|104:345|196:353,1,100,8|0,3:0|1:0,0:0:0:0:
359,276,131234,2,0,P|332:313|248:352,1,100,0|0,3:0|1:0,0:0:0:0:
269,81,131427,6,0,L|505:103,1,200,0|0,3:0|0:0,0:0:0:0:
507,239,131715,1,0,0:0:0:0:
289,317,131811,2,0,P|307:267|372:230,1,100,8|0,3:0|1:0,0:0:0:0:
426,289,132004,2,0,P|410:335|372:367,1,100,0|0,3:0|1:0,0:0:0:0:
112,292,132196,6,0,B|96:182|96:182|123:142|105:50,1,220.000006713867,0|0,3:0|0:0,0:0:0:0:
219,9,132484,1,0,0:0:0:0:
337,180,132581,2,0,P|301:223|244:215,1,110.000003356934,8|0,3:0|1:0,0:0:0:0:
209,135,132773,2,0,P|245:92|302:100,1,110.000003356934,0|0,3:0|1:0,0:0:0:0:
481,297,132965,6,0,P|417:361|411:254,1,227.499989585877,4|0,3:2|1:0,0:0:0:0:
373,242,133734,6,0,P|334:210|303:285,1,129.999994049073,4|2,3:2|0:0,0:0:0:0:
288,262,134215,1,2,0:0:0:0:
287,265,134311,1,0,3:0:0:0:
286,268,134408,1,0,3:0:0:0:
254,296,134696,6,0,P|222:182|150:128,1,200,0|0,3:0|1:0,0:0:0:0:
343,16,134984,2,0,P|270:82|250:179,1,200,0|0,3:0|1:0,0:0:0:0:
105,360,135273,6,0,P|67:313|165:237,1,200,0|0,3:0|1:0,0:0:0:0:
360,321,135561,2,0,P|383:265|268:219,1,200,0|0,3:0|1:0,0:0:0:0:
49,372,135850,1,0,3:0:0:0:
188,59,136042,6,0,B|260:79|329:29|329:29|386:41|453:36|453:36|455:63|455:63|463:74|463:74|457:86|457:86|458:112|458:112|401:121|348:112|348:112|345:216|389:160|421:196|429:245|393:288|356:295|284:296|253:211|334:113,1,850,0|0,3:0|1:0,0:0:0:0:
