osu file format v14

[General]
AudioFilename: audio.mp3
AudioLeadIn: 0
PreviewTime: 86037
Countdown: 0
SampleSet: Soft
StackLeniency: 0.7
Mode: 0
LetterboxInBreaks: 0
WidescreenStoryboard: 1

[Editor]
Bookmarks: 644,12951,19105,22182,23720,24490,25259,31413,37567,49874,56028,59105,60644,61413,62182,74490,80644,83720,85259,86028,86797,99105,111413,123720,137567
DistanceSpacing: 1
BeatDivisor: 4
GridSize: 8
TimelineZoom: 1.9

[Metadata]
Title:Ether Strike
TitleUnicode:Ether Strike
Artist:Akira Complex
ArtistUnicode:Akira Complex
Creator:Mun
Version:Advanced
Source:Arcaea
Tags:aether mir icekalt xenon- xehn rhonen english electronic hypersynthetic
BeatmapID:2002909
BeatmapSetID:945019

[Difficulty]
HPDrainRate:4
CircleSize:3.9
OverallDifficulty:5
ApproachRate:7.4
SliderMultiplier:1.5
SliderTickRate:1

[Events]
//Background and Video events
0,0,"bastien-grivet-img-3141.jpg",0,0
//Break Periods
2,62396,73665
//Storyboard Layer 0 (Background)
//Storyboard Layer 1 (Fail)
//Storyboard Layer 2 (Pass)
//Storyboard Layer 3 (Foreground)
//Storyboard Sound Samples

[TimingPoints]
658,384.615384615385,4,2,1,100,1,0
658,-100,4,2,1,100,0,0
6042,-83.3333333333333,4,2,1,100,0,0
12965,-200,4,2,1,60,0,0
19119,-125,4,2,1,70,0,0
20561,-125,4,2,1,75,0,0
22196,-125,4,2,1,80,0,0
23734,-125,4,2,1,85,0,0
25273,-100,4,2,1,70,0,1
30946,-100,4,2,1,90,0,1
31424,-100,4,2,1,80,0,1
31427,-83.3333333333333,4,2,1,80,0,1
34504,-83.3333333333333,4,2,1,100,0,1
34888,-83.3333333333333,4,2,1,80,0,1
36234,-83.3333333333333,4,2,1,100,0,1
37581,-83.3333333333333,4,2,1,90,0,1
39888,-83.3333333333333,4,2,1,100,0,1
40754,-83.3333333333333,4,2,1,90,0,1
42965,-83.3333333333333,4,2,1,100,0,1
43734,-83.3333333333333,4,2,1,90,0,1
46908,-83.3333333333333,4,2,1,100,0,1
47292,-83.3333333333333,4,2,1,90,0,1
48542,-83.3333333333333,4,2,1,100,0,1
49888,-100,4,2,1,70,0,0
56042,-125,4,2,1,70,0,0
57484,-125,4,2,1,75,0,0
59119,-125,4,2,1,80,0,0
60658,-125,4,2,1,85,0,0
62196,-125,4,2,1,100,0,0
64696,-125,4,2,1,70,0,0
65273,-125,4,2,1,60,0,0
72965,-125,4,2,1,100,0,0
74504,-125,4,2,1,60,0,0
80465,-100,4,2,1,60,0,0
80658,-100,4,2,1,70,0,0
82100,-100,4,2,1,75,0,0
83734,-100,4,2,1,80,0,0
85273,-100,4,2,1,90,0,0
86811,-200,4,2,1,100,0,1
89119,-100,4,2,1,100,0,1
89888,-200,4,2,1,100,0,1
90658,-100,4,2,1,100,0,1
91042,-200,4,2,1,100,0,1
92196,-100,4,2,1,100,0,1
92965,-200,4,2,1,100,0,1
95273,-100,4,2,1,100,0,1
96042,-200,4,2,1,100,0,1
96811,-100,4,2,1,100,0,1
97196,-200,4,2,1,100,0,1
97965,-100,4,2,1,100,0,1
99119,-200,4,2,1,100,0,1
101427,-100,4,2,1,100,0,1
102196,-200,4,2,1,100,0,1
102965,-100,4,2,1,100,0,1
103350,-200,4,2,1,100,0,1
104504,-100,4,2,1,100,0,1
105273,-200,4,2,1,100,0,1
107581,-100,4,2,1,100,0,1
108350,-200,4,2,1,100,0,1
109504,-333.333333333333,4,2,1,100,0,1
111427,-100,4,2,1,90,0,0
122196,-100,4,2,1,100,0,0
123734,-100,4,2,1,90,0,0
132965,-83.3333333333333,4,2,1,100,0,0

[Colours]
Combo1 : 133,154,186
Combo2 : 250,50,85
Combo3 : 120,82,82
Combo4 : 241,116,141

[HitObjects]
89,210,6042,6,0,B|284:194|284:194|227:251,1,269.999991760254,0|0,0:0|0:0,0:0:0:0:
160,302,6811,1,4,3:2:0:0:
160,302,9408,2,0,L|182:202,2,89.9999972534181,4|4|0,3:2|3:2|3:0,0:0:0:0:
155,325,9888,1,4,3:2:0:0:
155,325,11619,6,0,L|16:365,1,134.999995880127,0|0,3:0|3:0,0:0:0:0:
220,264,12196,2,0,L|359:304,2,134.999995880127,0|0|0,3:0|3:0|3:0,0:0:0:0:
162,202,12965,6,0,L|161:126,3,75,2|2|2|2,3:0|0:3|0:3|0:3,0:0:0:0:
248,87,14504,2,0,L|247:161,3,75,2|2|2|2,3:3|0:3|0:3|0:3,0:0:0:0:
332,184,16042,2,0,L|333:108,3,75,2|2|2|2,3:3|0:3|0:3|0:3,0:0:0:0:
415,88,17581,2,0,L|414:164,3,75,2|2|2|2,3:3|0:3|0:3|0:3,0:0:0:0:
326,200,18927,1,0,3:0:0:0:
326,200,19023,1,0,3:0:0:0:
326,200,19119,6,0,L|311:103,1,90,0|0,3:2|3:2,0:0:0:0:
286,24,19696,2,0,P|337:18|385:34,2,90,0|0|0,3:2|3:2|3:2,0:0:0:0:
205,64,20561,2,0,L|191:152,1,90,0|0,3:2|3:2,0:0:0:0:
223,237,21138,2,0,P|274:243|322:227,1,90,0|0,3:0|3:0,0:0:0:0:
384,181,21715,2,0,P|435:175|483:191,1,90,0|0,3:0|3:0,0:0:0:0:
495,263,22196,6,0,L|498:316,3,30,0|2|2|2,3:0|0:0|0:0|0:0,0:0:0:0:
481,318,22581,2,0,L|439:305,3,30,0|2|0|2,3:0|0:0|0:0|0:0,0:0:0:0:
423,302,22965,2,0,L|424:331,3,30,0|2|2|2,3:0|0:0|0:0|0:0,0:0:0:0:
422,362,23350,2,0,L|380:349,3,30,0|2|0|2,3:0|0:0|0:0|0:0,0:0:0:0:
364,344,23734,6,0,L|363:329,16,15,2|2|2|2|2|2|2|2|2|2|2|2|2|2|2|2|2,0:0|0:0|0:0|0:0|0:0|0:0|0:0|0:0|0:0|0:0|0:0|0:0|0:0|0:0|0:0|0:0|0:0,0:0:0:0:
364,344,25273,6,0,P|309:357|257:347,1,75,4|0,3:2|0:0,0:0:0:0:
221,327,25658,1,0,3:0:0:0:
221,327,25850,1,0,3:0:0:0:
254,254,26042,1,0,3:0:0:0:
254,254,26234,1,0,3:0:0:0:
210,181,26427,2,0,P|168:180|117:205,1,75,0|0,3:0|0:0,0:0:0:0:
84,243,26811,6,0,B|59:236|27:244|27:244|55:226|67:184,1,112.5,0|0,3:0|0:0,0:0:0:0:
74,166,27196,2,0,P|65:117|74:67,1,75,0|0,3:0|0:0,0:0:0:0:
101,24,27581,2,0,P|149:15|199:24,1,75,0|0,3:0|0:0,0:0:0:0:
221,76,27965,1,0,3:0:0:0:
284,35,28158,1,0,3:0:0:0:
346,76,28350,5,0,3:0:0:0:
346,76,28446,2,0,P|323:124|337:168,1,75,0|0,3:0|0:0,0:0:0:0:
352,169,28734,1,0,3:0:0:0:
408,219,28927,1,0,3:0:0:0:
336,242,29119,2,0,L|240:245,1,75,0|0,3:0|0:0,0:0:0:0:
209,299,29504,2,0,L|212:395,1,75,0|0,3:0|0:0,0:0:0:0:
139,354,29888,6,0,P|92:355|34:370,1,75,0|0,3:0|0:0,0:0:0:0:
21,298,30273,1,0,3:0:0:0:
59,233,30465,1,0,3:0:0:0:
19,169,30658,1,0,3:0:0:0:
19,169,30754,2,0,P|81:182|111:178,1,75,0|0,3:0|0:0,0:0:0:0:
113,167,31042,2,0,P|162:157|204:165,1,75,0|0,3:0|0:0,0:0:0:0:
214,245,31427,6,0,B|234:289|234:289|279:295|318:261,1,134.999995880127,4|0,3:2|0:0,0:0:0:0:
343,229,31811,1,8,3:0:0:0:
343,229,31908,1,0,0:0:0:0:
343,229,32004,1,0,0:0:0:0:
410,169,32196,2,0,P|441:241|443:266,1,89.9999972534181,0|0,3:0|0:0,0:0:0:0:
411,336,32581,2,0,P|339:367|314:369,1,89.9999972534181,8|0,3:0|0:0,0:0:0:0:
248,326,32965,5,0,3:0:0:0:
209,149,33350,1,8,3:0:0:0:
209,149,33446,1,0,3:0:0:0:
209,149,33542,1,0,3:0:0:0:
273,211,33734,2,0,P|223:262|197:268,1,89.9999972534181,0|0,3:0|0:0,0:0:0:0:
125,306,34119,2,0,P|165:325|190:361,1,89.9999972534181,8|0,3:0|0:0,0:0:0:0:
278,340,34504,5,4,3:2:0:0:
278,340,34600,2,0,B|302:357|302:357|380:361,1,89.9999972534181,2|0,0:0|0:0,0:0:0:0:
377,350,34888,2,0,P|423:332|484:331,1,89.9999972534181,8|0,3:0|0:0,0:0:0:0:
500,246,35273,1,4,3:2:0:0:
500,246,35369,2,0,P|432:253|386:246,1,89.9999972534181,4|0,3:2|0:0,0:0:0:0:
398,238,35658,2,0,P|331:224|269:231,1,89.9999972534181,8|0,3:0|3:0,0:0:0:0:
270,245,35946,1,0,3:0:0:0:
270,245,36234,6,0,L|259:379,1,134.999995880127,4|0,3:2|3:0,0:0:0:0:
141,311,36811,2,0,L|129:159,2,134.999995880127,0|0|0,3:0|3:0|3:0,0:0:0:0:
52,330,37581,6,0,P|42:286|47:241,1,89.9999972534181,0|0,3:0|0:0,0:0:0:0:
103,171,37965,1,8,3:0:0:0:
103,171,38061,1,0,3:0:0:0:
103,171,38158,1,0,3:0:0:0:
184,208,38350,2,0,P|242:212|279:202,1,89.9999972534181,0|0,3:0|0:0,0:0:0:0:
352,164,38734,2,0,L|340:273,1,89.9999972534181,8|0,3:0|0:0,0:0:0:0:
388,330,39119,6,0,P|343:334|308:360,1,89.9999972534181,0|0,3:0|0:0,0:0:0:0:
218,367,39504,1,8,3:0:0:0:
218,367,39600,1,0,3:0:0:0:
218,367,39696,1,0,3:0:0:0:
150,308,39888,1,4,3:2:0:0:
150,308,39984,6,4,P|172:255|208:221,2,89.9999972534181,4|4|4,0:0|3:2|0:0,0:0:0:0:
105,315,40465,1,4,3:2:0:0:
74,183,40754,6,0,B|78:122|78:122|95:98,1,89.9999972534181,2|0,0:0|0:0,0:0:0:0:
115,82,41042,2,0,L|223:88,1,89.9999972534181,4|0,0:0|0:0,0:0:0:0:
294,101,41427,1,0,3:0:0:0:
294,101,41523,1,0,3:0:0:0:
294,101,41619,1,0,3:0:0:0:
355,166,41811,2,0,L|361:274,1,89.9999972534181,8|0,3:0|0:0,0:0:0:0:
406,333,42196,6,0,P|450:337|491:320,1,89.9999972534181,0|0,3:0|0:0,0:0:0:0:
498,230,42581,2,0,L|512:123,1,89.9999972534181,8|0,3:0|0:0,0:0:0:0:
454,69,42965,1,4,3:2:0:0:
454,69,43061,6,4,L|361:61,2,89.9999972534181
496,84,43542,1,0,3:0:0:0:
438,152,43734,6,0,B|340:164,1,89.9999972534181,4|0,3:2|0:0,0:0:0:0:
261,187,44119,1,8,3:0:0:0:
261,187,44215,1,0,3:0:0:0:
261,187,44311,1,0,3:0:0:0:
191,244,44504,2,0,P|184:288|199:330,1,89.9999972534181,0|0,3:0|0:0,0:0:0:0:
288,335,44888,2,0,P|330:349|374:343,1,89.9999972534181,8|0,3:0|0:0,0:0:0:0:
456,381,45273,6,0,L|471:292,1,89.9999972534181,0|0,3:0|0:0,0:0:0:0:
442,206,45658,2,0,P|374:203|330:205,1,89.9999972534181,8|0,3:0|0:0,0:0:0:0:
302,277,46042,2,0,P|255:288|192:308,1,89.9999972534181,0|0,3:0|0:0,0:0:0:0:
138,252,46427,1,8,3:0:0:0:
138,252,46523,1,2,0:0:0:0:
138,252,46619,2,0,P|138:221|132:186,1,44.999998626709,2|0,0:0|0:0,0:0:0:0:
134,186,46811,6,0,B|158:169|158:169|236:165,1,89.9999972534181,4|0,3:2|0:0,0:0:0:0:
302,133,47196,2,0,P|346:134|391:127,1,89.9999972534181,8|0,3:0|0:0,0:0:0:0:
475,160,47581,1,0,3:0:0:0:
475,160,47965,2,0,P|431:208|379:220,1,89.9999972534181,8|0,3:0|3:0,0:0:0:0:
238,121,48542,6,0,L|226:273,1,134.999995880127,4|0,3:2|3:0,0:0:0:0:
110,323,49119,2,0,L|98:171,2,134.999995880127,0|0|0,3:0|3:0|3:0,0:0:0:0:
166,372,49888,6,0,P|221:385|273:375,1,75,4|0,3:2|0:0,0:0:0:0:
299,338,50273,2,0,P|349:313|377:311,1,75,0|0,3:0|0:0,0:0:0:0:
432,347,50658,2,0,L|445:250,1,75,0|0,3:0|0:0,0:0:0:0:
397,212,51042,2,0,L|387:137,1,75,0|0,3:0|0:0,0:0:0:0:
415,68,51426,6,0,B|349:57|349:57|306:74,1,112.5,0|0,3:0|0:0,0:0:0:0:
275,96,51811,2,0,P|246:142|221:155,1,75,0|0,3:0|0:0,0:0:0:0:
156,133,52196,1,0,3:0:0:0:
120,199,52388,1,0,3:0:0:0:
48,174,52581,2,0,P|87:246|87:262,1,75,0|0,3:0|0:0,0:0:0:0:
157,257,52965,5,0,3:0:0:0:
157,257,53061,2,0,P|134:305|148:349,1,75,2|0,0:0|0:0,0:0:0:0:
160,354,53350,1,0,3:0:0:0:
160,354,53542,1,0,3:0:0:0:
233,340,53734,2,0,P|282:336|316:347,1,75,0|0,3:0|0:0,0:0:0:0:
333,272,54119,2,0,P|382:276|416:265,1,75,0|0,3:0|0:0,0:0:0:0:
463,221,54503,6,0,P|456:184|456:146,1,75,0|0,3:0|0:0,0:0:0:0:
418,81,54888,2,0,L|311:109,1,75,0|0,3:0|0:0,0:0:0:0:
278,150,55273,1,2,3:0:0:0:
278,150,55369,2,0,L|184:159,2,75,2|2|2,0:0|0:0|0:0,0:0:0:0:
278,150,56042,6,0,L|270:50,1,90,0|0,3:0|3:0,0:0:0:0:
191,18,56619,2,0,P|140:12|92:28,2,90,0|0|0,3:0|3:0|3:0,0:0:0:0:
182,107,57484,2,0,P|175:151|186:194,1,90,0|0,3:0|3:0,0:0:0:0:
248,259,58061,2,0,P|299:265|347:249,2,90,0|0|0,3:0|3:0|3:0,0:0:0:0:
180,198,58927,1,0,3:0:0:0:
120,203,59119,6,0,L|67:209,3,30,0|2|2|2,3:0|0:0|0:0|0:0,0:0:0:0:
63,220,59504,2,0,L|33:216,3,30,0|2|0|2,3:0|0:0|0:0|0:0,0:0:0:0:
12,194,59888,2,0,L|8:164,3,30,0|2|2|2,3:0|0:0|0:0|0:0,0:0:0:0:
29,142,60273,2,0,L|35:89,3,30,0|2|0|2,3:0|0:0|0:0|0:0,0:0:0:0:
15,87,60657,6,0,L|12:62,16,15,2|2|2|2|2|2|2|2|2|2|2|2|2|2|2|2|2,0:0|0:0|0:0|0:0|0:0|0:0|0:0|0:0|0:0|0:0|0:0|0:0|0:0|0:0|0:0|0:0|0:0,0:0:0:0:
226,200,62196,5,0,3:0:0:0:
135,219,74504,5,4,3:2:0:0:
256,192,74600,12,2,79888,0:0:0:0:
151,204,80465,5,0,3:0:0:0:
166,193,80561,1,0,3:0:0:0:
181,181,80658,6,0,P|200:140|196:67,1,112.5,0|0,3:0|3:0,0:0:0:0:
294,132,81234,2,0,L|411:141,2,112.5,0|0|0,3:0|3:0|3:0,0:0:0:0:
193,184,82100,2,0,B|185:243|185:243|213:296,1,112.5,0|0,3:0|3:0,0:0:0:0:
310,340,82677,2,0,P|365:341|412:370,2,112.5,0|0|0,3:0|3:0|3:0,0:0:0:0:
388,258,83542,1,0,3:0:0:0:
374,184,83734,6,0,L|363:127,3,37.5,0|2|2|2,3:0|0:0|0:0|0:0,0:0:0:0:
339,120,84119,2,0,L|346:83,3,37.5,0|2|0|2,3:0|0:0|0:0|0:0,0:0:0:0:
358,47,84504,2,0,L|321:54,3,37.5,0|2|2|2,3:0|0:0|0:0|0:0,0:0:0:0:
285,42,84888,2,0,L|228:31,3,37.5,0|2|2|2,3:0|0:0|0:0|0:0,0:0:0:0:
211,45,85273,6,0,L|178:51,16,18.75,2|2|2|2|2|2|2|2|2|2|2|2|2|2|0|2|2,0:0|0:0|0:0|0:0|0:0|0:0|0:0|0:0|0:0|0:0|0:0|0:0|0:0|0:0|0:0|0:0|0:0,0:0:0:0:
64,79,86811,6,0,P|71:123|51:230,1,150,4|8,3:2|0:0,0:0:0:0:
39,299,87965,2,0,B|65:247|133:235|179:262|179:262|204:269|222:254,1,206.25,0|0,3:0|0:0,0:0:0:0:
238,220,89119,6,0,P|191:276|202:348,1,150,8|2,0:0|0:0,0:0:0:0:
271,377,89888,6,0,B|327:373|327:373|378:334,1,112.5,0|0,3:0|0:0,0:0:0:0:
446,328,90658,2,0,L|438:234,1,75,8|0,0:0|3:0,0:0:0:0:
440,180,91042,2,0,B|377:178|377:178|324:225|324:225|237:217,1,206.25,0|0,3:0|0:0,0:0:0:0:
214,218,92196,6,0,B|194:251|194:251|199:355,2,112.5,12|0|0,0:2|3:0|3:0,0:0:0:0:
275,131,92965,6,0,L|125:145,1,150,0|8,3:0|0:0,0:0:0:0:
53,166,94119,2,0,B|76:204|76:204|41:211|-3:267|18:321|38:335,1,206.25,0|0,3:0|0:0,0:0:0:0:
69,356,95273,6,0,P|148:347|190:297,1,150,8|2,0:0|0:0,0:0:0:0:
309,175,96042,6,0,B|248:186|248:186|216:224,1,112.5,0|0,3:0|0:0,0:0:0:0:
266,280,96811,1,8,0:0:0:0:
266,280,97004,1,0,3:0:0:0:
334,255,97196,6,0,L|446:252,1,112.5,0|0,3:0|0:0,0:0:0:0:
506,206,97965,2,0,P|514:169|508:126,1,75,0|0,3:0|0:0,0:0:0:0:
480,110,98254,1,0,3:0:0:0:
480,110,98350,2,0,L|384:112,1,75,8|0,0:0|0:0,0:0:0:0:
295,138,98831,2,0,P|290:90|306:44,1,75,0|0,3:0|0:0,0:0:0:0:
306,48,99119,6,0,B|261:12|201:27|201:27|176:59,1,150,4|8,3:2|0:0,0:0:0:0:
214,123,100273,2,0,B|235:170|218:204|159:202|167:285|210:307,1,206.25,0|0,3:0|0:0,0:0:0:0:
206,345,101427,6,0,P|263:357|331:292,1,150,8|2,0:0|0:0,0:0:0:0:
370,239,102196,6,0,B|375:190|375:190|323:137,1,112.5,0|0,3:0|0:0,0:0:0:0:
273,96,102965,1,8,0:0:0:0:
273,96,103158,1,0,3:0:0:0:
202,61,103350,6,0,P|225:134|145:234,1,206.25,0|0,3:0|0:0,0:0:0:0:
115,227,104504,6,0,L|125:114,2,112.5,8|4|4,0:0|3:2|3:2,0:0:0:0:
161,309,105273,6,0,P|185:316|309:275,1,150,0|8,3:0|0:0,0:0:0:0:
362,239,106427,2,0,B|394:209|373:130|321:116|314:74|314:74|320:52,1,206.25,0|0,3:0|0:0,0:0:0:0:
340,22,107581,6,0,P|409:18|453:88,1,150,8|2,0:0|0:0,0:0:0:0:
414,196,108350,6,0,B|328:209|328:209|269:185,1,150,0|8,3:0|0:0,0:0:0:0:
245,157,109311,1,0,3:0:0:0:
181,106,109504,6,0,B|140:163|171:202|185:203|217:256|167:308,1,213.749993476868,0|0,3:0|0:0,0:0:0:0:
138,324,111427,6,0,L|232:333,1,75,0|0,3:0|0:0,0:0:0:0:
248,320,111715,2,0,L|342:329,1,75,0|0,0:0|0:0,0:0:0:0:
359,317,112004,1,0,3:0:0:0:
477,305,112196,6,0,P|494:271|500:234,1,75,0|0,3:0|0:0,0:0:0:0:
466,222,112484,2,0,P|449:188|443:151,1,75,0|0,0:0|0:0,0:0:0:0:
467,123,112773,1,0,3:0:0:0:
399,91,112965,6,0,B|363:112|363:112|305:109,1,75,0|0,3:0|0:0,0:0:0:0:
303,83,113254,2,0,B|267:62|267:62|209:65,1,75,0|0,0:0|0:0,0:0:0:0:
198,77,113542,1,0,3:0:0:0:
122,124,113734,6,0,P|112:160|123:209,1,75,0|0,3:0|0:0,0:0:0:0:
104,232,114023,2,0,P|130:258|178:273,1,75,0|0,0:0|0:0,0:0:0:0:
193,296,114311,1,0,3:0:0:0:
265,274,114504,6,0,L|292:105,1,150,4|8,3:2|3:0,0:0:0:0:
303,52,115081,1,0,3:0:0:0:
377,49,115273,6,0,P|398:79|390:197,1,150,0|8,3:0|3:0,0:0:0:0:
331,226,115850,1,0,3:0:0:0:
289,288,116042,6,0,B|208:268,1,75,0|0,3:0|0:0,0:0:0:0:
141,260,116427,2,0,B|118:358,1,75,0|0,3:0|0:0,0:0:0:0:
146,362,116715,1,0,3:0:0:0:
159,369,116811,6,0,P|200:386|276:367,1,112.5,4|4,3:2|3:2,0:0:0:0:
371,335,117388,1,0,3:0:0:0:
379,344,117484,1,0,3:0:0:0:
387,353,117581,6,0,L|400:253,1,75,0|0,3:0|0:0,0:0:0:0:
366,256,117869,2,0,L|353:156,1,75,0|0,0:0|0:0,0:0:0:0:
352,144,118158,1,0,3:0:0:0:
287,182,118350,6,0,P|244:183|206:163,1,75,0|0,3:0|0:0,0:0:0:0:
193,140,118638,2,0,P|150:139|112:159,1,75,0|0,0:0|0:0,0:0:0:0:
116,189,118927,1,0,3:0:0:0:
155,252,119119,6,0,B|131:277|131:277|93:290,1,75,0|0,3:0|0:0,0:0:0:0:
59,307,119408,2,0,B|97:320|97:320|120:345,1,75,0|0,0:0|0:0,0:0:0:0:
140,377,119696,1,0,3:0:0:0:
214,377,119888,6,0,P|244:380|293:360,1,75,0|0,3:0|0:0,0:0:0:0:
337,306,120177,1,0,0:0:0:0:
343,299,120273,2,0,L|328:213,1,75,4|0,3:2|3:0,0:0:0:0:
330,149,120658,6,0,B|289:144|289:144|236:102|160:131|155:214,1,225,4|0,3:2|3:0,0:0:0:0:
84,230,121427,2,0,P|91:158|155:72,1,150,4|0,3:2|0:0,0:0:0:0:
195,55,122004,1,0,3:0:0:0:
269,51,122196,6,0,L|386:62,1,112.5,4|4,3:2|3:2,0:0:0:0:
493,70,122773,2,0,L|503:182,2,112.5,4|4|8,3:2|3:2|3:0,0:0:0:0:
461,1,123542,1,0,3:0:0:0:
406,52,123734,6,0,L|397:146,1,75,0|0,3:0|0:0,0:0:0:0:
410,162,124022,2,0,L|401:256,1,75,0|0,0:0|0:0,0:0:0:0:
413,273,124311,1,0,3:0:0:0:
348,310,124503,6,0,P|314:293|277:287,1,75,0|0,3:0|0:0,0:0:0:0:
265,321,124791,2,0,P|231:338|194:344,1,75,0|0,0:0|0:0,0:0:0:0:
166,320,125080,1,0,3:0:0:0:
157,245,125272,6,0,B|178:209|178:209|175:151,1,75,0|0,3:0|0:0,0:0:0:0:
149,149,125561,2,0,B|128:113|128:113|131:55,1,75,0|0,0:0|0:0,0:0:0:0:
143,44,125849,1,0,0:0:0:0:
213,18,126041,6,0,P|249:8|298:19,1,75,4|0,3:2|0:0,0:0:0:0:
321,0,126330,2,0,P|347:26|362:74,1,75,4|0,3:2|0:0,0:0:0:0:
385,89,126618,1,4,3:2:0:0:
328,138,126811,6,0,L|304:304,1,150,0|8,3:0|3:0,0:0:0:0:
238,319,127388,1,0,3:0:0:0:
200,254,127580,2,0,P|127:240|61:273,1,150,0|8,3:0|3:0,0:0:0:0:
36,344,128157,1,0,3:0:0:0:
104,373,128349,6,0,B|185:353,1,75,0|0,3:2|0:0,0:0:0:0:
231,302,128734,2,0,B|248:228,1,75,8|0,3:0|3:0,0:0:0:0:
274,202,129022,1,0,3:0:0:0:
287,195,129119,6,0,P|328:178|404:197,2,112.5,4|4|4,3:2|3:2|3:2,0:0:0:0:
213,212,129888,6,0,L|200:112,1,75,0|0,3:0|0:0,0:0:0:0:
234,115,130176,2,0,L|247:15,1,75,0|0,0:0|0:0,0:0:0:0:
248,3,130465,1,0,3:0:0:0:
313,57,130657,6,0,P|356:58|394:38,1,75,0|0,3:0|0:0,0:0:0:0:
407,15,130945,2,0,P|450:14|488:34,1,75,0|0,0:0|0:0,0:0:0:0:
484,64,131234,1,0,3:0:0:0:
471,137,131426,6,0,B|445:160|445:160|432:198,1,75,0|0,3:0|0:0,0:0:0:0:
416,233,131715,2,0,B|403:195|403:195|377:171,1,75,0|0,0:0|0:0,0:0:0:0:
346,152,132003,1,0,3:0:0:0:
278,183,132195,6,0,P|248:186|199:166,1,75,0|0,3:0|0:0,0:0:0:0:
173,153,132484,1,0,0:0:0:0:
167,160,132580,2,0,L|182:246,1,75,8|0,3:0|3:0,0:0:0:0:
156,321,132965,6,0,B|197:326|197:326|250:368|326:339|338:283,1,179.999994506836,4|0,3:2|0:0,0:0:0:0:
347,228,133542,1,0,0:0:0:0:
305,148,133734,2,0,P|385:111|468:138,1,179.999994506836,4|2,3:2|0:0,0:0:0:0:
481,181,134215,1,2,0:0:0:0:
484,192,134311,2,0,L|432:199,1,44.999998626709,0|0,3:0|3:0,0:0:0:0:
308,164,134696,6,0,L|325:307,1,134.999995880127,0|0,3:0|3:0,0:0:0:0:
200,350,135273,2,0,L|217:207,2,134.999995880127,0|0|0,3:0|3:0|3:0,0:0:0:0:
286,374,136042,1,0,3:0:0:0:
256,192,136138,12,0,137677,1:0:0:0:
