osu file format v14

[General]
AudioFilename: audio.mp3
AudioLeadIn: 0
PreviewTime: 118
Countdown: 0
SampleSet: Normal
StackLeniency: 0.3
Mode: 0
LetterboxInBreaks: 0
WidescreenStoryboard: 1

[Editor]
DistanceSpacing: 1.1
BeatDivisor: 8
GridSize: 4
TimelineZoom: 2.100001

[Metadata]
Title:Ether Strike
TitleUnicode:Ether Strike
Artist:Akira Complex
ArtistUnicode:Akira Complex
Creator:FreeSongs
Version:The Beginning of Time
Source:Arcaea
Tags:lowiro hikari zero luminous sky future synth cierra electronic instrumental
BeatmapID:2423869
BeatmapSetID:1157351

[Difficulty]
HPDrainRate:4
CircleSize:3
OverallDifficulty:4
ApproachRate:4
SliderMultiplier:1
SliderTickRate:1

[Events]
//Background and Video events
0,0,"bg.jpg",0,0
//Break Periods
2,62580,72964
2,77964,79118
//Storyboard Layer 0 (Background)
//Storyboard Layer 1 (Fail)
//Storyboard Layer 2 (Pass)
//Storyboard Layer 3 (Foreground)
//Storyboard Layer 4 (Overlay)
//Storyboard Sound Samples

[TimingPoints]
658,384.615384615385,4,1,1,70,1,0
19384,-100,4,1,3,72,0,0
19673,-100,4,1,3,74,0,0
19961,-100,4,1,3,76,0,0
20250,-100,4,1,3,78,0,0
20538,-100,4,1,3,80,0,0
20827,-100,4,1,3,82,0,0
21115,-100,4,1,3,84,0,0
21404,-100,4,1,3,86,0,0
21692,-100,4,1,3,88,0,0
21981,-100,4,1,3,90,0,0
25250,-100,4,1,3,90,0,0
31427,307.692307692308,4,1,3,90,1,0
31427,-125,4,1,3,90,0,0
31696,-125,4,1,3,5,0,0
31773,-125,4,1,3,90,0,0
32234,-125,4,1,3,5,0,0
32311,-125,4,1,3,90,0,0
33234,-125,4,1,3,5,0,0
33311,-125,4,1,3,90,0,0
33773,-125,4,1,3,5,0,0
33850,-125,4,1,3,90,0,0
34773,-125,4,1,3,5,0,0
34850,-125,4,1,3,90,0,0
35080,-125,4,1,3,5,0,0
35157,-125,4,1,3,90,0,0
36042,384.615384615385,4,1,3,90,1,0
37581,307.692307692308,4,1,3,90,1,0
37581,-125,4,1,3,90,0,0
37850,-125,4,1,3,5,0,0
37927,-125,4,1,3,90,0,0
38388,-125,4,1,3,5,0,0
38465,-125,4,1,3,90,0,0
39388,-125,4,1,3,5,0,0
39465,-125,4,1,3,90,0,0
39696,-125,4,1,3,5,0,0
39773,-125,4,1,3,90,0,0
42965,384.615384615385,4,1,3,90,1,0
43734,307.692307692308,4,1,3,90,1,0
43734,-125,4,1,3,90,0,0
44003,-125,4,1,3,5,0,0
44080,-125,4,1,3,90,0,0
44541,-125,4,1,3,5,0,0
44618,-125,4,1,3,90,0,0
45541,-125,4,1,3,5,0,0
45618,-125,4,1,3,90,0,0
46080,-125,4,1,3,5,0,0
46157,-125,4,1,3,90,0,0
47080,-125,4,1,3,5,0,0
47157,-125,4,1,3,90,0,0
47387,-125,4,1,3,5,0,0
47464,-125,4,1,3,90,0,0
48157,384.615384615385,4,1,3,90,1,0
48349,384.615384615385,4,1,3,90,1,0
49502,307.692307692308,4,1,3,90,1,0
49888,384.615384615385,4,1,3,80,1,0
51401,-100,4,1,3,75,0,0
53324,-100,4,1,3,70,0,0
56304,-100,4,1,3,72,0,0
56593,-100,4,1,3,74,0,0
56881,-100,4,1,3,76,0,0
57170,-100,4,1,3,78,0,0
57458,-100,4,1,3,80,0,0
57747,-100,4,1,3,82,0,0
58035,-100,4,1,3,84,0,0
58324,-100,4,1,3,86,0,0
58612,-100,4,1,3,88,0,0
58901,-100,4,1,3,90,0,0
62170,-100,4,1,1,70,0,0
80632,-100,4,1,2,70,0,0
80920,-100,4,1,2,72,0,0
81209,-100,4,1,2,74,0,0
81497,-100,4,1,2,76,0,0
81786,-100,4,1,2,78,0,0
82074,-100,4,1,2,80,0,0
82363,-100,4,1,2,82,0,0
82651,-100,4,1,2,84,0,0
82939,-100,4,1,2,86,0,0
83227,-100,4,1,2,90,0,0
83516,-100,4,1,2,92,0,0
83709,-100,4,1,2,94,0,0
86811,-100,4,1,2,100,0,1
92196,307.692307692308,4,1,2,100,1,1
92196,-125,4,1,2,100,0,1
92965,384.615384615385,4,1,2,100,1,1
97965,307.692307692308,4,1,2,100,1,1
97965,-125,4,1,2,100,0,1
99119,384.615384615385,4,1,2,100,1,1
104504,307.692307692308,4,1,2,100,1,1
105273,384.615384615385,4,1,2,100,1,1
108324,-100,4,1,2,95,0,1
109093,-100,4,1,2,90,0,1
109478,-100,4,1,2,85,0,1
111426,-100,4,1,3,80,0,0

[Colours]
Combo1 : 255,128,245
Combo2 : 191,191,191
Combo3 : 255,0,0
Combo4 : 128,255,134
Combo5 : 153,128,255
Combo6 : 128,255,252
Combo7 : 255,252,128

[HitObjects]
236,96,11619,6,0,B|160:96|160:96|108:152|108:152|172:188|172:188|120:240|120:240|64:240,1,350,12|12,0:3|0:3,0:0:0:0:
128,332,13349,2,0,L|28:332,2,100,2|2|2,0:0|0:0|0:0,0:0:0:0:
240,332,14503,1,2,0:0:0:0:
352,332,14888,2,0,L|452:332,2,100,2|2|2,0:0|0:0|0:0,0:0:0:0:
240,332,16042,37,2,0:0:0:0:
300,240,16426,2,0,P|312:192|292:124,2,100,2|2|2,0:0|0:0|0:0,0:0:0:0:
240,332,17580,1,2,0:0:0:0:
352,332,17965,1,2,0:0:0:0:
460,328,18350,2,0,P|448:284|404:236,1,100,2|2,0:0|0:0,0:0:0:0:
300,240,19119,6,0,B|224:240|224:240|184:176|184:176|224:108|224:108|296:108|296:108|348:168,2,375,12|12|12,0:3|0:3|0:3,0:0:0:0:
256,192,22195,12,8,23734,0:3:0:0:
363,168,25273,38,0,P|411:156|460:168,1,100,12|8,0:3|0:3,0:0:0:0:
412,268,26042,1,8,0:3:0:0:
300,268,26426,1,8,0:3:0:0:
220,344,26811,2,0,P|171:356|123:344,1,100,8|8,0:3|0:3,0:0:0:0:
172,244,27580,1,8,0:3:0:0:
64,236,27965,2,0,B|80:184|80:184|120:152,1,100,8|8,0:3|0:3,0:0:0:0:
200,84,28734,37,8,0:3:0:0:
296,32,29119,2,0,P|308:84|292:136,2,100,8|8|8,0:3|0:3|0:3,0:0:0:0:
200,84,30272,1,8,0:3:0:0:
92,84,30658,2,0,L|16:84,1,75.1200000000001,8|8,0:3|0:3,0:0:0:0:
4,220,31427,54,0,L|160:220,2,150,12|8|8,0:3|0:0|0:3,0:0:0:0:
60,124,32965,2,0,B|148:124|148:124|188:124|212:132,2,150,8|8|8,0:3|0:0|0:3,0:0:0:0:
4,220,34503,38,0,B|149:221|149:221|184:220|208:240,1,200,12|12,0:3|0:3,0:0:0:0:
452,120,36234,70,0,B|416:108|380:120|380:120|368:84|336:56,2,150,12|12|12,0:3|0:3|0:3,0:0:0:0:
492,156,37581,86,0,P|496:208|456:296,2,150,12|8|8,0:3|0:0|0:3,0:0:0:0:
400,220,39119,2,0,P|366:260|228:293,1,200,8|12,0:3|0:3,0:0:0:0:
144,264,40195,2,0,P|139:282|148:336,1,70,12|12,0:3|0:3,0:0:0:0:
28,216,41043,38,0,L|37:110,1,100,12|8,0:3|0:3,0:0:0:0:
132,64,41811,2,0,L|123:163,1,100,8|8,0:3|0:3,0:0:0:0:
210,230,42581,1,8,0:3:0:0:
319,239,42965,2,0,P|345:202|352:170,1,75,12|12,0:3|0:3,0:0:0:0:
316,41,43734,54,0,L|164:53,2,150,12|8|8,0:3|0:0|0:3,0:0:0:0:
259,135,45272,2,0,B|167:143|167:143|131:143|111:123,2,150,8|8|8,0:3|0:0|0:3,0:0:0:0:
316,41,46810,38,0,B|169:54|169:54|148:37|116:33,1,200,12|12,0:3|0:3,0:0:0:0:
109,308,48541,70,0,B|137:276|173:268|173:268|201:288|205:332|205:332,2,150,12|12|12,0:3|0:3|0:3,0:0:0:0:
28,104,50464,86,0,P|64:80|176:56,1,150,8|8,0:0|0:3,0:0:0:0:
276,64,51426,1,8,0:3:0:0:
404,168,52003,2,0,P|416:232|372:308,1,150,8|8,0:0|0:3,0:0:0:0:
307,219,52964,1,8,0:3:0:0:
140,216,53541,38,0,P|112:216|100:312,1,150,8|8,0:0|0:3,0:0:0:0:
208,300,54503,1,8,0:3:0:0:
360,232,55080,2,0,B|404:224|444:236,2,75,8|8|8,0:0|0:0|0:3,0:0:0:0:
292,140,56041,6,0,L|242:83|172:57|97:66|35:108|1:175|1:250|35:316|97:359|172:368|242:342,1,750,12|12,0:3|0:3,0:0:0:0:
256,192,59118,12,8,60657,0:3:0:0:
256,192,62195,37,12,0:3:0:0:
256,192,74503,12,0,77580,0:0:0:0:
325,309,80657,54,0,B|256:277|256:277|186:309|186:309|179:234|179:234|117:190|117:190|179:146|179:146|186:71|186:71|256:103|256:103|325:71|325:71|331:146|331:146|394:191,1,750,12|12,0:3|0:3,0:0:0:0:
256,192,83734,12,8,85272,0:3:0:0:
200,120,86811,54,0,B|248:76|248:4|248:4|268:36|304:48,1,200,12|8,0:3|0:0,0:0:0:0:
412,64,87964,2,0,B|426:259|426:259|444:200|500:180,1,300,8|8,0:3|0:0,0:0:0:0:
400,384,89888,70,0,B|332:371|252:372|252:372|268:352|276:324,1,200,8|8,0:3|0:0,0:0:0:0:
292,216,91041,2,0,P|184:224|4:296,1,300,8|8,0:3|0:0,0:0:0:0:
156,133,92965,22,0,B|112:85|120:1|120:1|152:1|176:25,1,200,12|8,0:3|0:0,0:0:0:0:
240,108,94118,2,0,B|348:88|408:108|408:108|480:132|512:112|512:112|504:100|488:96|488:96,1,300,8|8,0:3|0:0,0:0:0:0:
492,320,96041,22,0,P|404:292|300:316,1,200.06,8|8,0:3|0:0,0:0:0:0:
197,350,97195,2,0,P|109:378|5:354,1,200.06,8|8,0:3|0:3,0:0:0:0:
43,251,98349,2,0,P|99:267|167:240,1,130,8|8,0:0|0:3,0:0:0:0:
221,184,99118,70,0,B|281:160|345:181|345:181|381:152|421:160,1,200,12|8,0:3|0:0,0:0:0:0:
509,172,100272,2,0,B|513:124|489:68|429:52|381:68|381:68|337:84|277:72,1,300,8|8,0:3|0:0,0:0:0:0:
59,67,102195,70,0,B|27:95|27:143|27:143|67:195|43:255,1,200,8|8,0:3|0:0,0:0:0:0:
3,351,103349,2,0,B|63:375|132:345|151:273|151:273|203:227|251:271,1,300,8|8,0:3|0:0,0:0:0:0:
453,350,105273,22,0,B|441:302|465:254|465:254|441:206|449:154,1,200,12|8,0:3|0:0,0:0:0:0:
497,58,106426,2,0,P|360:78|353:217,1,300,8|8,0:3|0:0,0:0:0:0:
217,43,108349,22,0,B|233:94|202:140|202:140|156:123|108:151,1,200,8|8,0:3|0:0,0:0:0:0:
60,249,109503,2,0,B|89:270|132:267|167:246|167:246|215:260|254:240|254:240|295:266|348:270|348:270|448:273|448:273,1,400,8|0,0:3|0:0,0:0:0:0:
393,359,111426,54,0,L|289:355,1,100.16,12|8,0:3|0:0,0:0:0:0:
183,350,112195,1,8,0:3:0:0:
73,344,112580,1,8,0:0:0:0:
121,245,112964,2,0,P|133:201|121:149,1,100.16,8|8,0:3|0:0,0:0:0:0:
26,94,113734,1,8,0:3:0:0:
18,202,114118,1,8,0:0:0:0:
6,310,114503,38,0,L|122:302,1,100,12|8,0:3|0:0,0:0:0:0:
210,335,115272,2,0,L|326:327,1,100,8|8,0:3|0:0,0:0:0:0:
418,319,116041,1,8,0:3:0:0:
410,211,116426,1,8,0:0:0:0:
302,219,116811,2,0,L|210:227,1,75,12|12,0:3|0:3,0:0:0:0:
93,191,117580,54,0,P|97:155|153:107,1,100,12|8,0:3|0:0,0:0:0:0:
249,95,118349,1,8,0:3:0:0:
357,79,118734,1,8,0:0:0:0:
350,188,119118,2,0,P|346:224|290:272,1,100,8|8,0:3|0:0,0:0:0:0:
194,276,119888,1,8,0:3:0:0:
150,376,120272,1,8,0:0:0:0:
260,376,120657,54,0,B|332:356|392:384|392:384|424:364|460:368,1,200,12|12,0:3|0:3,0:0:0:0:
292,216,122195,54,0,L|296:140,1,75.1200000000001,12|12,0:3|0:3,0:0:0:0:
223,101,122772,2,0,L|226:26,1,75.1200000000001,12|12,0:3|0:3,0:0:0:0:
112,184,123734,86,0,P|132:216|184:248,1,100,12|8,0:3|0:0,0:0:0:0:
292,216,124503,1,8,0:3:0:0:
212,144,124888,1,8,0:0:0:0:
240,40,125272,2,0,P|283:63|312:104,1,100,8|8,0:3|0:0,0:0:0:0:
418,134,126041,2,0,P|404:168|374:197,1,75,12|12,0:3|0:3,0:0:0:0:
246,237,126811,38,0,L|146:237,1,100,12|8,0:3|0:0,0:0:0:0:
99,136,127580,2,0,L|199:136,1,100,8|8,0:3|0:0,0:0:0:0:
298,88,128349,2,0,P|310:136|298:184,1,100,8|8,0:3|0:0,0:0:0:0:
238,276,129118,2,0,P|207:247|193:215,1,75,12|12,0:3|0:3,0:0:0:0:
121,101,129888,54,0,P|72:88|24:100,2,100,12|8|8,0:3|0:0|0:3,0:0:0:0:
71,198,131041,1,8,0:0:0:0:
171,246,131426,2,0,P|195:254|275:246,1,100,8|8,0:3|0:0,0:0:0:0:
307,146,132195,2,0,P|331:138|411:146,1,100,8|8,0:3|0:0,0:0:0:0:
493,208,132964,54,0,B|513:156|513:156|493:72|493:72|509:16,1,200.06,12|12,0:3|0:3,0:0:0:0:
256,151,134695,54,0,P|222:142|184:150,1,75,12|12,0:3|0:3,0:0:0:0:
146,223,135272,2,0,P|180:232|218:224,1,75,12|12,0:3|0:3,0:0:0:0:
301,221,135849,2,0,P|298:251|289:271,1,50,12|12,0:3|0:3,0:0:0:0:
256,192,136234,12,0,137580,0:0:0:0:
