osu file format v14

[General]
AudioFilename: audio.mp3
AudioLeadIn: 0
PreviewTime: 86145
Countdown: 0
SampleSet: None
StackLeniency: 0.7
Mode: 3
LetterboxInBreaks: 0
SpecialStyle: 0
WidescreenStoryboard: 0

[Editor]
DistanceSpacing: 0.8
BeatDivisor: 4
GridSize: 32
TimelineZoom: 2.2

[Metadata]
Title:Ether Strike
TitleUnicode:Ether Strike
Artist:Akira Complex
ArtistUnicode:Akira Complex
Creator:DesKurisu
Version:My Guiding Star [NOSV]
Source:Arcaea
Tags:Luminous Sky Hikari Light
BeatmapID:1728714
BeatmapSetID:824953

[Difficulty]
HPDrainRate:8
CircleSize:10
OverallDifficulty:8
ApproachRate:5
SliderMultiplier:1.4
SliderTickRate:1

[Events]
//Background and Video events
0,0,"Ether Strike.jpg",0,0
//Break Periods
//Storyboard Layer 0 (Background)
//Storyboard Layer 1 (Fail)
//Storyboard Layer 2 (Pass)
//Storyboard Layer 3 (Foreground)
//Storyboard Sound Samples

[TimingPoints]
761,384.615384615385,4,2,0,0,1,0
86914,-100,4,2,0,0,0,1
137684,-100,4,2,0,0,0,0

[HitObjects]
384,192,761,128,0,857:0:0:0:0:
332,192,761,128,0,857:0:0:0:0:
281,192,761,128,0,857:0:0:0:0:
128,192,761,128,0,857:0:0:0:0:
76,192,761,128,0,857:0:0:0:0:
25,192,761,128,0,857:0:0:0:0:
486,192,857,128,0,1049:0:0:0:0:
435,192,1241,128,0,1434:0:0:0:0:
384,192,1626,128,0,1818:0:0:0:0:
332,192,2011,128,0,2203:0:0:0:0:
281,192,2395,128,0,2587:0:0:0:0:
230,192,2780,128,0,2972:0:0:0:0:
179,192,3164,128,0,3357:0:0:0:0:
384,192,3261,1,0,0:0:0:0:
332,192,3357,1,0,0:0:0:0:
384,192,3453,1,0,0:0:0:0:
281,192,3549,1,0,0:0:0:0:
435,192,3549,1,0,0:0:0:0:
486,192,3549,1,0,0:0:0:0:
128,192,3549,128,0,3741:0:0:0:0:
230,192,3837,1,0,0:0:0:0:
76,192,3837,1,0,0:0:0:0:
25,192,3837,1,0,0:0:0:0:
384,192,3934,128,0,4126:0:0:0:0:
332,192,4318,128,0,4511:0:0:0:0:
281,192,4703,128,0,4895:0:0:0:0:
230,192,5087,128,0,5280:0:0:0:0:
179,192,5472,128,0,5664:0:0:0:0:
128,192,5857,128,0,6049:0:0:0:0:
281,192,6145,128,0,6818:0:0:0:0:
384,192,6145,128,0,6818:0:0:0:0:
435,192,6145,128,0,6818:0:0:0:0:
76,192,6241,128,0,6434:0:0:0:0:
25,192,6626,128,0,6818:0:0:0:0:
281,192,6914,1,0,0:0:0:0:
384,192,6914,1,0,0:0:0:0:
435,192,6914,1,0,0:0:0:0:
128,192,9511,5,0,0:0:0:0:
179,192,9511,1,0,0:0:0:0:
230,192,9511,1,0,0:0:0:0:
281,192,9511,1,0,0:0:0:0:
332,192,9511,1,0,0:0:0:0:
384,192,9511,1,0,0:0:0:0:
128,192,9703,1,0,0:0:0:0:
179,192,9703,1,0,0:0:0:0:
230,192,9703,1,0,0:0:0:0:
384,192,9703,1,0,0:0:0:0:
332,192,9703,1,0,0:0:0:0:
281,192,9703,1,0,0:0:0:0:
435,192,9895,1,0,0:0:0:0:
76,192,9895,1,0,0:0:0:0:
486,192,9895,1,0,0:0:0:0:
25,192,9895,1,0,0:0:0:0:
128,192,9991,1,0,0:0:0:0:
179,192,9991,1,0,0:0:0:0:
230,192,9991,1,0,0:0:0:0:
332,192,9991,1,0,0:0:0:0:
281,192,9991,1,0,0:0:0:0:
384,192,9991,1,0,0:0:0:0:
179,192,11337,128,0,11626:0:0:0:0:
128,192,11402,128,0,11658:0:0:0:0:
76,192,11466,128,0,11690:0:0:0:0:
25,192,11530,128,0,11722:0:0:0:0:
281,192,11722,1,0,0:0:0:0:
332,192,11722,1,0,0:0:0:0:
384,192,11722,1,0,0:0:0:0:
435,192,11722,1,0,0:0:0:0:
332,192,12011,5,0,0:0:0:0:
281,192,12011,1,0,0:0:0:0:
384,192,12011,1,0,0:0:0:0:
25,192,12011,1,0,0:0:0:0:
76,192,12011,1,0,0:0:0:0:
128,192,12011,1,0,0:0:0:0:
76,192,12299,1,0,0:0:0:0:
128,192,12299,1,0,0:0:0:0:
179,192,12299,1,0,0:0:0:0:
332,192,12299,1,0,0:0:0:0:
384,192,12299,1,0,0:0:0:0:
435,192,12299,1,0,0:0:0:0:
76,192,12587,1,0,0:0:0:0:
230,192,12587,1,0,0:0:0:0:
281,192,12587,1,0,0:0:0:0:
435,192,12587,1,0,0:0:0:0:
128,192,12587,1,0,0:0:0:0:
384,192,12587,1,0,0:0:0:0:
230,192,12876,1,0,0:0:0:0:
76,192,12876,1,0,0:0:0:0:
281,192,12876,1,0,0:0:0:0:
25,192,12876,1,0,0:0:0:0:
435,192,12876,1,0,0:0:0:0:
486,192,12876,1,0,0:0:0:0:
230,192,13068,128,0,13261:0:0:0:0:
179,192,13068,128,0,13261:0:0:0:0:
128,192,13068,128,0,13261:0:0:0:0:
384,192,13068,128,0,13261:0:0:0:0:
435,192,13068,128,0,13261:0:0:0:0:
486,192,13068,128,0,13261:0:0:0:0:
435,192,13453,1,0,0:0:0:0:
486,192,13453,1,0,0:0:0:0:
384,192,13453,1,0,0:0:0:0:
486,192,13837,1,0,0:0:0:0:
384,192,13837,1,0,0:0:0:0:
435,192,13837,1,0,0:0:0:0:
486,192,14222,1,0,0:0:0:0:
435,192,14222,1,0,0:0:0:0:
384,192,14222,1,0,0:0:0:0:
25,192,14607,128,0,14799:0:0:0:0:
76,192,14607,128,0,14799:0:0:0:0:
128,192,14607,128,0,14799:0:0:0:0:
281,192,14607,128,0,14799:0:0:0:0:
332,192,14607,128,0,14799:0:0:0:0:
384,192,14607,128,0,14799:0:0:0:0:
25,192,14991,1,0,0:0:0:0:
76,192,14991,1,0,0:0:0:0:
128,192,14991,1,0,0:0:0:0:
25,192,15376,1,0,0:0:0:0:
76,192,15376,1,0,0:0:0:0:
128,192,15376,1,0,0:0:0:0:
435,192,15761,1,0,0:0:0:0:
486,192,15761,1,0,0:0:0:0:
384,192,15761,1,0,0:0:0:0:
25,192,15857,1,0,0:0:0:0:
76,192,15857,1,0,0:0:0:0:
128,192,15857,1,0,0:0:0:0:
384,192,15953,1,0,0:0:0:0:
435,192,15953,1,0,0:0:0:0:
486,192,15953,1,0,0:0:0:0:
25,192,16049,1,0,0:0:0:0:
76,192,16049,1,0,0:0:0:0:
128,192,16049,1,0,0:0:0:0:
281,192,16145,128,0,16337:0:0:0:0:
332,192,16145,128,0,16337:0:0:0:0:
384,192,16145,128,0,16337:0:0:0:0:
435,192,16145,128,0,16337:0:0:0:0:
486,192,16145,128,0,16337:0:0:0:0:
435,192,16530,1,0,0:0:0:0:
332,192,16530,1,0,0:0:0:0:
384,192,16530,1,0,0:0:0:0:
332,192,16914,1,0,0:0:0:0:
384,192,16914,1,0,0:0:0:0:
435,192,16914,1,0,0:0:0:0:
384,192,17299,1,0,0:0:0:0:
332,192,17299,1,0,0:0:0:0:
435,192,17299,1,0,0:0:0:0:
332,192,17684,128,0,17876:0:0:0:0:
384,192,17684,128,0,17876:0:0:0:0:
435,192,17684,128,0,17876:0:0:0:0:
179,192,17684,128,0,17876:0:0:0:0:
128,192,17684,128,0,17876:0:0:0:0:
76,192,17684,128,0,17876:0:0:0:0:
179,192,18068,1,0,0:0:0:0:
76,192,18068,1,0,0:0:0:0:
128,192,18068,1,0,0:0:0:0:
179,192,18453,1,0,0:0:0:0:
76,192,18453,1,0,0:0:0:0:
128,192,18453,1,0,0:0:0:0:
25,192,19222,1,0,0:0:0:0:
128,192,19222,1,0,0:0:0:0:
76,192,19222,1,0,0:0:0:0:
281,192,19222,1,0,0:0:0:0:
332,192,19222,1,0,0:0:0:0:
384,192,19222,1,0,0:0:0:0:
25,192,19511,1,0,0:0:0:0:
76,192,19511,1,0,0:0:0:0:
128,192,19511,1,0,0:0:0:0:
281,192,19511,1,0,0:0:0:0:
332,192,19511,1,0,0:0:0:0:
435,192,19511,1,0,0:0:0:0:
128,192,19799,1,0,0:0:0:0:
76,192,19799,1,0,0:0:0:0:
25,192,19799,1,0,0:0:0:0:
281,192,19799,1,0,0:0:0:0:
384,192,19799,1,0,0:0:0:0:
435,192,19799,1,0,0:0:0:0:
25,192,20087,1,0,0:0:0:0:
76,192,20087,1,0,0:0:0:0:
128,192,20087,1,0,0:0:0:0:
332,192,20087,1,0,0:0:0:0:
435,192,20087,1,0,0:0:0:0:
384,192,20087,1,0,0:0:0:0:
332,192,20376,1,0,0:0:0:0:
384,192,20376,1,0,0:0:0:0:
486,192,20376,1,0,0:0:0:0:
128,192,20376,1,0,0:0:0:0:
76,192,20376,1,0,0:0:0:0:
25,192,20376,1,0,0:0:0:0:
332,192,20664,1,0,0:0:0:0:
435,192,20664,1,0,0:0:0:0:
486,192,20664,1,0,0:0:0:0:
25,192,20664,1,0,0:0:0:0:
76,192,20664,1,0,0:0:0:0:
128,192,20664,1,0,0:0:0:0:
384,192,20953,1,0,0:0:0:0:
435,192,20953,1,0,0:0:0:0:
486,192,20953,1,0,0:0:0:0:
25,192,20953,1,0,0:0:0:0:
76,192,20953,1,0,0:0:0:0:
179,192,20953,1,0,0:0:0:0:
384,192,21241,1,0,0:0:0:0:
435,192,21241,1,0,0:0:0:0:
486,192,21241,1,0,0:0:0:0:
25,192,21241,1,0,0:0:0:0:
128,192,21241,1,0,0:0:0:0:
179,192,21241,1,0,0:0:0:0:
384,192,21530,1,0,0:0:0:0:
435,192,21530,1,0,0:0:0:0:
486,192,21530,1,0,0:0:0:0:
128,192,21530,1,0,0:0:0:0:
179,192,21530,1,0,0:0:0:0:
76,192,21530,1,0,0:0:0:0:
384,192,21818,1,0,0:0:0:0:
435,192,21818,1,0,0:0:0:0:
486,192,21818,1,0,0:0:0:0:
128,192,21818,1,0,0:0:0:0:
230,192,21818,1,0,0:0:0:0:
76,192,21818,1,0,0:0:0:0:
384,192,22107,1,0,0:0:0:0:
435,192,22107,1,0,0:0:0:0:
486,192,22107,1,0,0:0:0:0:
76,192,22107,1,0,0:0:0:0:
179,192,22107,1,0,0:0:0:0:
230,192,22107,1,0,0:0:0:0:
179,192,22299,5,0,0:0:0:0:
435,192,22299,1,0,0:0:0:0:
230,192,22395,1,0,0:0:0:0:
332,192,22395,1,0,0:0:0:0:
128,192,22491,1,0,0:0:0:0:
435,192,22491,1,0,0:0:0:0:
179,192,22587,1,0,0:0:0:0:
332,192,22587,1,0,0:0:0:0:
76,192,22684,1,0,0:0:0:0:
384,192,22684,1,0,0:0:0:0:
128,192,22780,1,0,0:0:0:0:
281,192,22780,1,0,0:0:0:0:
25,192,22876,1,0,0:0:0:0:
384,192,22876,1,0,0:0:0:0:
76,192,22972,1,0,0:0:0:0:
281,192,22972,1,0,0:0:0:0:
332,192,23068,1,0,0:0:0:0:
230,192,23068,1,0,0:0:0:0:
281,192,23164,1,0,0:0:0:0:
128,192,23164,1,0,0:0:0:0:
384,192,23261,1,0,0:0:0:0:
230,192,23261,1,0,0:0:0:0:
332,192,23357,1,0,0:0:0:0:
128,192,23357,1,0,0:0:0:0:
435,192,23453,1,0,0:0:0:0:
179,192,23453,1,0,0:0:0:0:
384,192,23549,1,0,0:0:0:0:
76,192,23549,1,0,0:0:0:0:
486,192,23645,1,0,0:0:0:0:
179,192,23645,1,0,0:0:0:0:
435,192,23741,1,0,0:0:0:0:
76,192,23741,1,0,0:0:0:0:
384,192,23837,1,0,0:0:0:0:
281,192,23886,1,0,0:0:0:0:
128,192,23934,1,0,0:0:0:0:
230,192,23982,1,0,0:0:0:0:
435,192,24030,1,0,0:0:0:0:
332,192,24078,1,0,0:0:0:0:
76,192,24126,1,0,0:0:0:0:
179,192,24174,1,0,0:0:0:0:
486,192,24222,1,0,0:0:0:0:
384,192,24270,1,0,0:0:0:0:
25,192,24318,1,0,0:0:0:0:
128,192,24366,1,0,0:0:0:0:
435,192,24414,1,0,0:0:0:0:
332,192,24462,1,0,0:0:0:0:
76,192,24511,1,0,0:0:0:0:
179,192,24559,1,0,0:0:0:0:
281,192,24607,128,0,25376:0:0:0:0:
332,192,24847,128,0,25376:0:0:0:0:
384,192,24991,128,0,25376:0:0:0:0:
435,192,25376,1,0,0:0:0:0:
486,192,25376,1,0,0:0:0:0:
179,192,25376,1,0,0:0:0:0:
128,192,25376,1,0,0:0:0:0:
76,192,25376,1,0,0:0:0:0:
281,192,25761,1,0,0:0:0:0:
486,192,25761,1,0,0:0:0:0:
230,192,25857,1,0,0:0:0:0:
332,192,25953,1,0,0:0:0:0:
435,192,25953,1,0,0:0:0:0:
128,192,25953,1,0,0:0:0:0:
230,192,26049,1,0,0:0:0:0:
281,192,26145,1,0,0:0:0:0:
486,192,26145,1,0,0:0:0:0:
179,192,26241,1,0,0:0:0:0:
332,192,26337,1,0,0:0:0:0:
435,192,26337,1,0,0:0:0:0:
76,192,26337,1,0,0:0:0:0:
179,192,26434,1,0,0:0:0:0:
486,192,26530,1,0,0:0:0:0:
281,192,26530,1,0,0:0:0:0:
128,192,26626,1,0,0:0:0:0:
332,192,26722,1,0,0:0:0:0:
435,192,26722,1,0,0:0:0:0:
25,192,26722,1,0,0:0:0:0:
128,192,26818,1,0,0:0:0:0:
486,192,26914,1,0,0:0:0:0:
281,192,26914,1,0,0:0:0:0:
281,192,27299,1,0,0:0:0:0:
486,192,27299,1,0,0:0:0:0:
25,192,27395,1,0,0:0:0:0:
128,192,27491,1,0,0:0:0:0:
332,192,27491,1,0,0:0:0:0:
435,192,27491,1,0,0:0:0:0:
25,192,27587,1,0,0:0:0:0:
486,192,27684,1,0,0:0:0:0:
281,192,27684,1,0,0:0:0:0:
76,192,27780,1,0,0:0:0:0:
179,192,27876,1,0,0:0:0:0:
332,192,27876,1,0,0:0:0:0:
435,192,27876,1,0,0:0:0:0:
76,192,27972,1,0,0:0:0:0:
486,192,28068,1,0,0:0:0:0:
281,192,28068,1,0,0:0:0:0:
128,192,28164,1,0,0:0:0:0:
332,192,28261,1,0,0:0:0:0:
435,192,28261,1,0,0:0:0:0:
230,192,28261,1,0,0:0:0:0:
486,192,28453,1,0,0:0:0:0:
281,192,28453,1,0,0:0:0:0:
230,192,28549,1,0,0:0:0:0:
25,192,28549,1,0,0:0:0:0:
230,192,28837,1,0,0:0:0:0:
25,192,28837,1,0,0:0:0:0:
281,192,28934,1,0,0:0:0:0:
76,192,29030,1,0,0:0:0:0:
179,192,29030,1,0,0:0:0:0:
384,192,29030,1,0,0:0:0:0:
281,192,29126,1,0,0:0:0:0:
230,192,29222,1,0,0:0:0:0:
25,192,29222,1,0,0:0:0:0:
332,192,29318,1,0,0:0:0:0:
76,192,29414,1,0,0:0:0:0:
179,192,29414,1,0,0:0:0:0:
435,192,29414,1,0,0:0:0:0:
332,192,29511,1,0,0:0:0:0:
230,192,29607,1,0,0:0:0:0:
25,192,29607,1,0,0:0:0:0:
384,192,29703,1,0,0:0:0:0:
76,192,29799,1,0,0:0:0:0:
179,192,29799,1,0,0:0:0:0:
486,192,29799,1,0,0:0:0:0:
384,192,29895,1,0,0:0:0:0:
230,192,29991,1,0,0:0:0:0:
25,192,29991,1,0,0:0:0:0:
25,192,30376,1,0,0:0:0:0:
230,192,30376,1,0,0:0:0:0:
486,192,30472,1,0,0:0:0:0:
76,192,30568,1,0,0:0:0:0:
179,192,30568,1,0,0:0:0:0:
384,192,30568,1,0,0:0:0:0:
486,192,30664,1,0,0:0:0:0:
230,192,30761,1,0,0:0:0:0:
25,192,30761,1,0,0:0:0:0:
76,192,30857,1,0,0:0:0:0:
179,192,30857,1,0,0:0:0:0:
435,192,30857,1,0,0:0:0:0:
179,192,31049,1,0,0:0:0:0:
230,192,31049,1,0,0:0:0:0:
435,192,31049,1,0,0:0:0:0:
25,192,31145,1,0,0:0:0:0:
76,192,31145,1,0,0:0:0:0:
332,192,31145,1,0,0:0:0:0:
179,192,31241,1,0,0:0:0:0:
230,192,31241,1,0,0:0:0:0:
435,192,31241,1,0,0:0:0:0:
76,192,31337,1,0,0:0:0:0:
25,192,31337,1,0,0:0:0:0:
332,192,31337,1,0,0:0:0:0:
230,192,31530,1,0,0:0:0:0:
25,192,31530,1,0,0:0:0:0:
281,192,31530,1,0,0:0:0:0:
486,192,31530,1,0,0:0:0:0:
384,192,31914,1,0,0:0:0:0:
76,192,31914,1,0,0:0:0:0:
332,192,32011,1,0,0:0:0:0:
179,192,32011,1,0,0:0:0:0:
384,192,32107,1,0,0:0:0:0:
76,192,32107,1,0,0:0:0:0:
332,192,32203,1,0,0:0:0:0:
179,192,32203,1,0,0:0:0:0:
128,192,32299,1,0,0:0:0:0:
435,192,32299,1,0,0:0:0:0:
179,192,32395,1,0,0:0:0:0:
332,192,32395,1,0,0:0:0:0:
128,192,32491,1,0,0:0:0:0:
435,192,32491,1,0,0:0:0:0:
179,192,32587,1,0,0:0:0:0:
332,192,32587,1,0,0:0:0:0:
384,192,32684,1,0,0:0:0:0:
76,192,32684,1,0,0:0:0:0:
332,192,32780,1,0,0:0:0:0:
179,192,32780,1,0,0:0:0:0:
384,192,32876,1,0,0:0:0:0:
76,192,32876,1,0,0:0:0:0:
332,192,32972,1,0,0:0:0:0:
179,192,32972,1,0,0:0:0:0:
76,192,33068,1,0,0:0:0:0:
435,192,33068,1,0,0:0:0:0:
435,192,33453,1,0,0:0:0:0:
128,192,33453,1,0,0:0:0:0:
332,192,33549,1,0,0:0:0:0:
179,192,33549,1,0,0:0:0:0:
435,192,33645,1,0,0:0:0:0:
128,192,33645,1,0,0:0:0:0:
332,192,33741,1,0,0:0:0:0:
179,192,33741,1,0,0:0:0:0:
384,192,33837,1,0,0:0:0:0:
76,192,33837,1,0,0:0:0:0:
332,192,33934,1,0,0:0:0:0:
179,192,33934,1,0,0:0:0:0:
384,192,34030,1,0,0:0:0:0:
76,192,34030,1,0,0:0:0:0:
332,192,34126,1,0,0:0:0:0:
179,192,34126,1,0,0:0:0:0:
435,192,34222,1,0,0:0:0:0:
128,192,34222,1,0,0:0:0:0:
332,192,34318,1,0,0:0:0:0:
179,192,34318,1,0,0:0:0:0:
435,192,34414,1,0,0:0:0:0:
128,192,34414,1,0,0:0:0:0:
25,192,34607,1,0,0:0:0:0:
230,192,34607,1,0,0:0:0:0:
281,192,34607,1,0,0:0:0:0:
486,192,34607,1,0,0:0:0:0:
384,192,34991,1,0,0:0:0:0:
76,192,34991,1,0,0:0:0:0:
332,192,35087,1,0,0:0:0:0:
179,192,35087,1,0,0:0:0:0:
384,192,35184,1,0,0:0:0:0:
76,192,35184,1,0,0:0:0:0:
332,192,35280,1,0,0:0:0:0:
179,192,35280,1,0,0:0:0:0:
435,192,35376,1,0,0:0:0:0:
76,192,35376,1,0,0:0:0:0:
25,192,35376,1,0,0:0:0:0:
486,192,35376,1,0,0:0:0:0:
128,192,35568,1,0,0:0:0:0:
435,192,35568,1,0,0:0:0:0:
179,192,35664,1,0,0:0:0:0:
332,192,35664,1,0,0:0:0:0:
128,192,35761,1,0,0:0:0:0:
435,192,35761,1,0,0:0:0:0:
179,192,35857,1,0,0:0:0:0:
332,192,35857,1,0,0:0:0:0:
435,192,35953,1,0,0:0:0:0:
76,192,35953,1,0,0:0:0:0:
179,192,36049,1,0,0:0:0:0:
332,192,36049,1,0,0:0:0:0:
25,192,36337,128,0,36530:0:0:0:0:
128,192,36337,128,0,36530:0:0:0:0:
281,192,36337,128,0,36530:0:0:0:0:
384,192,36337,128,0,36530:0:0:0:0:
384,192,36626,128,0,36818:0:0:0:0:
281,192,36626,128,0,36818:0:0:0:0:
128,192,36626,128,0,36818:0:0:0:0:
25,192,36626,128,0,36818:0:0:0:0:
76,192,36914,128,0,37107:0:0:0:0:
179,192,36914,128,0,37107:0:0:0:0:
332,192,36914,128,0,37107:0:0:0:0:
435,192,36914,128,0,37107:0:0:0:0:
435,192,37203,128,0,37395:0:0:0:0:
332,192,37203,128,0,37395:0:0:0:0:
76,192,37203,128,0,37395:0:0:0:0:
179,192,37203,128,0,37395:0:0:0:0:
128,192,37491,128,0,37684:0:0:0:0:
230,192,37491,128,0,37684:0:0:0:0:
384,192,37491,128,0,37684:0:0:0:0:
486,192,37491,128,0,37684:0:0:0:0:
76,192,37684,1,0,0:0:0:0:
179,192,37684,1,0,0:0:0:0:
332,192,37684,1,0,0:0:0:0:
435,192,37684,1,0,0:0:0:0:
281,192,38068,1,0,0:0:0:0:
332,192,38068,1,0,0:0:0:0:
128,192,38068,1,0,0:0:0:0:
384,192,38068,1,0,0:0:0:0:
230,192,38164,1,0,0:0:0:0:
281,192,38261,1,0,0:0:0:0:
435,192,38261,1,0,0:0:0:0:
128,192,38261,1,0,0:0:0:0:
230,192,38357,1,0,0:0:0:0:
281,192,38453,1,0,0:0:0:0:
332,192,38453,1,0,0:0:0:0:
76,192,38453,1,0,0:0:0:0:
179,192,38549,1,0,0:0:0:0:
281,192,38645,1,0,0:0:0:0:
435,192,38645,1,0,0:0:0:0:
76,192,38645,1,0,0:0:0:0:
179,192,38741,1,0,0:0:0:0:
281,192,38837,1,0,0:0:0:0:
332,192,38837,1,0,0:0:0:0:
25,192,38837,1,0,0:0:0:0:
384,192,38837,1,0,0:0:0:0:
128,192,38934,1,0,0:0:0:0:
281,192,39030,1,0,0:0:0:0:
435,192,39030,1,0,0:0:0:0:
25,192,39030,1,0,0:0:0:0:
128,192,39126,1,0,0:0:0:0:
281,192,39222,1,0,0:0:0:0:
332,192,39222,1,0,0:0:0:0:
230,192,39222,1,0,0:0:0:0:
281,192,39414,1,0,0:0:0:0:
281,192,39607,1,0,0:0:0:0:
332,192,39607,1,0,0:0:0:0:
25,192,39607,1,0,0:0:0:0:
384,192,39607,1,0,0:0:0:0:
128,192,39703,1,0,0:0:0:0:
281,192,39799,1,0,0:0:0:0:
435,192,39799,1,0,0:0:0:0:
25,192,39799,1,0,0:0:0:0:
128,192,39895,1,0,0:0:0:0:
332,192,39991,1,0,0:0:0:0:
281,192,39991,1,0,0:0:0:0:
76,192,39991,1,0,0:0:0:0:
179,192,40087,1,0,0:0:0:0:
281,192,40184,1,0,0:0:0:0:
435,192,40184,1,0,0:0:0:0:
76,192,40184,1,0,0:0:0:0:
179,192,40280,1,0,0:0:0:0:
332,192,40376,1,0,0:0:0:0:
281,192,40376,1,0,0:0:0:0:
128,192,40376,1,0,0:0:0:0:
384,192,40376,1,0,0:0:0:0:
230,192,40472,1,0,0:0:0:0:
281,192,40568,1,0,0:0:0:0:
435,192,40568,1,0,0:0:0:0:
128,192,40568,1,0,0:0:0:0:
230,192,40664,1,0,0:0:0:0:
281,192,40761,1,0,0:0:0:0:
281,192,40953,1,0,0:0:0:0:
230,192,41145,1,0,0:0:0:0:
179,192,41145,1,0,0:0:0:0:
128,192,41145,1,0,0:0:0:0:
384,192,41145,1,0,0:0:0:0:
281,192,41241,1,0,0:0:0:0:
230,192,41337,1,0,0:0:0:0:
76,192,41337,1,0,0:0:0:0:
384,192,41337,1,0,0:0:0:0:
281,192,41434,1,0,0:0:0:0:
230,192,41530,1,0,0:0:0:0:
179,192,41530,1,0,0:0:0:0:
435,192,41530,1,0,0:0:0:0:
332,192,41626,1,0,0:0:0:0:
230,192,41722,1,0,0:0:0:0:
76,192,41722,1,0,0:0:0:0:
435,192,41722,1,0,0:0:0:0:
332,192,41818,1,0,0:0:0:0:
230,192,41914,1,0,0:0:0:0:
179,192,41914,1,0,0:0:0:0:
128,192,41914,1,0,0:0:0:0:
486,192,41914,1,0,0:0:0:0:
384,192,42011,1,0,0:0:0:0:
230,192,42107,1,0,0:0:0:0:
76,192,42107,1,0,0:0:0:0:
486,192,42107,1,0,0:0:0:0:
384,192,42203,1,0,0:0:0:0:
230,192,42299,1,0,0:0:0:0:
179,192,42299,1,0,0:0:0:0:
230,192,42491,1,0,0:0:0:0:
230,192,42684,1,0,0:0:0:0:
128,192,42684,1,0,0:0:0:0:
179,192,42684,1,0,0:0:0:0:
486,192,42684,1,0,0:0:0:0:
384,192,42780,1,0,0:0:0:0:
230,192,42876,1,0,0:0:0:0:
76,192,42876,1,0,0:0:0:0:
486,192,42876,1,0,0:0:0:0:
384,192,42972,1,0,0:0:0:0:
230,192,43068,1,0,0:0:0:0:
25,192,43068,1,0,0:0:0:0:
435,192,43068,1,0,0:0:0:0:
76,192,43068,1,0,0:0:0:0:
332,192,43164,1,0,0:0:0:0:
435,192,43261,1,0,0:0:0:0:
179,192,43261,1,0,0:0:0:0:
332,192,43357,1,0,0:0:0:0:
25,192,43357,1,0,0:0:0:0:
76,192,43357,1,0,0:0:0:0:
230,192,43357,1,0,0:0:0:0:
384,192,43453,1,0,0:0:0:0:
179,192,43453,1,0,0:0:0:0:
281,192,43549,1,0,0:0:0:0:
230,192,43645,1,0,0:0:0:0:
384,192,43645,1,0,0:0:0:0:
25,192,43645,1,0,0:0:0:0:
76,192,43645,1,0,0:0:0:0:
281,192,43741,1,0,0:0:0:0:
230,192,43837,1,0,0:0:0:0:
76,192,43837,1,0,0:0:0:0:
25,192,43837,1,0,0:0:0:0:
128,192,44222,1,0,0:0:0:0:
435,192,44222,1,0,0:0:0:0:
179,192,44318,1,0,0:0:0:0:
332,192,44318,1,0,0:0:0:0:
76,192,44414,1,0,0:0:0:0:
384,192,44414,1,0,0:0:0:0:
179,192,44511,1,0,0:0:0:0:
332,192,44511,1,0,0:0:0:0:
128,192,44607,1,0,0:0:0:0:
435,192,44607,1,0,0:0:0:0:
179,192,44703,1,0,0:0:0:0:
332,192,44703,1,0,0:0:0:0:
76,192,44799,1,0,0:0:0:0:
384,192,44799,1,0,0:0:0:0:
179,192,44895,1,0,0:0:0:0:
332,192,44895,1,0,0:0:0:0:
128,192,44991,1,0,0:0:0:0:
435,192,44991,1,0,0:0:0:0:
179,192,45087,1,0,0:0:0:0:
332,192,45087,1,0,0:0:0:0:
76,192,45184,1,0,0:0:0:0:
384,192,45184,1,0,0:0:0:0:
179,192,45280,1,0,0:0:0:0:
332,192,45280,1,0,0:0:0:0:
128,192,45376,1,0,0:0:0:0:
435,192,45376,1,0,0:0:0:0:
384,192,45761,1,0,0:0:0:0:
76,192,45761,1,0,0:0:0:0:
332,192,45857,1,0,0:0:0:0:
179,192,45857,1,0,0:0:0:0:
435,192,45953,1,0,0:0:0:0:
128,192,45953,1,0,0:0:0:0:
332,192,46049,1,0,0:0:0:0:
179,192,46049,1,0,0:0:0:0:
384,192,46145,1,0,0:0:0:0:
76,192,46145,1,0,0:0:0:0:
332,192,46241,1,0,0:0:0:0:
179,192,46241,1,0,0:0:0:0:
435,192,46337,1,0,0:0:0:0:
128,192,46337,1,0,0:0:0:0:
332,192,46434,1,0,0:0:0:0:
179,192,46434,1,0,0:0:0:0:
76,192,46530,1,0,0:0:0:0:
384,192,46530,1,0,0:0:0:0:
332,192,46626,1,0,0:0:0:0:
179,192,46626,1,0,0:0:0:0:
435,192,46722,1,0,0:0:0:0:
128,192,46722,1,0,0:0:0:0:
230,192,46914,1,0,0:0:0:0:
25,192,46914,1,0,0:0:0:0:
281,192,46914,1,0,0:0:0:0:
486,192,46914,1,0,0:0:0:0:
435,192,47299,1,0,0:0:0:0:
128,192,47299,1,0,0:0:0:0:
332,192,47395,1,0,0:0:0:0:
179,192,47395,1,0,0:0:0:0:
384,192,47491,1,0,0:0:0:0:
76,192,47491,1,0,0:0:0:0:
332,192,47587,1,0,0:0:0:0:
179,192,47587,1,0,0:0:0:0:
230,192,47684,1,0,0:0:0:0:
281,192,47684,1,0,0:0:0:0:
25,192,47684,1,0,0:0:0:0:
486,192,47684,1,0,0:0:0:0:
76,192,47876,1,0,0:0:0:0:
384,192,47876,1,0,0:0:0:0:
179,192,47972,1,0,0:0:0:0:
332,192,47972,1,0,0:0:0:0:
128,192,48068,1,0,0:0:0:0:
435,192,48068,1,0,0:0:0:0:
179,192,48164,1,0,0:0:0:0:
332,192,48164,1,0,0:0:0:0:
76,192,48261,1,0,0:0:0:0:
384,192,48261,1,0,0:0:0:0:
179,192,48357,1,0,0:0:0:0:
332,192,48357,1,0,0:0:0:0:
25,192,48645,128,0,48837:0:0:0:0:
128,192,48645,128,0,48837:0:0:0:0:
281,192,48645,128,0,48837:0:0:0:0:
384,192,48645,128,0,48837:0:0:0:0:
25,192,48934,128,0,49126:0:0:0:0:
128,192,48934,128,0,49126:0:0:0:0:
281,192,48934,128,0,49126:0:0:0:0:
384,192,48934,128,0,49126:0:0:0:0:
76,192,49222,128,0,49414:0:0:0:0:
179,192,49222,128,0,49414:0:0:0:0:
332,192,49222,1,0,0:0:0:0:
435,192,49222,1,0,0:0:0:0:
486,192,49414,1,0,0:0:0:0:
435,192,49478,1,0,0:0:0:0:
76,192,49511,128,0,49703:0:0:0:0:
179,192,49511,128,0,49703:0:0:0:0:
384,192,49543,1,0,0:0:0:0:
332,192,49607,1,0,0:0:0:0:
281,192,49735,1,0,0:0:0:0:
128,192,49799,128,0,49991:0:0:0:0:
230,192,49799,128,0,49991:0:0:0:0:
332,192,49799,1,0,0:0:0:0:
435,192,49927,1,0,0:0:0:0:
486,192,49991,1,0,0:0:0:0:
128,192,50376,1,0,0:0:0:0:
230,192,50376,1,0,0:0:0:0:
435,192,50472,1,0,0:0:0:0:
332,192,50568,1,0,0:0:0:0:
435,192,50664,1,0,0:0:0:0:
76,192,50761,1,0,0:0:0:0:
179,192,50761,1,0,0:0:0:0:
435,192,50857,1,0,0:0:0:0:
332,192,50953,1,0,0:0:0:0:
435,192,51049,1,0,0:0:0:0:
25,192,51145,1,0,0:0:0:0:
128,192,51145,1,0,0:0:0:0:
435,192,51241,1,0,0:0:0:0:
332,192,51337,1,0,0:0:0:0:
435,192,51434,1,0,0:0:0:0:
76,192,51530,1,0,0:0:0:0:
179,192,51530,1,0,0:0:0:0:
281,192,51914,1,0,0:0:0:0:
384,192,51914,1,0,0:0:0:0:
76,192,52011,1,0,0:0:0:0:
179,192,52107,1,0,0:0:0:0:
76,192,52203,1,0,0:0:0:0:
332,192,52299,1,0,0:0:0:0:
435,192,52299,1,0,0:0:0:0:
76,192,52395,1,0,0:0:0:0:
179,192,52491,1,0,0:0:0:0:
76,192,52587,1,0,0:0:0:0:
384,192,52684,1,0,0:0:0:0:
486,192,52684,1,0,0:0:0:0:
76,192,52780,1,0,0:0:0:0:
179,192,52876,1,0,0:0:0:0:
332,192,53068,1,0,0:0:0:0:
435,192,53068,1,0,0:0:0:0:
179,192,53164,1,0,0:0:0:0:
76,192,53164,1,0,0:0:0:0:
76,192,53453,1,0,0:0:0:0:
179,192,53453,1,0,0:0:0:0:
384,192,53549,1,0,0:0:0:0:
281,192,53645,1,0,0:0:0:0:
384,192,53741,1,0,0:0:0:0:
76,192,53837,1,0,0:0:0:0:
179,192,53837,1,0,0:0:0:0:
435,192,53934,1,0,0:0:0:0:
332,192,54030,1,0,0:0:0:0:
435,192,54126,1,0,0:0:0:0:
179,192,54222,1,0,0:0:0:0:
76,192,54222,1,0,0:0:0:0:
486,192,54318,1,0,0:0:0:0:
384,192,54414,1,0,0:0:0:0:
486,192,54511,1,0,0:0:0:0:
76,192,54607,1,0,0:0:0:0:
179,192,54607,1,0,0:0:0:0:
332,192,54991,1,0,0:0:0:0:
435,192,54991,1,0,0:0:0:0:
128,192,55087,1,0,0:0:0:0:
230,192,55184,1,0,0:0:0:0:
128,192,55280,1,0,0:0:0:0:
332,192,55376,1,0,0:0:0:0:
435,192,55376,1,0,0:0:0:0:
76,192,55472,1,0,0:0:0:0:
179,192,55568,1,0,0:0:0:0:
76,192,55664,1,0,0:0:0:0:
332,192,55761,1,0,0:0:0:0:
435,192,55761,1,0,0:0:0:0:
25,192,55857,1,0,0:0:0:0:
25,192,56145,1,0,0:0:0:0:
76,192,56145,1,0,0:0:0:0:
128,192,56145,1,0,0:0:0:0:
281,192,56145,1,0,0:0:0:0:
332,192,56145,1,0,0:0:0:0:
384,192,56145,1,0,0:0:0:0:
435,192,56434,1,0,0:0:0:0:
384,192,56434,1,0,0:0:0:0:
332,192,56434,1,0,0:0:0:0:
25,192,56434,1,0,0:0:0:0:
76,192,56434,1,0,0:0:0:0:
128,192,56434,1,0,0:0:0:0:
384,192,56722,1,0,0:0:0:0:
435,192,56722,1,0,0:0:0:0:
486,192,56722,1,0,0:0:0:0:
128,192,56722,1,0,0:0:0:0:
76,192,56722,1,0,0:0:0:0:
25,192,56722,1,0,0:0:0:0:
384,192,57011,1,0,0:0:0:0:
435,192,57011,1,0,0:0:0:0:
486,192,57011,1,0,0:0:0:0:
76,192,57011,1,0,0:0:0:0:
128,192,57011,1,0,0:0:0:0:
179,192,57011,1,0,0:0:0:0:
128,192,57299,1,0,0:0:0:0:
179,192,57299,1,0,0:0:0:0:
384,192,57299,1,0,0:0:0:0:
435,192,57299,1,0,0:0:0:0:
486,192,57299,1,0,0:0:0:0:
230,192,57299,1,0,0:0:0:0:
128,192,57587,1,0,0:0:0:0:
179,192,57587,1,0,0:0:0:0:
230,192,57587,1,0,0:0:0:0:
384,192,57587,1,0,0:0:0:0:
435,192,57587,1,0,0:0:0:0:
332,192,57587,1,0,0:0:0:0:
128,192,57876,1,0,0:0:0:0:
179,192,57876,1,0,0:0:0:0:
230,192,57876,1,0,0:0:0:0:
281,192,57876,1,0,0:0:0:0:
332,192,57876,1,0,0:0:0:0:
384,192,57876,1,0,0:0:0:0:
281,192,58164,1,0,0:0:0:0:
332,192,58164,1,0,0:0:0:0:
384,192,58164,1,0,0:0:0:0:
179,192,58164,1,0,0:0:0:0:
128,192,58164,1,0,0:0:0:0:
76,192,58164,1,0,0:0:0:0:
332,192,58453,1,0,0:0:0:0:
384,192,58453,1,0,0:0:0:0:
281,192,58453,1,0,0:0:0:0:
128,192,58453,1,0,0:0:0:0:
76,192,58453,1,0,0:0:0:0:
25,192,58453,1,0,0:0:0:0:
128,192,58741,1,0,0:0:0:0:
76,192,58741,1,0,0:0:0:0:
25,192,58741,1,0,0:0:0:0:
332,192,58741,1,0,0:0:0:0:
384,192,58741,1,0,0:0:0:0:
435,192,58741,1,0,0:0:0:0:
486,192,59030,1,0,0:0:0:0:
435,192,59030,1,0,0:0:0:0:
384,192,59030,1,0,0:0:0:0:
128,192,59030,1,0,0:0:0:0:
76,192,59030,1,0,0:0:0:0:
25,192,59030,1,0,0:0:0:0:
179,192,59222,1,0,0:0:0:0:
435,192,59222,1,0,0:0:0:0:
230,192,59318,1,0,0:0:0:0:
332,192,59318,1,0,0:0:0:0:
128,192,59414,1,0,0:0:0:0:
435,192,59414,1,0,0:0:0:0:
179,192,59511,1,0,0:0:0:0:
332,192,59511,1,0,0:0:0:0:
76,192,59607,1,0,0:0:0:0:
384,192,59607,1,0,0:0:0:0:
128,192,59703,1,0,0:0:0:0:
281,192,59703,1,0,0:0:0:0:
25,192,59799,1,0,0:0:0:0:
384,192,59799,1,0,0:0:0:0:
76,192,59895,1,0,0:0:0:0:
281,192,59895,1,0,0:0:0:0:
332,192,59991,1,0,0:0:0:0:
230,192,59991,1,0,0:0:0:0:
281,192,60087,1,0,0:0:0:0:
128,192,60087,1,0,0:0:0:0:
384,192,60184,1,0,0:0:0:0:
230,192,60184,1,0,0:0:0:0:
332,192,60280,1,0,0:0:0:0:
128,192,60280,1,0,0:0:0:0:
435,192,60376,1,0,0:0:0:0:
179,192,60376,1,0,0:0:0:0:
384,192,60472,1,0,0:0:0:0:
76,192,60472,1,0,0:0:0:0:
486,192,60568,1,0,0:0:0:0:
179,192,60568,1,0,0:0:0:0:
435,192,60664,1,0,0:0:0:0:
76,192,60664,1,0,0:0:0:0:
384,192,60761,1,0,0:0:0:0:
281,192,60809,1,0,0:0:0:0:
128,192,60857,1,0,0:0:0:0:
230,192,60905,1,0,0:0:0:0:
435,192,60953,1,0,0:0:0:0:
332,192,61001,1,0,0:0:0:0:
76,192,61049,1,0,0:0:0:0:
179,192,61097,1,0,0:0:0:0:
486,192,61145,1,0,0:0:0:0:
384,192,61193,1,0,0:0:0:0:
25,192,61241,1,0,0:0:0:0:
128,192,61289,1,0,0:0:0:0:
435,192,61337,1,0,0:0:0:0:
332,192,61386,1,0,0:0:0:0:
76,192,61434,1,0,0:0:0:0:
179,192,61482,1,0,0:0:0:0:
281,192,61530,128,0,62299:0:0:0:0:
332,192,61770,128,0,62299:0:0:0:0:
384,192,61914,128,0,62299:0:0:0:0:
76,192,62299,1,0,0:0:0:0:
435,192,62299,1,0,0:0:0:0:
128,192,62299,1,0,0:0:0:0:
486,192,62299,1,0,0:0:0:0:
179,192,62395,1,0,0:0:0:0:
435,192,62491,1,0,0:0:0:0:
384,192,62587,1,0,0:0:0:0:
128,192,62684,1,0,0:0:0:0:
384,192,62780,1,0,0:0:0:0:
435,192,62876,1,0,0:0:0:0:
76,192,62972,1,0,0:0:0:0:
384,192,63068,1,0,0:0:0:0:
128,192,63164,1,0,0:0:0:0:
384,192,63261,1,0,0:0:0:0:
332,192,63357,1,0,0:0:0:0:
179,192,63453,1,0,0:0:0:0:
332,192,63549,1,0,0:0:0:0:
281,192,63645,1,0,0:0:0:0:
128,192,63741,1,0,0:0:0:0:
486,192,63837,1,0,0:0:0:0:
76,192,63934,1,0,0:0:0:0:
435,192,64030,1,0,0:0:0:0:
384,192,64126,1,0,0:0:0:0:
128,192,64222,1,0,0:0:0:0:
384,192,64318,1,0,0:0:0:0:
435,192,64414,1,0,0:0:0:0:
179,192,64511,1,0,0:0:0:0:
384,192,64607,1,0,0:0:0:0:
128,192,64703,1,0,0:0:0:0:
332,192,64799,1,0,0:0:0:0:
179,192,64799,1,0,0:0:0:0:
384,192,64895,1,0,0:0:0:0:
128,192,64895,1,0,0:0:0:0:
332,192,64991,1,0,0:0:0:0:
179,192,64991,1,0,0:0:0:0:
486,192,65087,1,0,0:0:0:0:
435,192,65087,1,0,0:0:0:0:
281,192,65087,1,0,0:0:0:0:
230,192,65087,1,0,0:0:0:0:
76,192,65087,1,0,0:0:0:0:
25,192,65087,1,0,0:0:0:0:
435,192,65376,1,0,0:0:0:0:
486,192,65376,1,0,0:0:0:0:
25,192,65376,1,0,0:0:0:0:
76,192,65376,1,0,0:0:0:0:
230,192,65376,1,0,0:0:0:0:
332,192,65376,128,0,65472:0:0:0:0:
179,192,65472,128,0,65568:0:0:0:0:
281,192,65568,128,0,65664:0:0:0:0:
128,192,65664,128,0,65761:0:0:0:0:
384,192,65761,128,0,65857:0:0:0:0:
230,192,65857,128,0,65953:0:0:0:0:
281,192,65953,128,0,66049:0:0:0:0:
179,192,66049,128,0,66145:0:0:0:0:
128,192,66145,128,0,66241:0:0:0:0:
230,192,66241,128,0,66337:0:0:0:0:
281,192,66337,128,0,66434:0:0:0:0:
384,192,66434,128,0,66530:0:0:0:0:
179,192,66530,128,0,66626:0:0:0:0:
332,192,66626,128,0,66722:0:0:0:0:
128,192,66722,128,0,66818:0:0:0:0:
230,192,66818,128,0,66914:0:0:0:0:
281,192,66914,128,0,67011:0:0:0:0:
384,192,67011,128,0,67107:0:0:0:0:
179,192,67107,128,0,67203:0:0:0:0:
332,192,67203,128,0,67299:0:0:0:0:
128,192,67299,128,0,67395:0:0:0:0:
230,192,67395,128,0,67491:0:0:0:0:
281,192,67491,128,0,67587:0:0:0:0:
384,192,67587,128,0,67684:0:0:0:0:
179,192,67684,128,0,67780:0:0:0:0:
332,192,67780,128,0,67876:0:0:0:0:
128,192,67876,128,0,67972:0:0:0:0:
230,192,67972,128,0,68068:0:0:0:0:
281,192,68068,128,0,68164:0:0:0:0:
384,192,68164,128,0,68261:0:0:0:0:
179,192,68261,128,0,68357:0:0:0:0:
332,192,68357,128,0,68453:0:0:0:0:
435,192,68453,128,0,70953:0:0:0:0:
76,192,68453,128,0,70953:0:0:0:0:
281,192,68453,128,0,68549:0:0:0:0:
128,192,68549,128,0,68645:0:0:0:0:
332,192,68645,128,0,68741:0:0:0:0:
179,192,68741,128,0,68837:0:0:0:0:
384,192,68837,128,0,68934:0:0:0:0:
230,192,68934,128,0,69030:0:0:0:0:
332,192,69030,128,0,69126:0:0:0:0:
281,192,69126,128,0,69222:0:0:0:0:
230,192,69222,128,0,69318:0:0:0:0:
384,192,69318,128,0,69414:0:0:0:0:
179,192,69414,128,0,69511:0:0:0:0:
332,192,69511,128,0,69607:0:0:0:0:
128,192,69607,128,0,69703:0:0:0:0:
281,192,69703,128,0,69799:0:0:0:0:
179,192,69799,128,0,69895:0:0:0:0:
230,192,69895,128,0,69991:0:0:0:0:
281,192,69991,128,0,70087:0:0:0:0:
128,192,70087,128,0,70184:0:0:0:0:
332,192,70184,128,0,70280:0:0:0:0:
179,192,70280,128,0,70376:0:0:0:0:
384,192,70376,128,0,70472:0:0:0:0:
230,192,70472,128,0,70568:0:0:0:0:
332,192,70568,128,0,70664:0:0:0:0:
281,192,70664,128,0,70761:0:0:0:0:
230,192,70761,128,0,70857:0:0:0:0:
384,192,70857,128,0,70953:0:0:0:0:
179,192,70953,128,0,71049:0:0:0:0:
332,192,71049,128,0,71145:0:0:0:0:
76,192,71049,128,0,71145:0:0:0:0:
435,192,71049,128,0,71145:0:0:0:0:
128,192,71145,128,0,71241:0:0:0:0:
281,192,71241,128,0,71337:0:0:0:0:
76,192,71241,128,0,71434:0:0:0:0:
435,192,71241,128,0,71434:0:0:0:0:
179,192,71337,128,0,71434:0:0:0:0:
230,192,71434,128,0,71530:0:0:0:0:
281,192,71530,128,0,71626:0:0:0:0:
76,192,71530,128,0,72972:0:0:0:0:
435,192,71530,128,0,72972:0:0:0:0:
486,192,71530,128,0,72972:0:0:0:0:
25,192,71530,128,0,72972:0:0:0:0:
128,192,71626,128,0,71722:0:0:0:0:
332,192,71722,128,0,71818:0:0:0:0:
179,192,71818,128,0,71914:0:0:0:0:
384,192,71914,128,0,72011:0:0:0:0:
230,192,72011,128,0,72107:0:0:0:0:
332,192,72107,128,0,72203:0:0:0:0:
281,192,72203,128,0,72299:0:0:0:0:
230,192,72299,128,0,72395:0:0:0:0:
384,192,72395,128,0,72491:0:0:0:0:
179,192,72491,128,0,72587:0:0:0:0:
332,192,72587,128,0,72684:0:0:0:0:
128,192,72684,128,0,72780:0:0:0:0:
281,192,72780,128,0,72876:0:0:0:0:
179,192,72876,128,0,72972:0:0:0:0:
230,192,72972,1,0,0:0:0:0:
25,192,73068,128,0,73261:0:0:0:0:
76,192,73068,128,0,73261:0:0:0:0:
128,192,73068,128,0,73261:0:0:0:0:
384,192,73068,128,0,73261:0:0:0:0:
435,192,73068,128,0,73261:0:0:0:0:
486,192,73068,128,0,73261:0:0:0:0:
384,192,73357,128,0,73549:0:0:0:0:
435,192,73357,128,0,73549:0:0:0:0:
486,192,73357,128,0,73549:0:0:0:0:
128,192,73357,128,0,73549:0:0:0:0:
76,192,73357,128,0,73549:0:0:0:0:
25,192,73357,128,0,73549:0:0:0:0:
384,192,73645,128,0,73837:0:0:0:0:
435,192,73645,128,0,73837:0:0:0:0:
486,192,73645,128,0,73837:0:0:0:0:
25,192,73645,128,0,73837:0:0:0:0:
76,192,73645,128,0,73837:0:0:0:0:
128,192,73645,128,0,73837:0:0:0:0:
384,192,73934,128,0,74126:0:0:0:0:
435,192,73934,128,0,74126:0:0:0:0:
486,192,73934,128,0,74126:0:0:0:0:
128,192,73934,128,0,74126:0:0:0:0:
76,192,73934,128,0,74126:0:0:0:0:
25,192,73934,128,0,74126:0:0:0:0:
179,192,74222,128,0,74318:0:0:0:0:
230,192,74222,128,0,74318:0:0:0:0:
332,192,74222,128,0,74318:0:0:0:0:
281,192,74222,128,0,74318:0:0:0:0:
384,192,74318,128,0,74511:0:0:0:0:
435,192,74318,128,0,74511:0:0:0:0:
486,192,74318,128,0,74511:0:0:0:0:
128,192,74318,128,0,74511:0:0:0:0:
76,192,74318,128,0,74511:0:0:0:0:
25,192,74318,128,0,74511:0:0:0:0:
25,192,74607,128,0,74799:0:0:0:0:
76,192,74607,128,0,74799:0:0:0:0:
230,192,74607,128,0,74799:0:0:0:0:
281,192,74607,128,0,74703:0:0:0:0:
332,192,74607,128,0,74703:0:0:0:0:
384,192,74607,128,0,74703:0:0:0:0:
486,192,74703,128,0,74895:0:0:0:0:
435,192,75087,128,0,75280:0:0:0:0:
384,192,75472,128,0,75664:0:0:0:0:
332,192,75857,128,0,76049:0:0:0:0:
281,192,76241,128,0,76434:0:0:0:0:
230,192,76626,128,0,76818:0:0:0:0:
179,192,77011,128,0,77203:0:0:0:0:
128,192,77395,128,0,77587:0:0:0:0:
281,192,79991,128,0,80664:0:0:0:0:
230,192,80184,128,0,80664:0:0:0:0:
435,192,80568,128,0,80664:0:0:0:0:
486,192,80568,1,0,0:0:0:0:
179,192,80664,1,0,0:0:0:0:
128,192,80664,1,0,0:0:0:0:
25,192,80761,1,0,0:0:0:0:
76,192,80761,1,0,0:0:0:0:
230,192,80761,1,0,0:0:0:0:
281,192,80761,1,0,0:0:0:0:
332,192,80761,1,0,0:0:0:0:
384,192,80761,1,0,0:0:0:0:
76,192,81049,1,0,0:0:0:0:
128,192,81049,1,0,0:0:0:0:
25,192,81049,1,0,0:0:0:0:
281,192,81049,1,0,0:0:0:0:
332,192,81049,1,0,0:0:0:0:
486,192,81049,1,0,0:0:0:0:
281,192,81337,1,0,0:0:0:0:
332,192,81337,1,0,0:0:0:0:
384,192,81337,1,0,0:0:0:0:
230,192,81337,1,0,0:0:0:0:
76,192,81337,1,0,0:0:0:0:
25,192,81337,1,0,0:0:0:0:
281,192,81626,1,0,0:0:0:0:
384,192,81626,1,0,0:0:0:0:
435,192,81626,1,0,0:0:0:0:
25,192,81626,1,0,0:0:0:0:
76,192,81626,1,0,0:0:0:0:
128,192,81626,1,0,0:0:0:0:
332,192,81914,1,0,0:0:0:0:
384,192,81914,1,0,0:0:0:0:
435,192,81914,1,0,0:0:0:0:
76,192,81914,1,0,0:0:0:0:
25,192,81914,1,0,0:0:0:0:
230,192,81914,1,0,0:0:0:0:
76,192,82203,1,0,0:0:0:0:
128,192,82203,1,0,0:0:0:0:
179,192,82203,1,0,0:0:0:0:
281,192,82203,1,0,0:0:0:0:
435,192,82203,1,0,0:0:0:0:
486,192,82203,1,0,0:0:0:0:
332,192,82491,1,0,0:0:0:0:
384,192,82491,1,0,0:0:0:0:
435,192,82491,1,0,0:0:0:0:
230,192,82491,1,0,0:0:0:0:
25,192,82491,1,0,0:0:0:0:
128,192,82491,1,0,0:0:0:0:
76,192,82780,5,0,0:0:0:0:
128,192,82780,1,0,0:0:0:0:
179,192,82780,1,0,0:0:0:0:
281,192,82780,1,0,0:0:0:0:
384,192,82780,1,0,0:0:0:0:
486,192,82780,1,0,0:0:0:0:
384,192,83068,1,0,0:0:0:0:
435,192,83068,1,0,0:0:0:0:
486,192,83068,1,0,0:0:0:0:
76,192,83068,1,0,0:0:0:0:
128,192,83068,1,0,0:0:0:0:
230,192,83068,1,0,0:0:0:0:
128,192,83357,1,0,0:0:0:0:
179,192,83357,1,0,0:0:0:0:
230,192,83357,1,0,0:0:0:0:
281,192,83357,1,0,0:0:0:0:
435,192,83357,1,0,0:0:0:0:
486,192,83357,1,0,0:0:0:0:
384,192,83645,1,0,0:0:0:0:
435,192,83645,1,0,0:0:0:0:
486,192,83645,1,0,0:0:0:0:
230,192,83645,1,0,0:0:0:0:
179,192,83645,1,0,0:0:0:0:
76,192,83645,1,0,0:0:0:0:
179,192,83837,5,0,0:0:0:0:
435,192,83837,1,0,0:0:0:0:
230,192,83934,1,0,0:0:0:0:
332,192,83934,1,0,0:0:0:0:
128,192,84030,1,0,0:0:0:0:
435,192,84030,1,0,0:0:0:0:
179,192,84126,1,0,0:0:0:0:
332,192,84126,1,0,0:0:0:0:
76,192,84222,1,0,0:0:0:0:
384,192,84222,1,0,0:0:0:0:
128,192,84318,1,0,0:0:0:0:
281,192,84318,1,0,0:0:0:0:
25,192,84414,1,0,0:0:0:0:
384,192,84414,1,0,0:0:0:0:
76,192,84511,1,0,0:0:0:0:
281,192,84511,1,0,0:0:0:0:
332,192,84607,1,0,0:0:0:0:
230,192,84607,1,0,0:0:0:0:
281,192,84703,1,0,0:0:0:0:
128,192,84703,1,0,0:0:0:0:
384,192,84799,1,0,0:0:0:0:
230,192,84799,1,0,0:0:0:0:
332,192,84895,1,0,0:0:0:0:
128,192,84895,1,0,0:0:0:0:
435,192,84991,1,0,0:0:0:0:
179,192,84991,1,0,0:0:0:0:
384,192,85087,1,0,0:0:0:0:
76,192,85087,1,0,0:0:0:0:
486,192,85184,1,0,0:0:0:0:
179,192,85184,1,0,0:0:0:0:
435,192,85280,1,0,0:0:0:0:
76,192,85280,1,0,0:0:0:0:
384,192,85376,1,0,0:0:0:0:
281,192,85424,1,0,0:0:0:0:
128,192,85472,1,0,0:0:0:0:
230,192,85520,1,0,0:0:0:0:
435,192,85568,1,0,0:0:0:0:
332,192,85616,1,0,0:0:0:0:
76,192,85664,1,0,0:0:0:0:
179,192,85712,1,0,0:0:0:0:
486,192,85761,5,0,0:0:0:0:
384,192,85809,1,0,0:0:0:0:
25,192,85857,1,0,0:0:0:0:
128,192,85905,1,0,0:0:0:0:
435,192,85953,1,0,0:0:0:0:
332,192,86001,1,0,0:0:0:0:
76,192,86049,1,0,0:0:0:0:
179,192,86097,1,0,0:0:0:0:
25,192,86914,128,0,87587:0:0:0:0:
128,192,86914,128,0,87587:0:0:0:0:
230,192,86914,128,0,87587:0:0:0:0:
281,192,86914,128,0,87587:0:0:0:0:
384,192,86914,128,0,87587:0:0:0:0:
486,192,86914,128,0,87587:0:0:0:0:
435,192,87684,1,0,0:0:0:0:
332,192,87684,1,0,0:0:0:0:
76,192,87684,1,0,0:0:0:0:
179,192,87684,1,0,0:0:0:0:
128,192,87876,1,0,0:0:0:0:
230,192,87876,1,0,0:0:0:0:
281,192,87876,1,0,0:0:0:0:
384,192,87876,1,0,0:0:0:0:
25,192,88068,128,0,89126:0:0:0:0:
76,192,88068,128,0,89126:0:0:0:0:
128,192,88068,128,0,89126:0:0:0:0:
281,192,88068,128,0,89126:0:0:0:0:
384,192,88068,128,0,89126:0:0:0:0:
332,192,88068,128,0,89126:0:0:0:0:
435,192,89222,128,0,89895:0:0:0:0:
25,192,89222,128,0,89895:0:0:0:0:
128,192,89222,128,0,89895:0:0:0:0:
76,192,89222,128,0,89895:0:0:0:0:
281,192,89222,128,0,89895:0:0:0:0:
332,192,89222,128,0,89895:0:0:0:0:
25,192,89991,128,0,90664:0:0:0:0:
128,192,89991,128,0,90664:0:0:0:0:
230,192,89991,128,0,90664:0:0:0:0:
281,192,89991,128,0,90664:0:0:0:0:
384,192,89991,128,0,90664:0:0:0:0:
486,192,89991,128,0,90664:0:0:0:0:
76,192,90761,1,0,0:0:0:0:
179,192,90761,1,0,0:0:0:0:
332,192,90761,1,0,0:0:0:0:
435,192,90761,1,0,0:0:0:0:
384,192,90953,1,0,0:0:0:0:
281,192,90953,1,0,0:0:0:0:
230,192,90953,1,0,0:0:0:0:
128,192,90953,1,0,0:0:0:0:
486,192,91145,128,0,92203:0:0:0:0:
435,192,91145,128,0,92203:0:0:0:0:
384,192,91145,128,0,92203:0:0:0:0:
230,192,91145,128,0,92203:0:0:0:0:
179,192,91145,128,0,92203:0:0:0:0:
128,192,91145,128,0,92203:0:0:0:0:
435,192,92299,128,0,92491:0:0:0:0:
76,192,92299,128,0,92972:0:0:0:0:
179,192,92299,128,0,92972:0:0:0:0:
230,192,92299,128,0,92972:0:0:0:0:
384,192,92299,128,0,92491:0:0:0:0:
486,192,92299,128,0,92491:0:0:0:0:
384,192,92587,128,0,92780:0:0:0:0:
435,192,92587,128,0,92780:0:0:0:0:
486,192,92587,128,0,92780:0:0:0:0:
384,192,92876,128,0,92972:0:0:0:0:
435,192,92876,128,0,92972:0:0:0:0:
486,192,92876,128,0,92972:0:0:0:0:
25,192,93068,128,0,93741:0:0:0:0:
128,192,93068,128,0,93741:0:0:0:0:
230,192,93068,128,0,93741:0:0:0:0:
281,192,93068,128,0,93741:0:0:0:0:
384,192,93068,128,0,93741:0:0:0:0:
486,192,93068,128,0,93741:0:0:0:0:
76,192,93837,1,0,0:0:0:0:
179,192,93837,1,0,0:0:0:0:
332,192,93837,1,0,0:0:0:0:
435,192,93837,1,0,0:0:0:0:
384,192,94030,1,0,0:0:0:0:
281,192,94030,1,0,0:0:0:0:
230,192,94030,1,0,0:0:0:0:
128,192,94030,1,0,0:0:0:0:
25,192,94222,128,0,95280:0:0:0:0:
76,192,94222,128,0,95280:0:0:0:0:
128,192,94222,128,0,95280:0:0:0:0:
281,192,94222,128,0,95280:0:0:0:0:
332,192,94222,128,0,95280:0:0:0:0:
384,192,94222,128,0,95280:0:0:0:0:
25,192,95376,128,0,96049:0:0:0:0:
76,192,95376,128,0,96049:0:0:0:0:
179,192,95376,128,0,96049:0:0:0:0:
281,192,95376,128,0,96049:0:0:0:0:
332,192,95376,128,0,96049:0:0:0:0:
384,192,95376,128,0,96049:0:0:0:0:
179,192,96145,128,0,96818:0:0:0:0:
230,192,96145,128,0,96818:0:0:0:0:
76,192,96145,128,0,96818:0:0:0:0:
281,192,96145,128,0,96818:0:0:0:0:
332,192,96145,128,0,96818:0:0:0:0:
435,192,96145,128,0,96818:0:0:0:0:
25,192,96914,1,0,0:0:0:0:
128,192,96914,1,0,0:0:0:0:
384,192,96914,1,0,0:0:0:0:
486,192,96914,1,0,0:0:0:0:
435,192,97107,1,0,0:0:0:0:
332,192,97107,1,0,0:0:0:0:
76,192,97107,1,0,0:0:0:0:
179,192,97107,1,0,0:0:0:0:
179,192,97299,128,0,97972:0:0:0:0:
230,192,97299,128,0,97972:0:0:0:0:
76,192,97299,128,0,97972:0:0:0:0:
281,192,97299,128,0,97972:0:0:0:0:
332,192,97299,128,0,97972:0:0:0:0:
435,192,97299,128,0,97972:0:0:0:0:
25,192,98068,128,0,98357:0:0:0:0:
76,192,98068,128,0,98357:0:0:0:0:
128,192,98068,128,0,98357:0:0:0:0:
281,192,98068,128,0,98357:0:0:0:0:
332,192,98068,128,0,98357:0:0:0:0:
384,192,98068,128,0,98357:0:0:0:0:
486,192,98453,128,0,98837:0:0:0:0:
435,192,98453,128,0,98837:0:0:0:0:
384,192,98453,128,0,98837:0:0:0:0:
230,192,98453,128,0,98837:0:0:0:0:
179,192,98453,128,0,98837:0:0:0:0:
128,192,98453,128,0,98837:0:0:0:0:
128,192,98934,128,0,99126:0:0:0:0:
179,192,98934,128,0,99126:0:0:0:0:
230,192,98934,128,0,99126:0:0:0:0:
384,192,98934,128,0,99126:0:0:0:0:
435,192,98934,128,0,99126:0:0:0:0:
486,192,98934,128,0,99126:0:0:0:0:
281,192,99222,128,0,99895:0:0:0:0:
128,192,99222,128,0,99895:0:0:0:0:
230,192,99222,128,0,99895:0:0:0:0:
25,192,99222,128,0,99895:0:0:0:0:
384,192,99222,128,0,99895:0:0:0:0:
486,192,99222,128,0,99895:0:0:0:0:
435,192,99991,1,0,0:0:0:0:
332,192,99991,1,0,0:0:0:0:
76,192,99991,1,0,0:0:0:0:
179,192,99991,1,0,0:0:0:0:
128,192,100184,1,0,0:0:0:0:
230,192,100184,1,0,0:0:0:0:
281,192,100184,1,0,0:0:0:0:
384,192,100184,1,0,0:0:0:0:
25,192,100376,128,0,101434:0:0:0:0:
76,192,100376,128,0,101434:0:0:0:0:
128,192,100376,128,0,101434:0:0:0:0:
281,192,100376,128,0,101434:0:0:0:0:
384,192,100376,128,0,101434:0:0:0:0:
332,192,100376,128,0,101434:0:0:0:0:
384,192,101530,128,0,102203:0:0:0:0:
25,192,101530,128,0,102203:0:0:0:0:
179,192,101530,128,0,102203:0:0:0:0:
76,192,101530,128,0,102203:0:0:0:0:
281,192,101530,128,0,102203:0:0:0:0:
332,192,101530,128,0,102203:0:0:0:0:
25,192,102299,128,0,102972:0:0:0:0:
128,192,102299,128,0,102972:0:0:0:0:
230,192,102299,128,0,102972:0:0:0:0:
281,192,102299,128,0,102972:0:0:0:0:
384,192,102299,128,0,102972:0:0:0:0:
486,192,102299,128,0,102972:0:0:0:0:
76,192,103068,1,0,0:0:0:0:
179,192,103068,1,0,0:0:0:0:
332,192,103068,1,0,0:0:0:0:
435,192,103068,1,0,0:0:0:0:
384,192,103261,1,0,0:0:0:0:
281,192,103261,1,0,0:0:0:0:
230,192,103261,1,0,0:0:0:0:
128,192,103261,1,0,0:0:0:0:
486,192,103453,128,0,104511:0:0:0:0:
435,192,103453,128,0,104511:0:0:0:0:
384,192,103453,128,0,104511:0:0:0:0:
230,192,103453,128,0,104511:0:0:0:0:
179,192,103453,128,0,104511:0:0:0:0:
128,192,103453,128,0,104511:0:0:0:0:
179,192,104607,128,0,104799:0:0:0:0:
332,192,104607,128,0,105280:0:0:0:0:
486,192,104607,128,0,105280:0:0:0:0:
435,192,104607,128,0,105280:0:0:0:0:
128,192,104607,128,0,104799:0:0:0:0:
230,192,104607,128,0,104799:0:0:0:0:
128,192,104895,128,0,105087:0:0:0:0:
179,192,104895,128,0,105087:0:0:0:0:
230,192,104895,128,0,105087:0:0:0:0:
128,192,105184,128,0,105280:0:0:0:0:
179,192,105184,128,0,105280:0:0:0:0:
230,192,105184,128,0,105280:0:0:0:0:
25,192,105376,128,0,106049:0:0:0:0:
128,192,105376,128,0,106049:0:0:0:0:
230,192,105376,128,0,106049:0:0:0:0:
281,192,105376,128,0,106049:0:0:0:0:
384,192,105376,128,0,106049:0:0:0:0:
486,192,105376,128,0,106049:0:0:0:0:
76,192,106145,1,0,0:0:0:0:
179,192,106145,1,0,0:0:0:0:
332,192,106145,1,0,0:0:0:0:
435,192,106145,1,0,0:0:0:0:
384,192,106337,1,0,0:0:0:0:
281,192,106337,1,0,0:0:0:0:
230,192,106337,1,0,0:0:0:0:
128,192,106337,1,0,0:0:0:0:
25,192,106530,128,0,107587:0:0:0:0:
76,192,106530,128,0,107587:0:0:0:0:
128,192,106530,128,0,107587:0:0:0:0:
281,192,106530,128,0,107587:0:0:0:0:
332,192,106530,128,0,107587:0:0:0:0:
384,192,106530,128,0,107587:0:0:0:0:
25,192,107684,128,0,108357:0:0:0:0:
76,192,107684,128,0,108357:0:0:0:0:
179,192,107684,128,0,108357:0:0:0:0:
281,192,107684,128,0,108357:0:0:0:0:
332,192,107684,128,0,108357:0:0:0:0:
384,192,107684,128,0,108357:0:0:0:0:
230,192,108453,128,0,109126:0:0:0:0:
76,192,108453,128,0,109126:0:0:0:0:
25,192,108453,128,0,109126:0:0:0:0:
281,192,108453,128,0,109126:0:0:0:0:
435,192,108453,128,0,109126:0:0:0:0:
486,192,108453,128,0,109126:0:0:0:0:
384,192,109222,1,0,0:0:0:0:
332,192,109222,1,0,0:0:0:0:
179,192,109222,1,0,0:0:0:0:
128,192,109222,1,0,0:0:0:0:
230,192,109414,1,0,0:0:0:0:
281,192,109414,1,0,0:0:0:0:
435,192,109414,1,0,0:0:0:0:
76,192,109414,1,0,0:0:0:0:
25,192,109607,128,0,111434:0:0:0:0:
128,192,109607,128,0,111434:0:0:0:0:
179,192,109607,128,0,111434:0:0:0:0:
332,192,109607,1,0,0:0:0:0:
384,192,109607,1,0,0:0:0:0:
486,192,109607,1,0,0:0:0:0:
281,192,110376,128,0,111434:0:0:0:0:
332,192,110376,128,0,111434:0:0:0:0:
384,192,110376,128,0,111434:0:0:0:0:
281,192,111530,128,0,111818:0:0:0:0:
332,192,111530,128,0,111818:0:0:0:0:
384,192,111530,128,0,111818:0:0:0:0:
230,192,111530,128,0,111722:0:0:0:0:
76,192,111530,128,0,111722:0:0:0:0:
25,192,111530,128,0,111722:0:0:0:0:
25,192,111818,128,0,112011:0:0:0:0:
76,192,111818,128,0,112011:0:0:0:0:
230,192,111818,128,0,112011:0:0:0:0:
281,192,111914,128,0,112203:0:0:0:0:
332,192,111914,128,0,112203:0:0:0:0:
384,192,111914,128,0,112203:0:0:0:0:
179,192,112107,128,0,112203:0:0:0:0:
128,192,112107,128,0,112203:0:0:0:0:
281,192,112299,128,0,112587:0:0:0:0:
332,192,112299,128,0,112587:0:0:0:0:
435,192,112299,128,0,112587:0:0:0:0:
230,192,112299,128,0,112491:0:0:0:0:
76,192,112299,128,0,112491:0:0:0:0:
25,192,112299,128,0,112491:0:0:0:0:
230,192,112587,128,0,112780:0:0:0:0:
76,192,112587,128,0,112780:0:0:0:0:
25,192,112587,128,0,112780:0:0:0:0:
281,192,112684,128,0,112972:0:0:0:0:
435,192,112684,128,0,112972:0:0:0:0:
332,192,112684,128,0,112972:0:0:0:0:
179,192,112876,128,0,112972:0:0:0:0:
128,192,112876,128,0,112972:0:0:0:0:
384,192,113068,128,0,113357:0:0:0:0:
435,192,113068,128,0,113357:0:0:0:0:
281,192,113068,128,0,113357:0:0:0:0:
25,192,113068,128,0,113261:0:0:0:0:
128,192,113068,128,0,113261:0:0:0:0:
230,192,113068,128,0,113261:0:0:0:0:
230,192,113357,128,0,113549:0:0:0:0:
128,192,113357,128,0,113549:0:0:0:0:
25,192,113357,128,0,113549:0:0:0:0:
281,192,113453,128,0,113741:0:0:0:0:
384,192,113453,128,0,113741:0:0:0:0:
435,192,113453,128,0,113741:0:0:0:0:
179,192,113645,128,0,113741:0:0:0:0:
76,192,113645,128,0,113741:0:0:0:0:
281,192,113837,128,0,114126:0:0:0:0:
384,192,113837,128,0,114126:0:0:0:0:
486,192,113837,128,0,114126:0:0:0:0:
25,192,113837,128,0,114030:0:0:0:0:
128,192,113837,128,0,114030:0:0:0:0:
230,192,113837,128,0,114030:0:0:0:0:
230,192,114126,128,0,114318:0:0:0:0:
128,192,114126,128,0,114318:0:0:0:0:
25,192,114126,128,0,114318:0:0:0:0:
281,192,114222,128,0,114511:0:0:0:0:
384,192,114222,128,0,114511:0:0:0:0:
486,192,114222,128,0,114511:0:0:0:0:
76,192,114414,128,0,114511:0:0:0:0:
179,192,114414,128,0,114511:0:0:0:0:
25,192,114607,128,0,114895:0:0:0:0:
76,192,114607,128,0,114895:0:0:0:0:
128,192,114607,128,0,114895:0:0:0:0:
281,192,114607,128,0,114799:0:0:0:0:
332,192,114607,128,0,114799:0:0:0:0:
384,192,114607,128,0,114799:0:0:0:0:
281,192,114895,128,0,115087:0:0:0:0:
332,192,114895,128,0,115087:0:0:0:0:
384,192,114895,128,0,115087:0:0:0:0:
25,192,114991,128,0,115280:0:0:0:0:
76,192,114991,128,0,115280:0:0:0:0:
128,192,114991,128,0,115280:0:0:0:0:
435,192,115184,128,0,115280:0:0:0:0:
486,192,115184,128,0,115280:0:0:0:0:
25,192,115376,128,0,115664:0:0:0:0:
128,192,115376,128,0,115664:0:0:0:0:
230,192,115376,128,0,115664:0:0:0:0:
281,192,115376,128,0,115568:0:0:0:0:
332,192,115376,128,0,115568:0:0:0:0:
384,192,115376,128,0,115568:0:0:0:0:
281,192,115664,128,0,115857:0:0:0:0:
332,192,115664,128,0,115857:0:0:0:0:
384,192,115664,128,0,115857:0:0:0:0:
230,192,115761,128,0,116049:0:0:0:0:
128,192,115761,128,0,116049:0:0:0:0:
25,192,115761,128,0,116049:0:0:0:0:
435,192,115953,128,0,116049:0:0:0:0:
486,192,115953,128,0,116049:0:0:0:0:
281,192,116145,128,0,116434:0:0:0:0:
332,192,116145,128,0,116434:0:0:0:0:
486,192,116145,128,0,116434:0:0:0:0:
179,192,116145,128,0,116434:0:0:0:0:
230,192,116145,128,0,116434:0:0:0:0:
25,192,116145,128,0,116434:0:0:0:0:
486,192,116530,128,0,116818:0:0:0:0:
332,192,116530,128,0,116818:0:0:0:0:
281,192,116530,128,0,116818:0:0:0:0:
230,192,116530,128,0,116818:0:0:0:0:
128,192,116530,128,0,116626:0:0:0:0:
25,192,116530,128,0,116818:0:0:0:0:
179,192,116626,128,0,116722:0:0:0:0:
128,192,116722,128,0,116818:0:0:0:0:
76,192,116818,1,0,0:0:0:0:
281,192,116914,128,0,117107:0:0:0:0:
384,192,116914,128,0,117107:0:0:0:0:
486,192,116914,128,0,117107:0:0:0:0:
25,192,116914,128,0,117107:0:0:0:0:
179,192,116914,128,0,117107:0:0:0:0:
230,192,116914,128,0,117107:0:0:0:0:
281,192,117203,128,0,117587:0:0:0:0:
384,192,117203,128,0,117491:0:0:0:0:
486,192,117203,128,0,117587:0:0:0:0:
230,192,117203,128,0,117587:0:0:0:0:
179,192,117203,128,0,117587:0:0:0:0:
25,192,117203,128,0,117587:0:0:0:0:
332,192,117587,1,0,0:0:0:0:
435,192,117587,1,0,0:0:0:0:
281,192,117684,128,0,117876:0:0:0:0:
384,192,117684,128,0,117876:0:0:0:0:
486,192,117684,128,0,117876:0:0:0:0:
25,192,117684,128,0,117972:0:0:0:0:
76,192,117684,128,0,117972:0:0:0:0:
230,192,117684,128,0,117972:0:0:0:0:
486,192,117972,128,0,118164:0:0:0:0:
281,192,117972,128,0,118164:0:0:0:0:
384,192,117972,128,0,118164:0:0:0:0:
230,192,118068,128,0,118357:0:0:0:0:
76,192,118068,128,0,118357:0:0:0:0:
25,192,118068,128,0,118357:0:0:0:0:
332,192,118261,128,0,118357:0:0:0:0:
435,192,118261,128,0,118357:0:0:0:0:
281,192,118453,128,0,118645:0:0:0:0:
486,192,118453,128,0,118645:0:0:0:0:
384,192,118453,128,0,118645:0:0:0:0:
230,192,118453,128,0,118741:0:0:0:0:
128,192,118453,128,0,118741:0:0:0:0:
25,192,118453,128,0,118741:0:0:0:0:
281,192,118741,128,0,118934:0:0:0:0:
384,192,118741,128,0,118934:0:0:0:0:
486,192,118741,128,0,118934:0:0:0:0:
230,192,118837,128,0,119126:0:0:0:0:
128,192,118837,128,0,119126:0:0:0:0:
25,192,118837,128,0,119126:0:0:0:0:
332,192,119030,128,0,119126:0:0:0:0:
435,192,119030,128,0,119126:0:0:0:0:
435,192,119222,128,0,119414:0:0:0:0:
486,192,119222,128,0,119414:0:0:0:0:
281,192,119222,128,0,119414:0:0:0:0:
179,192,119222,128,0,119511:0:0:0:0:
230,192,119222,128,0,119511:0:0:0:0:
76,192,119222,128,0,119511:0:0:0:0:
281,192,119511,128,0,119703:0:0:0:0:
435,192,119511,128,0,119703:0:0:0:0:
486,192,119511,128,0,119703:0:0:0:0:
179,192,119607,128,0,119895:0:0:0:0:
230,192,119607,128,0,119895:0:0:0:0:
76,192,119607,128,0,119895:0:0:0:0:
384,192,119799,128,0,119895:0:0:0:0:
332,192,119799,128,0,119895:0:0:0:0:
281,192,119991,128,0,120184:0:0:0:0:
435,192,119991,128,0,120184:0:0:0:0:
486,192,119991,128,0,120184:0:0:0:0:
128,192,119991,128,0,120280:0:0:0:0:
179,192,119991,128,0,120280:0:0:0:0:
230,192,119991,128,0,120280:0:0:0:0:
435,192,120280,128,0,120472:0:0:0:0:
486,192,120280,128,0,120472:0:0:0:0:
281,192,120280,128,0,120472:0:0:0:0:
128,192,120376,128,0,120472:0:0:0:0:
179,192,120376,128,0,120472:0:0:0:0:
230,192,120376,128,0,120472:0:0:0:0:
384,192,120568,128,0,120664:0:0:0:0:
332,192,120568,128,0,120664:0:0:0:0:
76,192,120568,128,0,120664:0:0:0:0:
128,192,120568,128,0,120664:0:0:0:0:
179,192,120568,128,0,120664:0:0:0:0:
230,192,120761,128,0,121434:0:0:0:0:
76,192,120761,128,0,121434:0:0:0:0:
25,192,120761,128,0,121434:0:0:0:0:
281,192,120761,128,0,121434:0:0:0:0:
435,192,120761,128,0,121434:0:0:0:0:
486,192,120761,128,0,121434:0:0:0:0:
230,192,121530,128,0,122203:0:0:0:0:
128,192,121530,128,0,121914:0:0:0:0:
25,192,121530,128,0,122203:0:0:0:0:
281,192,121530,128,0,122203:0:0:0:0:
384,192,121530,128,0,122107:0:0:0:0:
486,192,121530,128,0,122203:0:0:0:0:
179,192,121914,128,0,122203:0:0:0:0:
332,192,122107,128,0,122203:0:0:0:0:
230,192,122299,128,0,122491:0:0:0:0:
179,192,122299,128,0,122491:0:0:0:0:
25,192,122299,128,0,122491:0:0:0:0:
281,192,122299,128,0,122491:0:0:0:0:
332,192,122299,128,0,122491:0:0:0:0:
486,192,122299,128,0,122491:0:0:0:0:
76,192,122587,128,0,122780:0:0:0:0:
230,192,122587,128,0,122780:0:0:0:0:
281,192,122587,128,0,122780:0:0:0:0:
332,192,122587,128,0,122780:0:0:0:0:
486,192,122587,128,0,122780:0:0:0:0:
25,192,122587,128,0,122780:0:0:0:0:
230,192,122876,128,0,123068:0:0:0:0:
76,192,122876,128,0,123068:0:0:0:0:
128,192,122876,128,0,123068:0:0:0:0:
332,192,122876,128,0,123068:0:0:0:0:
384,192,122876,128,0,123068:0:0:0:0:
486,192,122876,128,0,123068:0:0:0:0:
179,192,123164,128,0,123357:0:0:0:0:
128,192,123164,128,0,123357:0:0:0:0:
230,192,123164,128,0,123357:0:0:0:0:
384,192,123164,128,0,123357:0:0:0:0:
435,192,123164,128,0,123357:0:0:0:0:
486,192,123164,128,0,123357:0:0:0:0:
76,192,123453,128,0,123741:0:0:0:0:
25,192,123453,128,0,123741:0:0:0:0:
281,192,123453,128,0,123645:0:0:0:0:
332,192,123453,128,0,123645:0:0:0:0:
435,192,123645,1,0,0:0:0:0:
486,192,123645,1,0,0:0:0:0:
179,192,123741,1,0,0:0:0:0:
230,192,123741,1,0,0:0:0:0:
25,192,123837,128,0,124030:0:0:0:0:
76,192,123837,128,0,124030:0:0:0:0:
128,192,123837,128,0,124030:0:0:0:0:
281,192,123837,128,0,124126:0:0:0:0:
332,192,123837,128,0,124126:0:0:0:0:
384,192,123837,128,0,124126:0:0:0:0:
25,192,124126,128,0,124318:0:0:0:0:
76,192,124126,128,0,124318:0:0:0:0:
128,192,124126,128,0,124318:0:0:0:0:
281,192,124222,128,0,124511:0:0:0:0:
332,192,124222,128,0,124511:0:0:0:0:
384,192,124222,128,0,124511:0:0:0:0:
179,192,124414,128,0,124511:0:0:0:0:
230,192,124414,128,0,124511:0:0:0:0:
25,192,124607,128,0,124799:0:0:0:0:
76,192,124607,128,0,124799:0:0:0:0:
128,192,124607,128,0,124799:0:0:0:0:
281,192,124607,128,0,124895:0:0:0:0:
332,192,124607,128,0,124895:0:0:0:0:
435,192,124607,128,0,124895:0:0:0:0:
25,192,124895,128,0,125087:0:0:0:0:
76,192,124895,128,0,125087:0:0:0:0:
128,192,124895,128,0,125087:0:0:0:0:
281,192,124991,128,0,125280:0:0:0:0:
332,192,124991,128,0,125280:0:0:0:0:
435,192,124991,128,0,125280:0:0:0:0:
179,192,125184,128,0,125280:0:0:0:0:
230,192,125184,128,0,125280:0:0:0:0:
25,192,125376,128,0,125568:0:0:0:0:
76,192,125376,128,0,125568:0:0:0:0:
230,192,125376,128,0,125568:0:0:0:0:
281,192,125376,128,0,125664:0:0:0:0:
384,192,125376,128,0,125664:0:0:0:0:
486,192,125376,128,0,125664:0:0:0:0:
25,192,125664,128,0,125857:0:0:0:0:
76,192,125664,128,0,125857:0:0:0:0:
230,192,125664,128,0,125857:0:0:0:0:
281,192,125761,128,0,126049:0:0:0:0:
384,192,125761,128,0,126049:0:0:0:0:
486,192,125761,128,0,126049:0:0:0:0:
179,192,125953,128,0,126049:0:0:0:0:
128,192,125953,128,0,126049:0:0:0:0:
25,192,126145,128,0,126337:0:0:0:0:
76,192,126145,128,0,126337:0:0:0:0:
230,192,126145,128,0,126337:0:0:0:0:
281,192,126145,128,0,126337:0:0:0:0:
435,192,126145,128,0,126337:0:0:0:0:
486,192,126145,128,0,126337:0:0:0:0:
230,192,126434,128,0,126626:0:0:0:0:
76,192,126434,128,0,126626:0:0:0:0:
25,192,126434,128,0,126626:0:0:0:0:
486,192,126434,128,0,126626:0:0:0:0:
435,192,126434,128,0,126626:0:0:0:0:
281,192,126434,128,0,126626:0:0:0:0:
25,192,126722,128,0,126818:0:0:0:0:
76,192,126722,128,0,126818:0:0:0:0:
230,192,126722,128,0,126818:0:0:0:0:
281,192,126722,128,0,127107:0:0:0:0:
435,192,126722,128,0,127107:0:0:0:0:
486,192,126722,128,0,127107:0:0:0:0:
128,192,126914,128,0,127203:0:0:0:0:
25,192,126914,128,0,127203:0:0:0:0:
230,192,126914,128,0,127203:0:0:0:0:
435,192,127203,128,0,127299:0:0:0:0:
486,192,127203,128,0,127299:0:0:0:0:
128,192,127299,128,0,127587:0:0:0:0:
230,192,127299,128,0,127587:0:0:0:0:
25,192,127299,128,0,127587:0:0:0:0:
332,192,127299,128,0,127395:0:0:0:0:
281,192,127299,128,0,127395:0:0:0:0:
435,192,127491,128,0,127587:0:0:0:0:
486,192,127491,128,0,127587:0:0:0:0:
25,192,127684,128,0,127972:0:0:0:0:
76,192,127684,128,0,127972:0:0:0:0:
230,192,127684,128,0,127972:0:0:0:0:
281,192,127684,128,0,127876:0:0:0:0:
332,192,127684,128,0,127876:0:0:0:0:
384,192,127684,128,0,127876:0:0:0:0:
332,192,127972,128,0,128164:0:0:0:0:
281,192,127972,128,0,128164:0:0:0:0:
384,192,127972,128,0,128164:0:0:0:0:
25,192,128068,128,0,128357:0:0:0:0:
76,192,128068,128,0,128357:0:0:0:0:
230,192,128068,128,0,128357:0:0:0:0:
435,192,128261,128,0,128357:0:0:0:0:
486,192,128261,128,0,128357:0:0:0:0:
179,192,128453,128,0,128741:0:0:0:0:
230,192,128453,128,0,128741:0:0:0:0:
128,192,128453,128,0,128741:0:0:0:0:
281,192,128453,128,0,128741:0:0:0:0:
332,192,128453,128,0,128741:0:0:0:0:
384,192,128453,128,0,128741:0:0:0:0:
25,192,128837,128,0,129126:0:0:0:0:
230,192,128837,128,0,129126:0:0:0:0:
179,192,128837,128,0,129030:0:0:0:0:
281,192,128837,128,0,129030:0:0:0:0:
332,192,128837,128,0,129030:0:0:0:0:
384,192,128837,128,0,129030:0:0:0:0:
128,192,129030,128,0,129126:0:0:0:0:
435,192,129030,1,0,0:0:0:0:
486,192,129030,1,0,0:0:0:0:
76,192,129126,1,0,0:0:0:0:
332,192,129126,1,0,0:0:0:0:
281,192,129126,1,0,0:0:0:0:
384,192,129222,128,0,129414:0:0:0:0:
435,192,129222,128,0,129414:0:0:0:0:
486,192,129222,128,0,129414:0:0:0:0:
179,192,129222,128,0,129414:0:0:0:0:
230,192,129222,128,0,129414:0:0:0:0:
128,192,129222,128,0,129414:0:0:0:0:
128,192,129511,128,0,129703:0:0:0:0:
179,192,129511,128,0,129703:0:0:0:0:
230,192,129511,128,0,129703:0:0:0:0:
384,192,129511,128,0,129703:0:0:0:0:
435,192,129511,128,0,129703:0:0:0:0:
486,192,129511,128,0,129607:0:0:0:0:
332,192,129607,128,0,129703:0:0:0:0:
435,192,129799,128,0,129895:0:0:0:0:
384,192,129799,128,0,129895:0:0:0:0:
230,192,129799,128,0,129895:0:0:0:0:
179,192,129799,128,0,129895:0:0:0:0:
128,192,129799,128,0,129895:0:0:0:0:
332,192,129799,128,0,129895:0:0:0:0:
281,192,129991,128,0,130184:0:0:0:0:
384,192,129991,128,0,130184:0:0:0:0:
486,192,129991,128,0,130184:0:0:0:0:
230,192,129991,128,0,130280:0:0:0:0:
76,192,129991,128,0,130280:0:0:0:0:
25,192,129991,128,0,130280:0:0:0:0:
281,192,130280,128,0,130472:0:0:0:0:
384,192,130280,128,0,130472:0:0:0:0:
486,192,130280,128,0,130472:0:0:0:0:
25,192,130376,128,0,130664:0:0:0:0:
76,192,130376,128,0,130664:0:0:0:0:
230,192,130376,128,0,130664:0:0:0:0:
332,192,130568,128,0,130664:0:0:0:0:
435,192,130568,128,0,130664:0:0:0:0:
281,192,130761,128,0,130953:0:0:0:0:
384,192,130761,128,0,130953:0:0:0:0:
486,192,130761,128,0,130953:0:0:0:0:
25,192,130761,128,0,131049:0:0:0:0:
128,192,130761,128,0,131049:0:0:0:0:
230,192,130761,128,0,131049:0:0:0:0:
281,192,131049,128,0,131241:0:0:0:0:
384,192,131049,128,0,131241:0:0:0:0:
486,192,131049,128,0,131241:0:0:0:0:
230,192,131145,128,0,131434:0:0:0:0:
25,192,131145,128,0,131434:0:0:0:0:
128,192,131145,128,0,131434:0:0:0:0:
435,192,131337,128,0,131434:0:0:0:0:
332,192,131337,128,0,131434:0:0:0:0:
281,192,131530,128,0,131722:0:0:0:0:
435,192,131530,128,0,131722:0:0:0:0:
486,192,131530,128,0,131722:0:0:0:0:
230,192,131530,128,0,131818:0:0:0:0:
76,192,131530,128,0,131818:0:0:0:0:
128,192,131530,128,0,131818:0:0:0:0:
486,192,131818,128,0,132011:0:0:0:0:
435,192,131818,128,0,132011:0:0:0:0:
281,192,131818,128,0,132011:0:0:0:0:
76,192,131914,128,0,132203:0:0:0:0:
128,192,131914,128,0,132203:0:0:0:0:
230,192,131914,128,0,132203:0:0:0:0:
332,192,132107,128,0,132203:0:0:0:0:
384,192,132107,128,0,132203:0:0:0:0:
435,192,132299,128,0,132491:0:0:0:0:
486,192,132299,128,0,132491:0:0:0:0:
281,192,132299,128,0,132491:0:0:0:0:
230,192,132299,128,0,132587:0:0:0:0:
76,192,132299,128,0,132587:0:0:0:0:
179,192,132299,128,0,132587:0:0:0:0:
281,192,132587,128,0,132780:0:0:0:0:
435,192,132587,128,0,132780:0:0:0:0:
486,192,132587,128,0,132780:0:0:0:0:
230,192,132684,128,0,132972:0:0:0:0:
179,192,132684,128,0,132972:0:0:0:0:
76,192,132684,128,0,132876:0:0:0:0:
332,192,132876,128,0,132972:0:0:0:0:
384,192,132876,128,0,132972:0:0:0:0:
128,192,132876,128,0,132972:0:0:0:0:
128,192,133068,128,0,133741:0:0:0:0:
179,192,133068,128,0,133741:0:0:0:0:
230,192,133068,128,0,133741:0:0:0:0:
384,192,133068,128,0,133741:0:0:0:0:
486,192,133068,128,0,133741:0:0:0:0:
435,192,133068,128,0,133741:0:0:0:0:
179,192,133837,128,0,134511:0:0:0:0:
230,192,133837,128,0,134511:0:0:0:0:
435,192,133837,128,0,134414:0:0:0:0:
486,192,133837,128,0,134414:0:0:0:0:
281,192,133837,128,0,134511:0:0:0:0:
25,192,133837,128,0,134511:0:0:0:0:
332,192,134414,128,0,134511:0:0:0:0:
384,192,134414,128,0,134511:0:0:0:0:
76,192,134511,1,0,0:0:0:0:
128,192,134511,1,0,0:0:0:0:
281,192,134607,128,0,134703:0:0:0:0:
332,192,134607,128,0,134703:0:0:0:0:
384,192,134607,128,0,134703:0:0:0:0:
281,192,134799,128,0,134991:0:0:0:0:
332,192,134799,128,0,134991:0:0:0:0:
435,192,134799,128,0,134991:0:0:0:0:
230,192,134799,128,0,134991:0:0:0:0:
179,192,134799,128,0,134991:0:0:0:0:
76,192,134799,128,0,134991:0:0:0:0:
281,192,135087,128,0,135280:0:0:0:0:
384,192,135087,128,0,135280:0:0:0:0:
486,192,135087,128,0,135280:0:0:0:0:
230,192,135087,128,0,135280:0:0:0:0:
128,192,135087,128,0,135280:0:0:0:0:
25,192,135087,128,0,135280:0:0:0:0:
384,192,135376,128,0,135568:0:0:0:0:
486,192,135376,128,0,135568:0:0:0:0:
435,192,135376,128,0,135568:0:0:0:0:
25,192,135376,128,0,135568:0:0:0:0:
76,192,135376,128,0,135568:0:0:0:0:
128,192,135376,128,0,135568:0:0:0:0:
332,192,135664,128,0,135857:0:0:0:0:
435,192,135664,128,0,135857:0:0:0:0:
486,192,135664,128,0,135857:0:0:0:0:
25,192,135664,128,0,135857:0:0:0:0:
76,192,135664,128,0,135857:0:0:0:0:
179,192,135664,128,0,135857:0:0:0:0:
332,192,135953,128,0,136049:0:0:0:0:
384,192,135953,128,0,136049:0:0:0:0:
435,192,135953,128,0,136049:0:0:0:0:
76,192,135953,128,0,136049:0:0:0:0:
128,192,135953,128,0,136049:0:0:0:0:
179,192,135953,128,0,136049:0:0:0:0:
281,192,136145,128,0,137684:0:0:0:0:
230,192,136145,128,0,137684:0:0:0:0:
128,192,136145,128,0,137684:0:0:0:0:
25,192,136145,128,0,137684:0:0:0:0:
384,192,136145,128,0,137684:0:0:0:0:
486,192,136145,128,0,137684:0:0:0:0:
