osu file format v14

[General]
AudioFilename: audio.mp3
AudioLeadIn: 0
PreviewTime: 97324
Countdown: 0
SampleSet: Soft
StackLeniency: 0.7
Mode: 3
LetterboxInBreaks: 0
SpecialStyle: 0
WidescreenStoryboard: 1

[Editor]
Bookmarks: 13020,25172,37324,49476,61628,73780,85932,110236,122387,134539,146691,170995,195299,207451,219603,243906
DistanceSpacing: 0.8
BeatDivisor: 4
GridSize: 8
TimelineZoom: 1.8

[Metadata]
Title:Ether Strike ('Divine Mercy' Extended)
TitleUnicode:Ether Strike ('Divine Mercy' Extended)
Artist:Akira Complex
ArtistUnicode:Akira Complex
Creator:Kamuy
Version:humanity
Source:Arcaea
Tags:Sound Collection Memories of Light electronic instrumental my guiding star Hikari IROCD-001 lowiro
BeatmapID:2603426
BeatmapSetID:1252656

[Difficulty]
HPDrainRate:8
CircleSize:4
OverallDifficulty:8.3
ApproachRate:5
SliderMultiplier:1.4
SliderTickRate:1

[Events]
//Background and Video events
0,0,"__hikari_arcaea_drawn_by_tandohark__514f7b0ce23881d0c6d8ea91ac0a4ff6123.jpg",0,0
//Break Periods
//Storyboard Layer 0 (Background)
//Storyboard Layer 1 (Fail)
//Storyboard Layer 2 (Pass)
//Storyboard Layer 3 (Foreground)
//Storyboard Layer 4 (Overlay)
//Storyboard Sound Samples

[TimingPoints]
869,379.746835443038,4,2,1,85,1,0
98084,-100,4,2,1,85,0,1
122387,-100,4,2,1,85,0,0
146881,-100,4,2,1,70,0,0
170995,-100,4,2,1,85,0,0
195299,-100,4,2,1,85,0,1
219603,-100,4,2,1,85,0,0
244096,-100,4,2,1,70,0,0

[HitObjects]
64,192,869,128,0,1058:0:0:0:0:
192,192,869,128,0,1058:0:0:0:0:
448,192,3337,1,0,0:0:0:0:
64,192,3432,1,0,0:0:0:0:
448,192,3527,1,0,0:0:0:0:
192,192,3622,1,0,0:0:0:0:
64,192,3622,1,0,0:0:0:0:
192,192,3906,1,0,0:0:0:0:
64,192,3906,1,0,0:0:0:0:
320,192,6185,128,0,6944:0:0:0:0:
448,192,6565,128,0,6944:0:0:0:0:
192,192,6944,128,0,7134:0:0:0:0:
64,192,6944,128,0,7134:0:0:0:0:
192,192,9508,128,0,9603:0:0:0:0:
64,192,9508,128,0,9603:0:0:0:0:
192,192,9698,128,0,9793:0:0:0:0:
64,192,9698,128,0,9793:0:0:0:0:
448,192,9793,1,0,0:0:0:0:
448,192,9887,1,0,0:0:0:0:
192,192,9982,128,0,10172:0:0:0:0:
64,192,9982,128,0,10172:0:0:0:0:
320,192,11312,128,0,11691:0:0:0:0:
448,192,11501,128,0,11691:0:0:0:0:
192,192,11691,128,0,11881:0:0:0:0:
64,192,11691,128,0,11881:0:0:0:0:
64,192,11976,128,0,12166:0:0:0:0:
192,192,11976,128,0,12166:0:0:0:0:
320,192,12261,128,0,12451:0:0:0:0:
448,192,12261,128,0,12451:0:0:0:0:
320,192,12546,128,0,12736:0:0:0:0:
448,192,12546,128,0,12736:0:0:0:0:
192,192,12831,128,0,12925:0:0:0:0:
320,192,12831,128,0,13020:0:0:0:0:
192,192,13020,128,0,13210:0:0:0:0:
64,192,13020,128,0,13210:0:0:0:0:
448,192,13400,1,0,0:0:0:0:
64,192,13400,1,0,0:0:0:0:
448,192,13780,1,0,0:0:0:0:
64,192,13780,1,0,0:0:0:0:
448,192,14160,1,0,0:0:0:0:
64,192,14160,1,0,0:0:0:0:
448,192,14539,1,0,0:0:0:0:
64,192,14539,128,0,14729:0:0:0:0:
64,192,14919,1,0,0:0:0:0:
448,192,14919,1,0,0:0:0:0:
448,192,15299,1,0,0:0:0:0:
64,192,15299,1,0,0:0:0:0:
448,192,15679,1,0,0:0:0:0:
64,192,15679,1,0,0:0:0:0:
320,192,15774,128,0,15869:0:0:0:0:
192,192,15869,128,0,15963:0:0:0:0:
320,192,15963,128,0,16058:0:0:0:0:
64,192,16058,128,0,16248:0:0:0:0:
448,192,16058,1,0,0:0:0:0:
448,192,16438,1,0,0:0:0:0:
64,192,16438,1,0,0:0:0:0:
64,192,16818,1,0,0:0:0:0:
448,192,16818,1,0,0:0:0:0:
448,192,17198,1,0,0:0:0:0:
64,192,17198,1,0,0:0:0:0:
448,192,17577,1,0,0:0:0:0:
64,192,17577,128,0,17767:0:0:0:0:
448,192,17957,1,0,0:0:0:0:
64,192,17957,1,0,0:0:0:0:
64,192,18337,1,0,0:0:0:0:
448,192,18337,1,0,0:0:0:0:
448,192,18717,1,0,0:0:0:0:
64,192,18717,1,0,0:0:0:0:
320,192,18906,1,0,0:0:0:0:
448,192,18906,1,0,0:0:0:0:
64,192,19025,1,0,0:0:0:0:
320,192,19025,1,0,0:0:0:0:
192,192,19096,1,0,0:0:0:0:
64,192,19096,1,0,0:0:0:0:
448,192,19144,1,0,0:0:0:0:
320,192,19191,1,0,0:0:0:0:
192,192,19381,1,0,0:0:0:0:
64,192,19381,1,0,0:0:0:0:
448,192,19429,1,0,0:0:0:0:
320,192,19476,1,0,0:0:0:0:
64,192,19666,1,0,0:0:0:0:
192,192,19666,1,0,0:0:0:0:
448,192,19713,1,0,0:0:0:0:
320,192,19761,1,0,0:0:0:0:
320,192,19951,1,0,0:0:0:0:
64,192,19951,1,0,0:0:0:0:
448,192,19998,1,0,0:0:0:0:
192,192,20046,1,0,0:0:0:0:
64,192,20236,1,0,0:0:0:0:
320,192,20236,1,0,0:0:0:0:
448,192,20283,1,0,0:0:0:0:
192,192,20331,1,0,0:0:0:0:
320,192,20520,1,0,0:0:0:0:
64,192,20520,1,0,0:0:0:0:
448,192,20568,1,0,0:0:0:0:
192,192,20615,1,0,0:0:0:0:
448,192,20805,1,0,0:0:0:0:
192,192,20805,1,0,0:0:0:0:
64,192,20853,1,0,0:0:0:0:
320,192,20900,1,0,0:0:0:0:
448,192,21090,1,0,0:0:0:0:
192,192,21090,1,0,0:0:0:0:
64,192,21137,1,0,0:0:0:0:
320,192,21185,1,0,0:0:0:0:
192,192,21375,1,0,0:0:0:0:
448,192,21375,1,0,0:0:0:0:
64,192,21422,1,0,0:0:0:0:
320,192,21470,1,0,0:0:0:0:
320,192,21660,1,0,0:0:0:0:
448,192,21660,1,0,0:0:0:0:
64,192,21707,1,0,0:0:0:0:
192,192,21755,1,0,0:0:0:0:
448,192,21944,1,0,0:0:0:0:
320,192,21944,1,0,0:0:0:0:
64,192,21992,1,0,0:0:0:0:
192,192,22039,1,0,0:0:0:0:
320,192,22134,1,0,0:0:0:0:
448,192,22134,1,0,0:0:0:0:
64,192,22229,1,0,0:0:0:0:
448,192,22324,1,0,0:0:0:0:
448,192,22419,1,0,0:0:0:0:
192,192,22514,1,0,0:0:0:0:
64,192,22514,1,0,0:0:0:0:
448,192,22609,1,0,0:0:0:0:
320,192,22704,1,0,0:0:0:0:
320,192,22799,1,0,0:0:0:0:
192,192,22894,1,0,0:0:0:0:
64,192,22894,1,0,0:0:0:0:
320,192,22989,1,0,0:0:0:0:
192,192,23084,1,0,0:0:0:0:
192,192,23179,1,0,0:0:0:0:
320,192,23274,1,0,0:0:0:0:
448,192,23274,1,0,0:0:0:0:
192,192,23369,1,0,0:0:0:0:
64,192,23463,1,0,0:0:0:0:
64,192,23558,1,0,0:0:0:0:
448,192,23653,1,0,0:0:0:0:
320,192,23701,1,0,0:0:0:0:
192,192,23748,1,0,0:0:0:0:
64,192,23796,1,0,0:0:0:0:
448,192,23843,1,0,0:0:0:0:
320,192,23891,1,0,0:0:0:0:
192,192,23938,1,0,0:0:0:0:
448,192,23986,1,0,0:0:0:0:
64,192,24033,1,0,0:0:0:0:
192,192,24081,1,0,0:0:0:0:
320,192,24128,1,0,0:0:0:0:
448,192,24175,1,0,0:0:0:0:
64,192,24223,1,0,0:0:0:0:
192,192,24270,1,0,0:0:0:0:
320,192,24318,1,0,0:0:0:0:
64,192,24365,1,0,0:0:0:0:
448,192,25172,1,0,0:0:0:0:
192,192,25172,128,0,25552:0:0:0:0:
64,192,25172,1,0,0:0:0:0:
320,192,25552,1,0,0:0:0:0:
448,192,25552,1,0,0:0:0:0:
448,192,25647,1,0,0:0:0:0:
192,192,25647,1,0,0:0:0:0:
192,192,25742,1,0,0:0:0:0:
64,192,25742,1,0,0:0:0:0:
320,192,25837,1,0,0:0:0:0:
320,192,25932,1,0,0:0:0:0:
448,192,25932,1,0,0:0:0:0:
192,192,26027,1,0,0:0:0:0:
64,192,26027,1,0,0:0:0:0:
320,192,26122,1,0,0:0:0:0:
64,192,26122,1,0,0:0:0:0:
448,192,26217,1,0,0:0:0:0:
192,192,26312,1,0,0:0:0:0:
64,192,26312,1,0,0:0:0:0:
320,192,26406,1,0,0:0:0:0:
448,192,26406,1,0,0:0:0:0:
320,192,26501,1,0,0:0:0:0:
64,192,26501,1,0,0:0:0:0:
448,192,26596,1,0,0:0:0:0:
192,192,26691,128,0,27071:0:0:0:0:
64,192,26691,1,0,0:0:0:0:
320,192,27071,1,0,0:0:0:0:
448,192,27071,1,0,0:0:0:0:
320,192,27166,1,0,0:0:0:0:
64,192,27166,1,0,0:0:0:0:
192,192,27261,1,0,0:0:0:0:
64,192,27261,1,0,0:0:0:0:
448,192,27356,1,0,0:0:0:0:
448,192,27451,1,0,0:0:0:0:
320,192,27451,1,0,0:0:0:0:
192,192,27546,1,0,0:0:0:0:
64,192,27546,1,0,0:0:0:0:
192,192,27641,1,0,0:0:0:0:
448,192,27641,1,0,0:0:0:0:
64,192,27736,1,0,0:0:0:0:
448,192,27831,1,0,0:0:0:0:
320,192,27831,1,0,0:0:0:0:
192,192,27925,1,0,0:0:0:0:
64,192,27925,1,0,0:0:0:0:
448,192,28020,128,0,28210:0:0:0:0:
192,192,28020,1,0,0:0:0:0:
320,192,28115,128,0,28210:0:0:0:0:
192,192,28210,1,0,0:0:0:0:
64,192,28210,1,0,0:0:0:0:
320,192,28305,128,0,28590:0:0:0:0:
192,192,28590,1,0,0:0:0:0:
64,192,28590,1,0,0:0:0:0:
320,192,28685,1,0,0:0:0:0:
64,192,28685,1,0,0:0:0:0:
320,192,28780,1,0,0:0:0:0:
448,192,28780,1,0,0:0:0:0:
192,192,28875,1,0,0:0:0:0:
192,192,28970,1,0,0:0:0:0:
64,192,28970,1,0,0:0:0:0:
320,192,29065,1,0,0:0:0:0:
448,192,29065,1,0,0:0:0:0:
448,192,29160,1,0,0:0:0:0:
192,192,29160,1,0,0:0:0:0:
64,192,29255,1,0,0:0:0:0:
320,192,29350,1,0,0:0:0:0:
448,192,29350,1,0,0:0:0:0:
192,192,29444,1,0,0:0:0:0:
64,192,29444,1,0,0:0:0:0:
64,192,29539,1,0,0:0:0:0:
320,192,29539,1,0,0:0:0:0:
448,192,29634,1,0,0:0:0:0:
192,192,29729,128,0,30109:0:0:0:0:
64,192,29729,1,0,0:0:0:0:
320,192,30109,1,0,0:0:0:0:
448,192,30109,1,0,0:0:0:0:
64,192,30204,1,0,0:0:0:0:
192,192,30204,1,0,0:0:0:0:
448,192,30299,1,0,0:0:0:0:
192,192,30299,1,0,0:0:0:0:
64,192,30394,1,0,0:0:0:0:
320,192,30489,1,0,0:0:0:0:
448,192,30489,1,0,0:0:0:0:
320,192,30584,128,0,30774:0:0:0:0:
192,192,30774,1,0,0:0:0:0:
64,192,30774,1,0,0:0:0:0:
320,192,30869,1,0,0:0:0:0:
64,192,30869,1,0,0:0:0:0:
448,192,30963,128,0,31248:0:0:0:0:
320,192,30963,1,0,0:0:0:0:
64,192,31058,1,0,0:0:0:0:
192,192,31248,128,0,31628:0:0:0:0:
320,192,31248,1,0,0:0:0:0:
64,192,31248,1,0,0:0:0:0:
320,192,31628,1,0,0:0:0:0:
448,192,31628,1,0,0:0:0:0:
64,192,31628,1,0,0:0:0:0:
448,192,31747,1,0,0:0:0:0:
64,192,31818,128,0,31865:0:0:0:0:
192,192,31818,1,0,0:0:0:0:
64,192,31937,1,0,0:0:0:0:
320,192,32008,1,0,0:0:0:0:
448,192,32008,1,0,0:0:0:0:
320,192,32126,1,0,0:0:0:0:
192,192,32198,1,0,0:0:0:0:
64,192,32198,1,0,0:0:0:0:
192,192,32316,1,0,0:0:0:0:
320,192,32387,1,0,0:0:0:0:
448,192,32387,1,0,0:0:0:0:
64,192,32387,1,0,0:0:0:0:
448,192,32506,1,0,0:0:0:0:
192,192,32577,1,0,0:0:0:0:
64,192,32577,1,0,0:0:0:0:
64,192,32696,1,0,0:0:0:0:
320,192,32767,128,0,33147:0:0:0:0:
448,192,32767,1,0,0:0:0:0:
192,192,33147,1,0,0:0:0:0:
64,192,33147,1,0,0:0:0:0:
448,192,33147,1,0,0:0:0:0:
192,192,33266,1,0,0:0:0:0:
448,192,33337,128,0,33384:0:0:0:0:
320,192,33337,1,0,0:0:0:0:
320,192,33456,1,0,0:0:0:0:
192,192,33527,1,0,0:0:0:0:
64,192,33527,1,0,0:0:0:0:
64,192,33645,1,0,0:0:0:0:
320,192,33717,1,0,0:0:0:0:
448,192,33717,1,0,0:0:0:0:
448,192,33835,1,0,0:0:0:0:
320,192,33906,1,0,0:0:0:0:
192,192,33906,1,0,0:0:0:0:
64,192,33906,1,0,0:0:0:0:
192,192,34025,1,0,0:0:0:0:
448,192,34096,128,0,34191:0:0:0:0:
320,192,34096,1,0,0:0:0:0:
320,192,34215,128,0,34286:0:0:0:0:
192,192,34286,1,0,0:0:0:0:
64,192,34286,1,0,0:0:0:0:
448,192,34286,1,0,0:0:0:0:
320,192,34381,128,0,34666:0:0:0:0:
448,192,34666,1,0,0:0:0:0:
192,192,34666,1,0,0:0:0:0:
64,192,34666,1,0,0:0:0:0:
64,192,34785,1,0,0:0:0:0:
448,192,34856,128,0,34903:0:0:0:0:
320,192,34856,1,0,0:0:0:0:
320,192,34975,1,0,0:0:0:0:
192,192,35046,1,0,0:0:0:0:
64,192,35046,1,0,0:0:0:0:
448,192,35046,1,0,0:0:0:0:
192,192,35164,1,0,0:0:0:0:
320,192,35236,1,0,0:0:0:0:
448,192,35236,1,0,0:0:0:0:
448,192,35354,1,0,0:0:0:0:
320,192,35425,1,0,0:0:0:0:
192,192,35425,1,0,0:0:0:0:
64,192,35425,1,0,0:0:0:0:
64,192,35544,1,0,0:0:0:0:
192,192,35615,1,0,0:0:0:0:
448,192,35615,1,0,0:0:0:0:
448,192,35734,1,0,0:0:0:0:
320,192,35734,1,0,0:0:0:0:
192,192,35995,128,0,36185:0:0:0:0:
64,192,35995,128,0,36185:0:0:0:0:
64,192,36280,128,0,36470:0:0:0:0:
192,192,36280,128,0,36470:0:0:0:0:
320,192,36565,128,0,36755:0:0:0:0:
448,192,36565,128,0,36755:0:0:0:0:
64,192,36755,128,0,36850:0:0:0:0:
320,192,36850,128,0,37039:0:0:0:0:
448,192,36850,128,0,37039:0:0:0:0:
192,192,36944,128,0,37039:0:0:0:0:
64,192,37039,128,0,37134:0:0:0:0:
320,192,37134,128,0,37229:0:0:0:0:
192,192,37134,128,0,37229:0:0:0:0:
448,192,37229,128,0,37324:0:0:0:0:
192,192,37324,128,0,37704:0:0:0:0:
64,192,37324,1,0,0:0:0:0:
320,192,37324,1,0,0:0:0:0:
320,192,37704,1,0,0:0:0:0:
448,192,37704,1,0,0:0:0:0:
64,192,37704,1,0,0:0:0:0:
448,192,37799,1,0,0:0:0:0:
64,192,37894,128,0,37941:0:0:0:0:
192,192,37894,1,0,0:0:0:0:
320,192,37989,1,0,0:0:0:0:
320,192,38084,1,0,0:0:0:0:
448,192,38084,1,0,0:0:0:0:
192,192,38179,1,0,0:0:0:0:
192,192,38274,1,0,0:0:0:0:
64,192,38274,1,0,0:0:0:0:
320,192,38369,1,0,0:0:0:0:
64,192,38463,1,0,0:0:0:0:
448,192,38463,1,0,0:0:0:0:
192,192,38463,1,0,0:0:0:0:
64,192,38558,1,0,0:0:0:0:
448,192,38653,1,0,0:0:0:0:
192,192,38653,1,0,0:0:0:0:
320,192,38748,1,0,0:0:0:0:
192,192,38843,128,0,39223:0:0:0:0:
64,192,38843,1,0,0:0:0:0:
320,192,39223,1,0,0:0:0:0:
448,192,39223,1,0,0:0:0:0:
64,192,39223,1,0,0:0:0:0:
448,192,39318,1,0,0:0:0:0:
64,192,39413,128,0,39460:0:0:0:0:
192,192,39413,1,0,0:0:0:0:
320,192,39508,1,0,0:0:0:0:
448,192,39603,1,0,0:0:0:0:
320,192,39603,1,0,0:0:0:0:
64,192,39603,1,0,0:0:0:0:
192,192,39698,1,0,0:0:0:0:
64,192,39698,1,0,0:0:0:0:
448,192,39793,1,0,0:0:0:0:
320,192,39793,1,0,0:0:0:0:
64,192,39887,1,0,0:0:0:0:
192,192,39887,1,0,0:0:0:0:
448,192,39887,1,0,0:0:0:0:
320,192,39982,1,0,0:0:0:0:
192,192,40077,1,0,0:0:0:0:
448,192,40172,128,0,40362:0:0:0:0:
64,192,40172,1,0,0:0:0:0:
192,192,40172,1,0,0:0:0:0:
320,192,40267,128,0,40362:0:0:0:0:
320,192,40457,128,0,40742:0:0:0:0:
192,192,40742,1,0,0:0:0:0:
64,192,40742,1,0,0:0:0:0:
448,192,40742,1,0,0:0:0:0:
320,192,40837,1,0,0:0:0:0:
448,192,40837,1,0,0:0:0:0:
64,192,40932,128,0,40979:0:0:0:0:
192,192,40932,1,0,0:0:0:0:
320,192,41027,1,0,0:0:0:0:
320,192,41122,1,0,0:0:0:0:
448,192,41122,1,0,0:0:0:0:
192,192,41217,1,0,0:0:0:0:
192,192,41312,1,0,0:0:0:0:
448,192,41312,1,0,0:0:0:0:
320,192,41406,1,0,0:0:0:0:
192,192,41501,1,0,0:0:0:0:
64,192,41501,1,0,0:0:0:0:
448,192,41501,1,0,0:0:0:0:
64,192,41596,1,0,0:0:0:0:
192,192,41691,1,0,0:0:0:0:
320,192,41691,1,0,0:0:0:0:
448,192,41786,1,0,0:0:0:0:
192,192,41881,128,0,42261:0:0:0:0:
64,192,41881,1,0,0:0:0:0:
320,192,42261,1,0,0:0:0:0:
448,192,42261,1,0,0:0:0:0:
64,192,42261,1,0,0:0:0:0:
320,192,42356,1,0,0:0:0:0:
192,192,42356,1,0,0:0:0:0:
448,192,42451,128,0,42498:0:0:0:0:
192,192,42451,1,0,0:0:0:0:
64,192,42546,1,0,0:0:0:0:
320,192,42641,1,0,0:0:0:0:
448,192,42641,1,0,0:0:0:0:
192,192,42641,1,0,0:0:0:0:
320,192,42736,128,0,42925:0:0:0:0:
192,192,42925,1,0,0:0:0:0:
64,192,42925,1,0,0:0:0:0:
448,192,42925,1,0,0:0:0:0:
320,192,43020,1,0,0:0:0:0:
64,192,43020,128,0,43068:0:0:0:0:
448,192,43115,128,0,43400:0:0:0:0:
320,192,43115,128,0,43163:0:0:0:0:
64,192,43210,1,0,0:0:0:0:
192,192,43210,1,0,0:0:0:0:
192,192,43400,128,0,43780:0:0:0:0:
320,192,43400,1,0,0:0:0:0:
64,192,43400,1,0,0:0:0:0:
320,192,43780,1,0,0:0:0:0:
448,192,43780,1,0,0:0:0:0:
64,192,43780,1,0,0:0:0:0:
448,192,43899,1,0,0:0:0:0:
64,192,43970,128,0,44017:0:0:0:0:
192,192,43970,1,0,0:0:0:0:
64,192,44088,1,0,0:0:0:0:
320,192,44160,1,0,0:0:0:0:
448,192,44160,1,0,0:0:0:0:
320,192,44278,1,0,0:0:0:0:
192,192,44350,1,0,0:0:0:0:
64,192,44350,1,0,0:0:0:0:
192,192,44468,1,0,0:0:0:0:
320,192,44539,1,0,0:0:0:0:
448,192,44539,1,0,0:0:0:0:
64,192,44539,1,0,0:0:0:0:
448,192,44658,1,0,0:0:0:0:
192,192,44729,1,0,0:0:0:0:
64,192,44729,1,0,0:0:0:0:
64,192,44848,1,0,0:0:0:0:
320,192,44919,128,0,45299:0:0:0:0:
448,192,44919,1,0,0:0:0:0:
192,192,45299,1,0,0:0:0:0:
64,192,45299,1,0,0:0:0:0:
448,192,45299,1,0,0:0:0:0:
192,192,45418,1,0,0:0:0:0:
448,192,45489,128,0,45536:0:0:0:0:
320,192,45489,1,0,0:0:0:0:
320,192,45607,1,0,0:0:0:0:
192,192,45679,1,0,0:0:0:0:
64,192,45679,1,0,0:0:0:0:
64,192,45797,1,0,0:0:0:0:
320,192,45869,1,0,0:0:0:0:
448,192,45869,1,0,0:0:0:0:
448,192,45987,1,0,0:0:0:0:
320,192,46058,1,0,0:0:0:0:
192,192,46058,1,0,0:0:0:0:
64,192,46058,1,0,0:0:0:0:
192,192,46177,1,0,0:0:0:0:
448,192,46248,128,0,46343:0:0:0:0:
320,192,46248,1,0,0:0:0:0:
320,192,46367,128,0,46438:0:0:0:0:
192,192,46438,1,0,0:0:0:0:
64,192,46438,1,0,0:0:0:0:
448,192,46438,1,0,0:0:0:0:
320,192,46533,128,0,46818:0:0:0:0:
448,192,46818,1,0,0:0:0:0:
192,192,46818,1,0,0:0:0:0:
64,192,46818,1,0,0:0:0:0:
64,192,46937,1,0,0:0:0:0:
448,192,47008,128,0,47055:0:0:0:0:
320,192,47008,1,0,0:0:0:0:
320,192,47126,1,0,0:0:0:0:
192,192,47198,1,0,0:0:0:0:
64,192,47198,1,0,0:0:0:0:
448,192,47198,1,0,0:0:0:0:
192,192,47316,1,0,0:0:0:0:
320,192,47387,1,0,0:0:0:0:
448,192,47387,1,0,0:0:0:0:
448,192,47506,1,0,0:0:0:0:
320,192,47577,1,0,0:0:0:0:
192,192,47577,1,0,0:0:0:0:
64,192,47577,1,0,0:0:0:0:
64,192,47696,1,0,0:0:0:0:
192,192,47767,1,0,0:0:0:0:
448,192,47767,1,0,0:0:0:0:
448,192,47886,1,0,0:0:0:0:
320,192,47886,1,0,0:0:0:0:
192,192,48147,128,0,48337:0:0:0:0:
64,192,48147,128,0,48337:0:0:0:0:
64,192,48432,128,0,48622:0:0:0:0:
192,192,48432,128,0,48622:0:0:0:0:
320,192,48717,128,0,48906:0:0:0:0:
448,192,48717,128,0,48906:0:0:0:0:
320,192,49001,128,0,49191:0:0:0:0:
448,192,49001,128,0,49191:0:0:0:0:
320,192,49286,128,0,49476:0:0:0:0:
192,192,49286,128,0,49381:0:0:0:0:
192,192,49476,1,0,0:0:0:0:
448,192,49476,1,0,0:0:0:0:
64,192,49476,128,0,49856:0:0:0:0:
192,192,49856,1,0,0:0:0:0:
320,192,49856,1,0,0:0:0:0:
448,192,49856,1,0,0:0:0:0:
192,192,49951,1,0,0:0:0:0:
320,192,50046,1,0,0:0:0:0:
448,192,50046,1,0,0:0:0:0:
64,192,50141,1,0,0:0:0:0:
64,192,50236,1,0,0:0:0:0:
192,192,50236,1,0,0:0:0:0:
320,192,50331,1,0,0:0:0:0:
448,192,50331,1,0,0:0:0:0:
320,192,50425,1,0,0:0:0:0:
192,192,50520,1,0,0:0:0:0:
320,192,50615,1,0,0:0:0:0:
64,192,50615,1,0,0:0:0:0:
448,192,50615,1,0,0:0:0:0:
448,192,50710,1,0,0:0:0:0:
192,192,50805,1,0,0:0:0:0:
64,192,50805,1,0,0:0:0:0:
448,192,50900,1,0,0:0:0:0:
64,192,50995,128,0,51375:0:0:0:0:
192,192,50995,1,0,0:0:0:0:
192,192,51375,1,0,0:0:0:0:
320,192,51375,1,0,0:0:0:0:
448,192,51375,1,0,0:0:0:0:
320,192,51470,1,0,0:0:0:0:
192,192,51565,1,0,0:0:0:0:
64,192,51565,1,0,0:0:0:0:
448,192,51660,1,0,0:0:0:0:
448,192,51755,1,0,0:0:0:0:
320,192,51755,1,0,0:0:0:0:
192,192,51850,1,0,0:0:0:0:
64,192,51850,1,0,0:0:0:0:
192,192,51944,1,0,0:0:0:0:
320,192,52039,1,0,0:0:0:0:
448,192,52134,1,0,0:0:0:0:
192,192,52134,1,0,0:0:0:0:
64,192,52134,1,0,0:0:0:0:
64,192,52229,1,0,0:0:0:0:
320,192,52324,128,0,52514:0:0:0:0:
448,192,52419,128,0,52514:0:0:0:0:
192,192,52514,1,0,0:0:0:0:
64,192,52514,1,0,0:0:0:0:
448,192,52609,128,0,52894:0:0:0:0:
320,192,52894,1,0,0:0:0:0:
192,192,52894,1,0,0:0:0:0:
64,192,52894,1,0,0:0:0:0:
192,192,52989,1,0,0:0:0:0:
320,192,53084,1,0,0:0:0:0:
448,192,53084,1,0,0:0:0:0:
64,192,53179,1,0,0:0:0:0:
64,192,53274,1,0,0:0:0:0:
192,192,53274,1,0,0:0:0:0:
320,192,53369,1,0,0:0:0:0:
448,192,53369,1,0,0:0:0:0:
320,192,53463,1,0,0:0:0:0:
192,192,53558,1,0,0:0:0:0:
320,192,53653,1,0,0:0:0:0:
64,192,53653,1,0,0:0:0:0:
448,192,53653,1,0,0:0:0:0:
448,192,53748,1,0,0:0:0:0:
192,192,53843,1,0,0:0:0:0:
64,192,53843,1,0,0:0:0:0:
64,192,53938,1,0,0:0:0:0:
448,192,54033,128,0,54413:0:0:0:0:
320,192,54033,1,0,0:0:0:0:
320,192,54413,1,0,0:0:0:0:
192,192,54413,1,0,0:0:0:0:
64,192,54413,1,0,0:0:0:0:
448,192,54508,1,0,0:0:0:0:
448,192,54603,1,0,0:0:0:0:
192,192,54603,1,0,0:0:0:0:
320,192,54698,1,0,0:0:0:0:
64,192,54793,1,0,0:0:0:0:
192,192,54793,1,0,0:0:0:0:
192,192,54887,128,0,55077:0:0:0:0:
320,192,55077,1,0,0:0:0:0:
448,192,55077,1,0,0:0:0:0:
320,192,55172,1,0,0:0:0:0:
64,192,55172,1,0,0:0:0:0:
64,192,55267,128,0,55552:0:0:0:0:
448,192,55362,1,0,0:0:0:0:
192,192,55552,128,0,55932:0:0:0:0:
320,192,55552,1,0,0:0:0:0:
448,192,55552,1,0,0:0:0:0:
320,192,55932,1,0,0:0:0:0:
448,192,55932,1,0,0:0:0:0:
64,192,55932,1,0,0:0:0:0:
192,192,56058,1,0,0:0:0:0:
64,192,56058,1,0,0:0:0:0:
320,192,56185,1,0,0:0:0:0:
448,192,56185,128,0,56232:0:0:0:0:
448,192,56312,1,0,0:0:0:0:
192,192,56312,1,0,0:0:0:0:
192,192,56438,1,0,0:0:0:0:
64,192,56438,1,0,0:0:0:0:
448,192,56565,1,0,0:0:0:0:
320,192,56565,1,0,0:0:0:0:
192,192,56691,1,0,0:0:0:0:
64,192,56691,1,0,0:0:0:0:
320,192,56691,1,0,0:0:0:0:
64,192,56818,1,0,0:0:0:0:
448,192,56818,1,0,0:0:0:0:
192,192,56944,1,0,0:0:0:0:
448,192,56944,1,0,0:0:0:0:
192,192,57071,128,0,57451:0:0:0:0:
64,192,57071,1,0,0:0:0:0:
320,192,57324,1,0,0:0:0:0:
64,192,57451,1,0,0:0:0:0:
320,192,57451,1,0,0:0:0:0:
448,192,57451,1,0,0:0:0:0:
192,192,57577,1,0,0:0:0:0:
64,192,57577,1,0,0:0:0:0:
320,192,57704,1,0,0:0:0:0:
448,192,57704,128,0,57751:0:0:0:0:
448,192,57831,1,0,0:0:0:0:
192,192,57831,1,0,0:0:0:0:
192,192,57957,1,0,0:0:0:0:
64,192,57957,1,0,0:0:0:0:
320,192,58084,1,0,0:0:0:0:
448,192,58084,1,0,0:0:0:0:
448,192,58210,1,0,0:0:0:0:
192,192,58210,1,0,0:0:0:0:
64,192,58210,1,0,0:0:0:0:
320,192,58337,1,0,0:0:0:0:
192,192,58337,1,0,0:0:0:0:
64,192,58463,128,0,58590:0:0:0:0:
192,192,58590,1,0,0:0:0:0:
320,192,58590,1,0,0:0:0:0:
448,192,58590,1,0,0:0:0:0:
64,192,58717,128,0,58970:0:0:0:0:
192,192,58970,1,0,0:0:0:0:
320,192,58970,1,0,0:0:0:0:
448,192,58970,1,0,0:0:0:0:
192,192,59096,1,0,0:0:0:0:
64,192,59096,1,0,0:0:0:0:
320,192,59223,1,0,0:0:0:0:
448,192,59223,128,0,59270:0:0:0:0:
192,192,59350,1,0,0:0:0:0:
64,192,59350,1,0,0:0:0:0:
448,192,59350,1,0,0:0:0:0:
320,192,59476,1,0,0:0:0:0:
64,192,59476,1,0,0:0:0:0:
320,192,59603,1,0,0:0:0:0:
192,192,59603,1,0,0:0:0:0:
448,192,59729,1,0,0:0:0:0:
192,192,59729,1,0,0:0:0:0:
64,192,59729,1,0,0:0:0:0:
448,192,59856,1,0,0:0:0:0:
64,192,59919,1,0,0:0:0:0:
320,192,59919,1,0,0:0:0:0:
64,192,60038,1,0,0:0:0:0:
192,192,60038,1,0,0:0:0:0:
192,192,60299,128,0,60489:0:0:0:0:
64,192,60299,128,0,60489:0:0:0:0:
64,192,60584,128,0,60774:0:0:0:0:
192,192,60584,128,0,60774:0:0:0:0:
320,192,60869,128,0,61058:0:0:0:0:
448,192,60869,128,0,61058:0:0:0:0:
64,192,61058,128,0,61153:0:0:0:0:
320,192,61153,128,0,61343:0:0:0:0:
448,192,61153,128,0,61343:0:0:0:0:
192,192,61248,128,0,61343:0:0:0:0:
64,192,61343,128,0,61438:0:0:0:0:
320,192,61438,128,0,61533:0:0:0:0:
192,192,61438,128,0,61533:0:0:0:0:
448,192,61533,128,0,61628:0:0:0:0:
64,192,61628,128,0,62008:0:0:0:0:
192,192,61628,1,0,0:0:0:0:
320,192,61628,1,0,0:0:0:0:
192,192,62008,1,0,0:0:0:0:
448,192,62008,1,0,0:0:0:0:
192,192,62103,1,0,0:0:0:0:
320,192,62198,1,0,0:0:0:0:
448,192,62198,128,0,62245:0:0:0:0:
64,192,62293,1,0,0:0:0:0:
64,192,62387,1,0,0:0:0:0:
192,192,62387,1,0,0:0:0:0:
320,192,62482,1,0,0:0:0:0:
448,192,62482,1,0,0:0:0:0:
320,192,62577,1,0,0:0:0:0:
192,192,62672,1,0,0:0:0:0:
64,192,62767,1,0,0:0:0:0:
448,192,62767,1,0,0:0:0:0:
448,192,62862,1,0,0:0:0:0:
192,192,62957,1,0,0:0:0:0:
64,192,62957,1,0,0:0:0:0:
448,192,63052,1,0,0:0:0:0:
64,192,63147,128,0,63527:0:0:0:0:
192,192,63147,1,0,0:0:0:0:
192,192,63527,1,0,0:0:0:0:
448,192,63527,1,0,0:0:0:0:
448,192,63622,1,0,0:0:0:0:
192,192,63717,1,0,0:0:0:0:
64,192,63717,128,0,63764:0:0:0:0:
320,192,63812,1,0,0:0:0:0:
448,192,63906,1,0,0:0:0:0:
320,192,63906,1,0,0:0:0:0:
192,192,64001,1,0,0:0:0:0:
64,192,64001,1,0,0:0:0:0:
192,192,64096,1,0,0:0:0:0:
320,192,64191,1,0,0:0:0:0:
448,192,64286,1,0,0:0:0:0:
64,192,64286,1,0,0:0:0:0:
64,192,64381,1,0,0:0:0:0:
320,192,64476,128,0,64666:0:0:0:0:
448,192,64571,128,0,64666:0:0:0:0:
192,192,64666,1,0,0:0:0:0:
64,192,64666,1,0,0:0:0:0:
448,192,64761,128,0,65046:0:0:0:0:
320,192,65046,1,0,0:0:0:0:
64,192,65046,1,0,0:0:0:0:
64,192,65141,1,0,0:0:0:0:
320,192,65236,1,0,0:0:0:0:
448,192,65236,128,0,65283:0:0:0:0:
192,192,65331,1,0,0:0:0:0:
64,192,65425,1,0,0:0:0:0:
192,192,65425,1,0,0:0:0:0:
320,192,65520,1,0,0:0:0:0:
448,192,65520,1,0,0:0:0:0:
320,192,65615,1,0,0:0:0:0:
192,192,65710,1,0,0:0:0:0:
64,192,65805,1,0,0:0:0:0:
448,192,65805,1,0,0:0:0:0:
448,192,65900,1,0,0:0:0:0:
192,192,65995,1,0,0:0:0:0:
64,192,65995,1,0,0:0:0:0:
64,192,66090,1,0,0:0:0:0:
448,192,66185,128,0,66565:0:0:0:0:
320,192,66185,1,0,0:0:0:0:
320,192,66565,5,0,0:0:0:0:
64,192,66565,1,0,0:0:0:0:
64,192,66660,1,0,0:0:0:0:
192,192,66755,1,0,0:0:0:0:
448,192,66755,128,0,66802:0:0:0:0:
320,192,66850,1,0,0:0:0:0:
64,192,66944,1,0,0:0:0:0:
192,192,66944,1,0,0:0:0:0:
192,192,67039,128,0,67229:0:0:0:0:
320,192,67229,1,0,0:0:0:0:
448,192,67229,1,0,0:0:0:0:
64,192,67324,1,0,0:0:0:0:
448,192,67324,1,0,0:0:0:0:
320,192,67419,128,0,67704:0:0:0:0:
192,192,67704,5,0,0:0:0:0:
64,192,67704,1,0,0:0:0:0:
448,192,67751,1,0,0:0:0:0:
320,192,67799,1,0,0:0:0:0:
192,192,67989,1,0,0:0:0:0:
64,192,67989,1,0,0:0:0:0:
448,192,68036,1,0,0:0:0:0:
320,192,68084,1,0,0:0:0:0:
64,192,68274,1,0,0:0:0:0:
192,192,68274,1,0,0:0:0:0:
448,192,68321,1,0,0:0:0:0:
320,192,68369,1,0,0:0:0:0:
320,192,68558,1,0,0:0:0:0:
64,192,68558,1,0,0:0:0:0:
448,192,68606,1,0,0:0:0:0:
192,192,68653,1,0,0:0:0:0:
64,192,68843,1,0,0:0:0:0:
320,192,68843,1,0,0:0:0:0:
448,192,68891,1,0,0:0:0:0:
192,192,68938,1,0,0:0:0:0:
320,192,69128,1,0,0:0:0:0:
64,192,69128,1,0,0:0:0:0:
448,192,69175,1,0,0:0:0:0:
192,192,69223,1,0,0:0:0:0:
448,192,69413,1,0,0:0:0:0:
192,192,69413,1,0,0:0:0:0:
64,192,69460,1,0,0:0:0:0:
320,192,69508,1,0,0:0:0:0:
448,192,69698,1,0,0:0:0:0:
192,192,69698,1,0,0:0:0:0:
64,192,69745,1,0,0:0:0:0:
320,192,69793,1,0,0:0:0:0:
192,192,69982,1,0,0:0:0:0:
448,192,69982,1,0,0:0:0:0:
64,192,70030,1,0,0:0:0:0:
320,192,70077,1,0,0:0:0:0:
320,192,70267,1,0,0:0:0:0:
448,192,70267,1,0,0:0:0:0:
64,192,70315,1,0,0:0:0:0:
192,192,70362,1,0,0:0:0:0:
448,192,70552,1,0,0:0:0:0:
320,192,70552,1,0,0:0:0:0:
64,192,70600,1,0,0:0:0:0:
192,192,70647,1,0,0:0:0:0:
320,192,70742,1,0,0:0:0:0:
448,192,70742,1,0,0:0:0:0:
64,192,70837,1,0,0:0:0:0:
448,192,70932,1,0,0:0:0:0:
448,192,71027,1,0,0:0:0:0:
192,192,71122,1,0,0:0:0:0:
64,192,71122,1,0,0:0:0:0:
448,192,71217,1,0,0:0:0:0:
320,192,71312,1,0,0:0:0:0:
320,192,71406,1,0,0:0:0:0:
192,192,71501,1,0,0:0:0:0:
64,192,71501,1,0,0:0:0:0:
320,192,71596,1,0,0:0:0:0:
192,192,71691,1,0,0:0:0:0:
192,192,71786,1,0,0:0:0:0:
320,192,71881,1,0,0:0:0:0:
448,192,71881,1,0,0:0:0:0:
192,192,71976,1,0,0:0:0:0:
64,192,72071,1,0,0:0:0:0:
64,192,72166,1,0,0:0:0:0:
448,192,72261,1,0,0:0:0:0:
320,192,72308,1,0,0:0:0:0:
192,192,72356,1,0,0:0:0:0:
448,192,72403,1,0,0:0:0:0:
64,192,72451,1,0,0:0:0:0:
320,192,72498,1,0,0:0:0:0:
192,192,72546,1,0,0:0:0:0:
448,192,72593,1,0,0:0:0:0:
64,192,72641,1,0,0:0:0:0:
192,192,72688,1,0,0:0:0:0:
320,192,72736,1,0,0:0:0:0:
64,192,72783,1,0,0:0:0:0:
448,192,72831,1,0,0:0:0:0:
192,192,72878,1,0,0:0:0:0:
320,192,72925,1,0,0:0:0:0:
448,192,72973,1,0,0:0:0:0:
64,192,73020,1,0,0:0:0:0:
192,192,73115,1,0,0:0:0:0:
192,192,73305,1,0,0:0:0:0:
448,192,73495,1,0,0:0:0:0:
192,192,73780,1,0,0:0:0:0:
64,192,73780,1,0,0:0:0:0:
448,192,76248,1,0,0:0:0:0:
64,192,76343,1,0,0:0:0:0:
448,192,76438,1,0,0:0:0:0:
192,192,76533,1,0,0:0:0:0:
64,192,76533,1,0,0:0:0:0:
192,192,76818,1,0,0:0:0:0:
64,192,76818,1,0,0:0:0:0:
192,192,79856,1,0,0:0:0:0:
64,192,79856,1,0,0:0:0:0:
192,192,82419,1,0,0:0:0:0:
64,192,82419,1,0,0:0:0:0:
192,192,82609,1,0,0:0:0:0:
64,192,82609,1,0,0:0:0:0:
192,192,82894,1,0,0:0:0:0:
64,192,82894,1,0,0:0:0:0:
192,192,84413,1,0,0:0:0:0:
64,192,84413,1,0,0:0:0:0:
64,192,84698,1,0,0:0:0:0:
320,192,84698,1,0,0:0:0:0:
64,192,84982,1,0,0:0:0:0:
320,192,84982,1,0,0:0:0:0:
448,192,85267,1,0,0:0:0:0:
192,192,85267,1,0,0:0:0:0:
192,192,85552,1,0,0:0:0:0:
448,192,85552,1,0,0:0:0:0:
448,192,85647,1,0,0:0:0:0:
320,192,85647,1,0,0:0:0:0:
192,192,85932,1,0,0:0:0:0:
64,192,85932,1,0,0:0:0:0:
448,192,86312,1,0,0:0:0:0:
64,192,86312,1,0,0:0:0:0:
448,192,86691,1,0,0:0:0:0:
64,192,86691,1,0,0:0:0:0:
64,192,87071,1,0,0:0:0:0:
448,192,87071,1,0,0:0:0:0:
448,192,87451,1,0,0:0:0:0:
64,192,87451,1,0,0:0:0:0:
64,192,87831,1,0,0:0:0:0:
448,192,87831,1,0,0:0:0:0:
448,192,88210,1,0,0:0:0:0:
64,192,88210,1,0,0:0:0:0:
448,192,88590,1,0,0:0:0:0:
64,192,88590,1,0,0:0:0:0:
64,192,88970,1,0,0:0:0:0:
448,192,88970,128,0,89033:0:0:0:0:
448,192,89350,1,0,0:0:0:0:
64,192,89350,1,0,0:0:0:0:
448,192,89729,1,0,0:0:0:0:
64,192,89729,1,0,0:0:0:0:
64,192,90109,1,0,0:0:0:0:
448,192,90109,1,0,0:0:0:0:
448,192,90489,1,0,0:0:0:0:
64,192,90489,1,0,0:0:0:0:
64,192,90869,1,0,0:0:0:0:
448,192,90869,1,0,0:0:0:0:
448,192,91248,1,0,0:0:0:0:
64,192,91248,1,0,0:0:0:0:
448,192,91628,1,0,0:0:0:0:
64,192,91628,1,0,0:0:0:0:
320,192,91818,1,0,0:0:0:0:
448,192,91818,1,0,0:0:0:0:
64,192,91937,1,0,0:0:0:0:
320,192,91937,1,0,0:0:0:0:
192,192,92008,1,0,0:0:0:0:
64,192,92008,1,0,0:0:0:0:
448,192,92055,1,0,0:0:0:0:
320,192,92103,1,0,0:0:0:0:
192,192,92293,1,0,0:0:0:0:
64,192,92293,1,0,0:0:0:0:
448,192,92340,1,0,0:0:0:0:
320,192,92387,1,0,0:0:0:0:
64,192,92577,1,0,0:0:0:0:
192,192,92577,1,0,0:0:0:0:
448,192,92625,1,0,0:0:0:0:
320,192,92672,1,0,0:0:0:0:
320,192,92862,1,0,0:0:0:0:
64,192,92862,1,0,0:0:0:0:
448,192,92910,1,0,0:0:0:0:
192,192,92957,1,0,0:0:0:0:
64,192,93147,1,0,0:0:0:0:
320,192,93147,1,0,0:0:0:0:
448,192,93194,1,0,0:0:0:0:
192,192,93242,1,0,0:0:0:0:
320,192,93432,1,0,0:0:0:0:
64,192,93432,1,0,0:0:0:0:
448,192,93479,1,0,0:0:0:0:
192,192,93527,1,0,0:0:0:0:
448,192,93717,1,0,0:0:0:0:
192,192,93717,1,0,0:0:0:0:
64,192,93764,1,0,0:0:0:0:
320,192,93812,1,0,0:0:0:0:
448,192,94001,1,0,0:0:0:0:
192,192,94001,1,0,0:0:0:0:
64,192,94049,1,0,0:0:0:0:
320,192,94096,1,0,0:0:0:0:
192,192,94286,1,0,0:0:0:0:
448,192,94286,1,0,0:0:0:0:
64,192,94334,1,0,0:0:0:0:
320,192,94381,1,0,0:0:0:0:
320,192,94571,1,0,0:0:0:0:
448,192,94571,1,0,0:0:0:0:
64,192,94619,1,0,0:0:0:0:
192,192,94666,1,0,0:0:0:0:
448,192,94856,1,0,0:0:0:0:
320,192,94856,1,0,0:0:0:0:
64,192,94903,1,0,0:0:0:0:
192,192,94951,1,0,0:0:0:0:
320,192,95046,1,0,0:0:0:0:
448,192,95046,1,0,0:0:0:0:
64,192,95141,1,0,0:0:0:0:
448,192,95236,1,0,0:0:0:0:
448,192,95331,1,0,0:0:0:0:
192,192,95425,1,0,0:0:0:0:
64,192,95425,1,0,0:0:0:0:
448,192,95520,1,0,0:0:0:0:
320,192,95615,1,0,0:0:0:0:
320,192,95710,1,0,0:0:0:0:
192,192,95805,1,0,0:0:0:0:
64,192,95805,1,0,0:0:0:0:
320,192,95900,1,0,0:0:0:0:
192,192,95995,1,0,0:0:0:0:
192,192,96090,1,0,0:0:0:0:
320,192,96185,1,0,0:0:0:0:
448,192,96185,1,0,0:0:0:0:
192,192,96280,1,0,0:0:0:0:
64,192,96375,1,0,0:0:0:0:
64,192,96470,1,0,0:0:0:0:
448,192,96565,1,0,0:0:0:0:
320,192,96612,1,0,0:0:0:0:
192,192,96660,1,0,0:0:0:0:
64,192,96707,1,0,0:0:0:0:
448,192,96755,1,0,0:0:0:0:
192,192,96802,1,0,0:0:0:0:
320,192,96850,1,0,0:0:0:0:
448,192,96897,5,0,0:0:0:0:
64,192,96944,1,0,0:0:0:0:
192,192,96992,1,0,0:0:0:0:
320,192,97039,1,0,0:0:0:0:
448,192,97087,1,0,0:0:0:0:
64,192,97134,1,0,0:0:0:0:
320,192,97182,1,0,0:0:0:0:
192,192,97229,1,0,0:0:0:0:
64,192,97277,1,0,0:0:0:0:
192,192,98084,1,0,0:0:0:0:
64,192,98084,1,0,0:0:0:0:
320,192,98147,1,0,0:0:0:0:
192,192,98210,1,0,0:0:0:0:
64,192,98274,1,0,0:0:0:0:
192,192,98337,1,0,0:0:0:0:
448,192,98400,1,0,0:0:0:0:
192,192,98463,1,0,0:0:0:0:
64,192,98527,1,0,0:0:0:0:
192,192,98590,1,0,0:0:0:0:
448,192,98653,1,0,0:0:0:0:
320,192,98717,1,0,0:0:0:0:
64,192,98780,1,0,0:0:0:0:
192,192,98843,1,0,0:0:0:0:
448,192,98843,1,0,0:0:0:0:
320,192,98843,1,0,0:0:0:0:
320,192,99033,1,0,0:0:0:0:
192,192,99223,1,0,0:0:0:0:
64,192,99223,1,0,0:0:0:0:
448,192,99286,1,0,0:0:0:0:
64,192,99350,1,0,0:0:0:0:
192,192,99413,1,0,0:0:0:0:
64,192,99476,1,0,0:0:0:0:
320,192,99539,1,0,0:0:0:0:
64,192,99603,1,0,0:0:0:0:
192,192,99666,1,0,0:0:0:0:
64,192,99729,1,0,0:0:0:0:
448,192,99793,1,0,0:0:0:0:
192,192,99856,1,0,0:0:0:0:
320,192,99919,1,0,0:0:0:0:
448,192,99982,1,0,0:0:0:0:
192,192,100046,1,0,0:0:0:0:
448,192,100109,1,0,0:0:0:0:
64,192,100172,1,0,0:0:0:0:
448,192,100236,1,0,0:0:0:0:
192,192,100299,1,0,0:0:0:0:
448,192,100362,1,0,0:0:0:0:
320,192,100362,1,0,0:0:0:0:
64,192,100362,1,0,0:0:0:0:
192,192,100425,1,0,0:0:0:0:
64,192,100489,1,0,0:0:0:0:
320,192,100552,1,0,0:0:0:0:
192,192,100615,1,0,0:0:0:0:
448,192,100679,1,0,0:0:0:0:
320,192,100742,1,0,0:0:0:0:
64,192,100837,1,0,0:0:0:0:
448,192,100932,1,0,0:0:0:0:
192,192,101027,1,0,0:0:0:0:
320,192,101122,1,0,0:0:0:0:
448,192,101122,1,0,0:0:0:0:
64,192,101185,1,0,0:0:0:0:
320,192,101248,1,0,0:0:0:0:
448,192,101312,1,0,0:0:0:0:
320,192,101375,1,0,0:0:0:0:
192,192,101438,1,0,0:0:0:0:
320,192,101501,1,0,0:0:0:0:
448,192,101565,1,0,0:0:0:0:
320,192,101628,1,0,0:0:0:0:
64,192,101691,1,0,0:0:0:0:
192,192,101755,1,0,0:0:0:0:
448,192,101818,1,0,0:0:0:0:
320,192,101881,1,0,0:0:0:0:
192,192,101881,1,0,0:0:0:0:
64,192,101881,1,0,0:0:0:0:
320,192,102071,1,0,0:0:0:0:
192,192,102071,1,0,0:0:0:0:
320,192,102261,1,0,0:0:0:0:
448,192,102261,1,0,0:0:0:0:
64,192,102308,1,0,0:0:0:0:
448,192,102356,1,0,0:0:0:0:
192,192,102403,1,0,0:0:0:0:
448,192,102451,1,0,0:0:0:0:
64,192,102514,1,0,0:0:0:0:
448,192,102577,1,0,0:0:0:0:
192,192,102641,1,0,0:0:0:0:
448,192,102704,1,0,0:0:0:0:
64,192,102767,1,0,0:0:0:0:
192,192,102831,1,0,0:0:0:0:
320,192,102894,1,0,0:0:0:0:
64,192,102957,1,0,0:0:0:0:
448,192,103020,1,0,0:0:0:0:
320,192,103084,1,0,0:0:0:0:
192,192,103147,1,0,0:0:0:0:
448,192,103210,1,0,0:0:0:0:
64,192,103274,1,0,0:0:0:0:
448,192,103337,1,0,0:0:0:0:
320,192,103400,1,0,0:0:0:0:
192,192,103400,1,0,0:0:0:0:
64,192,103400,1,0,0:0:0:0:
320,192,103495,1,0,0:0:0:0:
448,192,103590,1,0,0:0:0:0:
320,192,103685,1,0,0:0:0:0:
64,192,103685,1,0,0:0:0:0:
192,192,103685,1,0,0:0:0:0:
64,192,103780,1,0,0:0:0:0:
192,192,103875,1,0,0:0:0:0:
448,192,103970,1,0,0:0:0:0:
64,192,103970,1,0,0:0:0:0:
320,192,103970,1,0,0:0:0:0:
448,192,104065,1,0,0:0:0:0:
192,192,104160,1,0,0:0:0:0:
64,192,104160,1,0,0:0:0:0:
320,192,104223,1,0,0:0:0:0:
192,192,104286,1,0,0:0:0:0:
64,192,104350,1,0,0:0:0:0:
192,192,104413,1,0,0:0:0:0:
448,192,104476,1,0,0:0:0:0:
192,192,104539,1,0,0:0:0:0:
64,192,104603,1,0,0:0:0:0:
192,192,104666,1,0,0:0:0:0:
448,192,104729,1,0,0:0:0:0:
320,192,104793,1,0,0:0:0:0:
64,192,104856,1,0,0:0:0:0:
192,192,104919,1,0,0:0:0:0:
448,192,104919,1,0,0:0:0:0:
320,192,104919,1,0,0:0:0:0:
320,192,105109,1,0,0:0:0:0:
192,192,105299,1,0,0:0:0:0:
64,192,105299,1,0,0:0:0:0:
448,192,105362,1,0,0:0:0:0:
64,192,105425,1,0,0:0:0:0:
192,192,105489,1,0,0:0:0:0:
64,192,105552,1,0,0:0:0:0:
320,192,105615,1,0,0:0:0:0:
64,192,105679,1,0,0:0:0:0:
192,192,105742,1,0,0:0:0:0:
64,192,105805,1,0,0:0:0:0:
448,192,105869,1,0,0:0:0:0:
192,192,105932,1,0,0:0:0:0:
320,192,105995,1,0,0:0:0:0:
448,192,106058,1,0,0:0:0:0:
192,192,106122,1,0,0:0:0:0:
448,192,106185,1,0,0:0:0:0:
64,192,106248,1,0,0:0:0:0:
448,192,106312,1,0,0:0:0:0:
192,192,106375,1,0,0:0:0:0:
448,192,106438,1,0,0:0:0:0:
320,192,106438,1,0,0:0:0:0:
64,192,106438,1,0,0:0:0:0:
192,192,106501,1,0,0:0:0:0:
64,192,106565,1,0,0:0:0:0:
320,192,106628,1,0,0:0:0:0:
192,192,106691,1,0,0:0:0:0:
448,192,106755,1,0,0:0:0:0:
320,192,106818,1,0,0:0:0:0:
64,192,106913,1,0,0:0:0:0:
448,192,107008,1,0,0:0:0:0:
320,192,107103,1,0,0:0:0:0:
64,192,107198,1,0,0:0:0:0:
192,192,107198,1,0,0:0:0:0:
448,192,107261,1,0,0:0:0:0:
192,192,107324,1,0,0:0:0:0:
320,192,107387,1,0,0:0:0:0:
64,192,107451,1,0,0:0:0:0:
320,192,107514,1,0,0:0:0:0:
192,192,107577,1,0,0:0:0:0:
448,192,107641,1,0,0:0:0:0:
192,192,107704,1,0,0:0:0:0:
320,192,107767,1,0,0:0:0:0:
448,192,107831,1,0,0:0:0:0:
192,192,107894,1,0,0:0:0:0:
448,192,107957,1,0,0:0:0:0:
64,192,107957,1,0,0:0:0:0:
320,192,107957,1,0,0:0:0:0:
320,192,108147,1,0,0:0:0:0:
192,192,108147,1,0,0:0:0:0:
192,192,108337,1,0,0:0:0:0:
64,192,108337,1,0,0:0:0:0:
448,192,108400,1,0,0:0:0:0:
192,192,108463,1,0,0:0:0:0:
320,192,108527,1,0,0:0:0:0:
64,192,108590,1,0,0:0:0:0:
320,192,108653,1,0,0:0:0:0:
192,192,108717,1,0,0:0:0:0:
448,192,108780,1,0,0:0:0:0:
192,192,108843,1,0,0:0:0:0:
320,192,108906,1,0,0:0:0:0:
448,192,108970,1,0,0:0:0:0:
320,192,109033,1,0,0:0:0:0:
192,192,109096,1,0,0:0:0:0:
64,192,109096,1,0,0:0:0:0:
448,192,109160,1,0,0:0:0:0:
64,192,109223,1,0,0:0:0:0:
320,192,109286,1,0,0:0:0:0:
320,192,109381,1,0,0:0:0:0:
192,192,109381,1,0,0:0:0:0:
192,192,109476,1,0,0:0:0:0:
64,192,109476,1,0,0:0:0:0:
448,192,109476,1,0,0:0:0:0:
448,192,109571,1,0,0:0:0:0:
320,192,109619,1,0,0:0:0:0:
64,192,109666,1,0,0:0:0:0:
64,192,109761,1,0,0:0:0:0:
192,192,109808,1,0,0:0:0:0:
320,192,109856,1,0,0:0:0:0:
320,192,109951,1,0,0:0:0:0:
448,192,109951,1,0,0:0:0:0:
64,192,110046,1,0,0:0:0:0:
320,192,110109,1,0,0:0:0:0:
448,192,110172,1,0,0:0:0:0:
192,192,110236,1,0,0:0:0:0:
64,192,110236,1,0,0:0:0:0:
320,192,110299,1,0,0:0:0:0:
192,192,110362,1,0,0:0:0:0:
64,192,110425,1,0,0:0:0:0:
192,192,110489,1,0,0:0:0:0:
448,192,110552,1,0,0:0:0:0:
192,192,110615,1,0,0:0:0:0:
64,192,110679,1,0,0:0:0:0:
192,192,110742,1,0,0:0:0:0:
448,192,110805,1,0,0:0:0:0:
320,192,110869,1,0,0:0:0:0:
64,192,110932,1,0,0:0:0:0:
192,192,110995,1,0,0:0:0:0:
448,192,110995,1,0,0:0:0:0:
320,192,110995,1,0,0:0:0:0:
320,192,111185,1,0,0:0:0:0:
192,192,111375,1,0,0:0:0:0:
64,192,111375,1,0,0:0:0:0:
448,192,111438,1,0,0:0:0:0:
64,192,111501,1,0,0:0:0:0:
192,192,111565,1,0,0:0:0:0:
64,192,111628,1,0,0:0:0:0:
320,192,111691,1,0,0:0:0:0:
64,192,111755,1,0,0:0:0:0:
192,192,111818,1,0,0:0:0:0:
64,192,111881,1,0,0:0:0:0:
448,192,111944,1,0,0:0:0:0:
192,192,112008,1,0,0:0:0:0:
320,192,112071,1,0,0:0:0:0:
448,192,112134,1,0,0:0:0:0:
192,192,112198,1,0,0:0:0:0:
448,192,112261,1,0,0:0:0:0:
64,192,112324,1,0,0:0:0:0:
448,192,112387,1,0,0:0:0:0:
192,192,112451,1,0,0:0:0:0:
448,192,112514,1,0,0:0:0:0:
320,192,112514,1,0,0:0:0:0:
64,192,112514,1,0,0:0:0:0:
192,192,112577,1,0,0:0:0:0:
64,192,112641,1,0,0:0:0:0:
320,192,112704,1,0,0:0:0:0:
192,192,112767,1,0,0:0:0:0:
448,192,112831,1,0,0:0:0:0:
320,192,112894,1,0,0:0:0:0:
64,192,112989,1,0,0:0:0:0:
448,192,113084,1,0,0:0:0:0:
192,192,113179,1,0,0:0:0:0:
320,192,113274,1,0,0:0:0:0:
448,192,113274,1,0,0:0:0:0:
64,192,113337,1,0,0:0:0:0:
320,192,113400,1,0,0:0:0:0:
448,192,113463,1,0,0:0:0:0:
320,192,113527,1,0,0:0:0:0:
192,192,113590,1,0,0:0:0:0:
320,192,113653,1,0,0:0:0:0:
448,192,113717,1,0,0:0:0:0:
320,192,113780,1,0,0:0:0:0:
64,192,113843,1,0,0:0:0:0:
192,192,113906,1,0,0:0:0:0:
448,192,113970,1,0,0:0:0:0:
320,192,114033,1,0,0:0:0:0:
192,192,114033,1,0,0:0:0:0:
64,192,114033,1,0,0:0:0:0:
320,192,114223,1,0,0:0:0:0:
192,192,114223,1,0,0:0:0:0:
320,192,114413,1,0,0:0:0:0:
448,192,114413,1,0,0:0:0:0:
64,192,114460,1,0,0:0:0:0:
448,192,114508,1,0,0:0:0:0:
192,192,114555,1,0,0:0:0:0:
448,192,114603,1,0,0:0:0:0:
64,192,114666,1,0,0:0:0:0:
448,192,114729,1,0,0:0:0:0:
192,192,114793,1,0,0:0:0:0:
448,192,114856,1,0,0:0:0:0:
64,192,114919,1,0,0:0:0:0:
192,192,114982,1,0,0:0:0:0:
320,192,115046,1,0,0:0:0:0:
64,192,115109,1,0,0:0:0:0:
448,192,115172,1,0,0:0:0:0:
320,192,115236,1,0,0:0:0:0:
192,192,115299,1,0,0:0:0:0:
448,192,115362,1,0,0:0:0:0:
64,192,115425,1,0,0:0:0:0:
448,192,115489,1,0,0:0:0:0:
320,192,115552,1,0,0:0:0:0:
192,192,115552,1,0,0:0:0:0:
64,192,115552,1,0,0:0:0:0:
320,192,115647,1,0,0:0:0:0:
448,192,115742,1,0,0:0:0:0:
320,192,115837,1,0,0:0:0:0:
64,192,115837,1,0,0:0:0:0:
192,192,115837,1,0,0:0:0:0:
64,192,115932,1,0,0:0:0:0:
192,192,116027,1,0,0:0:0:0:
448,192,116122,1,0,0:0:0:0:
64,192,116122,1,0,0:0:0:0:
320,192,116122,1,0,0:0:0:0:
448,192,116217,1,0,0:0:0:0:
192,192,116312,1,0,0:0:0:0:
64,192,116312,1,0,0:0:0:0:
320,192,116375,1,0,0:0:0:0:
192,192,116438,1,0,0:0:0:0:
64,192,116501,1,0,0:0:0:0:
192,192,116565,1,0,0:0:0:0:
448,192,116628,1,0,0:0:0:0:
192,192,116691,1,0,0:0:0:0:
64,192,116755,1,0,0:0:0:0:
192,192,116818,1,0,0:0:0:0:
448,192,116881,1,0,0:0:0:0:
320,192,116944,1,0,0:0:0:0:
64,192,117008,1,0,0:0:0:0:
192,192,117071,1,0,0:0:0:0:
448,192,117071,1,0,0:0:0:0:
320,192,117071,1,0,0:0:0:0:
320,192,117261,1,0,0:0:0:0:
192,192,117451,1,0,0:0:0:0:
64,192,117451,1,0,0:0:0:0:
448,192,117514,1,0,0:0:0:0:
64,192,117577,1,0,0:0:0:0:
192,192,117641,1,0,0:0:0:0:
64,192,117704,1,0,0:0:0:0:
320,192,117767,1,0,0:0:0:0:
64,192,117831,1,0,0:0:0:0:
192,192,117894,1,0,0:0:0:0:
64,192,117957,1,0,0:0:0:0:
448,192,118020,1,0,0:0:0:0:
192,192,118084,1,0,0:0:0:0:
320,192,118147,1,0,0:0:0:0:
448,192,118210,1,0,0:0:0:0:
192,192,118274,1,0,0:0:0:0:
448,192,118337,1,0,0:0:0:0:
64,192,118400,1,0,0:0:0:0:
448,192,118463,1,0,0:0:0:0:
192,192,118527,1,0,0:0:0:0:
448,192,118590,1,0,0:0:0:0:
320,192,118590,1,0,0:0:0:0:
64,192,118590,1,0,0:0:0:0:
192,192,118653,1,0,0:0:0:0:
64,192,118717,1,0,0:0:0:0:
320,192,118780,1,0,0:0:0:0:
192,192,118843,1,0,0:0:0:0:
448,192,118906,1,0,0:0:0:0:
320,192,118970,1,0,0:0:0:0:
64,192,119065,1,0,0:0:0:0:
448,192,119160,1,0,0:0:0:0:
320,192,119255,1,0,0:0:0:0:
192,192,119350,1,0,0:0:0:0:
64,192,119350,1,0,0:0:0:0:
448,192,119413,1,0,0:0:0:0:
192,192,119476,1,0,0:0:0:0:
320,192,119539,1,0,0:0:0:0:
448,192,119603,1,0,0:0:0:0:
320,192,119666,1,0,0:0:0:0:
192,192,119729,1,0,0:0:0:0:
64,192,119793,1,0,0:0:0:0:
192,192,119856,1,0,0:0:0:0:
320,192,119919,1,0,0:0:0:0:
448,192,119982,1,0,0:0:0:0:
64,192,120046,1,0,0:0:0:0:
192,192,120109,1,0,0:0:0:0:
320,192,120109,1,0,0:0:0:0:
448,192,120109,1,0,0:0:0:0:
320,192,120299,1,0,0:0:0:0:
192,192,120299,1,0,0:0:0:0:
192,192,120489,1,0,0:0:0:0:
64,192,120489,1,0,0:0:0:0:
320,192,120552,1,0,0:0:0:0:
448,192,120615,1,0,0:0:0:0:
64,192,120679,1,0,0:0:0:0:
320,192,120742,1,0,0:0:0:0:
192,192,120805,1,0,0:0:0:0:
64,192,120869,1,0,0:0:0:0:
320,192,120932,1,0,0:0:0:0:
448,192,120995,1,0,0:0:0:0:
64,192,121058,1,0,0:0:0:0:
320,192,121122,1,0,0:0:0:0:
192,192,121185,1,0,0:0:0:0:
448,192,121248,1,0,0:0:0:0:
64,192,121312,1,0,0:0:0:0:
192,192,121375,1,0,0:0:0:0:
320,192,121438,1,0,0:0:0:0:
448,192,121501,1,0,0:0:0:0:
64,192,121565,1,0,0:0:0:0:
192,192,121628,1,0,0:0:0:0:
448,192,121691,1,0,0:0:0:0:
64,192,121755,1,0,0:0:0:0:
320,192,121818,1,0,0:0:0:0:
448,192,121881,1,0,0:0:0:0:
192,192,121944,1,0,0:0:0:0:
64,192,122008,128,0,122293:0:0:0:0:
448,192,122198,128,0,122387:0:0:0:0:
320,192,122387,5,0,0:0:0:0:
192,192,122387,1,0,0:0:0:0:
64,192,122387,1,0,0:0:0:0:
320,192,122482,1,0,0:0:0:0:
448,192,122482,1,0,0:0:0:0:
448,192,122672,1,0,0:0:0:0:
320,192,122672,1,0,0:0:0:0:
320,192,122767,1,0,0:0:0:0:
192,192,122767,1,0,0:0:0:0:
64,192,122767,1,0,0:0:0:0:
448,192,122957,1,0,0:0:0:0:
192,192,123052,1,0,0:0:0:0:
320,192,123147,1,0,0:0:0:0:
64,192,123147,1,0,0:0:0:0:
320,192,123242,1,0,0:0:0:0:
448,192,123242,1,0,0:0:0:0:
320,192,123432,1,0,0:0:0:0:
448,192,123432,1,0,0:0:0:0:
320,192,123527,1,0,0:0:0:0:
192,192,123527,1,0,0:0:0:0:
64,192,123527,1,0,0:0:0:0:
64,192,123717,1,0,0:0:0:0:
320,192,123812,1,0,0:0:0:0:
192,192,123906,1,0,0:0:0:0:
448,192,123906,1,0,0:0:0:0:
192,192,124001,1,0,0:0:0:0:
64,192,124001,1,0,0:0:0:0:
192,192,124191,1,0,0:0:0:0:
64,192,124191,1,0,0:0:0:0:
320,192,124286,1,0,0:0:0:0:
448,192,124286,1,0,0:0:0:0:
192,192,124286,1,0,0:0:0:0:
64,192,124476,1,0,0:0:0:0:
448,192,124666,1,0,0:0:0:0:
192,192,124666,1,0,0:0:0:0:
192,192,124761,1,0,0:0:0:0:
64,192,124761,1,0,0:0:0:0:
64,192,124951,1,0,0:0:0:0:
192,192,124951,1,0,0:0:0:0:
192,192,125046,1,0,0:0:0:0:
320,192,125046,1,0,0:0:0:0:
448,192,125046,1,0,0:0:0:0:
64,192,125236,1,0,0:0:0:0:
320,192,125331,1,0,0:0:0:0:
448,192,125425,1,0,0:0:0:0:
192,192,125425,1,0,0:0:0:0:
64,192,125425,1,0,0:0:0:0:
320,192,125520,1,0,0:0:0:0:
448,192,125520,1,0,0:0:0:0:
320,192,125710,1,0,0:0:0:0:
448,192,125710,1,0,0:0:0:0:
448,192,125805,1,0,0:0:0:0:
192,192,125805,1,0,0:0:0:0:
64,192,125805,1,0,0:0:0:0:
320,192,125995,1,0,0:0:0:0:
448,192,126185,1,0,0:0:0:0:
192,192,126185,1,0,0:0:0:0:
448,192,126280,1,0,0:0:0:0:
320,192,126280,1,0,0:0:0:0:
320,192,126470,1,0,0:0:0:0:
448,192,126470,1,0,0:0:0:0:
448,192,126565,1,0,0:0:0:0:
192,192,126565,1,0,0:0:0:0:
64,192,126565,1,0,0:0:0:0:
320,192,126755,1,0,0:0:0:0:
64,192,126944,1,0,0:0:0:0:
320,192,126944,1,0,0:0:0:0:
448,192,126944,1,0,0:0:0:0:
192,192,127008,1,0,0:0:0:0:
448,192,127071,1,0,0:0:0:0:
192,192,127134,1,0,0:0:0:0:
192,192,127324,1,0,0:0:0:0:
64,192,127324,1,0,0:0:0:0:
448,192,127324,1,0,0:0:0:0:
320,192,127387,1,0,0:0:0:0:
64,192,127451,1,0,0:0:0:0:
320,192,127514,1,0,0:0:0:0:
192,192,127609,1,0,0:0:0:0:
320,192,127704,1,0,0:0:0:0:
448,192,127704,1,0,0:0:0:0:
64,192,127704,1,0,0:0:0:0:
192,192,127799,1,0,0:0:0:0:
64,192,127799,1,0,0:0:0:0:
448,192,127989,1,0,0:0:0:0:
64,192,127989,1,0,0:0:0:0:
320,192,127989,1,0,0:0:0:0:
64,192,128084,1,0,0:0:0:0:
192,192,128084,1,0,0:0:0:0:
448,192,128274,1,0,0:0:0:0:
64,192,128392,1,0,0:0:0:0:
192,192,128392,1,0,0:0:0:0:
320,192,128463,1,0,0:0:0:0:
192,192,128463,1,0,0:0:0:0:
64,192,128463,1,0,0:0:0:0:
320,192,128558,1,0,0:0:0:0:
448,192,128558,1,0,0:0:0:0:
448,192,128748,1,0,0:0:0:0:
320,192,128748,1,0,0:0:0:0:
320,192,128843,1,0,0:0:0:0:
192,192,128843,1,0,0:0:0:0:
64,192,128843,1,0,0:0:0:0:
448,192,129033,1,0,0:0:0:0:
192,192,129128,1,0,0:0:0:0:
320,192,129223,1,0,0:0:0:0:
64,192,129223,1,0,0:0:0:0:
320,192,129318,1,0,0:0:0:0:
448,192,129318,1,0,0:0:0:0:
320,192,129508,1,0,0:0:0:0:
448,192,129508,1,0,0:0:0:0:
320,192,129603,1,0,0:0:0:0:
192,192,129603,1,0,0:0:0:0:
64,192,129603,1,0,0:0:0:0:
64,192,129793,1,0,0:0:0:0:
320,192,129887,1,0,0:0:0:0:
192,192,129982,1,0,0:0:0:0:
448,192,129982,1,0,0:0:0:0:
192,192,130077,1,0,0:0:0:0:
64,192,130077,1,0,0:0:0:0:
192,192,130267,1,0,0:0:0:0:
64,192,130267,1,0,0:0:0:0:
320,192,130362,1,0,0:0:0:0:
448,192,130362,1,0,0:0:0:0:
192,192,130362,1,0,0:0:0:0:
64,192,130552,1,0,0:0:0:0:
448,192,130742,1,0,0:0:0:0:
192,192,130742,1,0,0:0:0:0:
448,192,130837,1,0,0:0:0:0:
320,192,130837,1,0,0:0:0:0:
64,192,130932,1,0,0:0:0:0:
320,192,131027,1,0,0:0:0:0:
448,192,131027,1,0,0:0:0:0:
448,192,131122,1,0,0:0:0:0:
192,192,131122,1,0,0:0:0:0:
64,192,131122,1,0,0:0:0:0:
192,192,131312,1,0,0:0:0:0:
64,192,131501,1,0,0:0:0:0:
320,192,131501,1,0,0:0:0:0:
448,192,131501,1,0,0:0:0:0:
192,192,131565,1,0,0:0:0:0:
320,192,131628,1,0,0:0:0:0:
448,192,131691,1,0,0:0:0:0:
192,192,131755,1,0,0:0:0:0:
320,192,131818,1,0,0:0:0:0:
448,192,131881,1,0,0:0:0:0:
64,192,131881,1,0,0:0:0:0:
192,192,131944,1,0,0:0:0:0:
320,192,132008,1,0,0:0:0:0:
448,192,132071,1,0,0:0:0:0:
192,192,132166,1,0,0:0:0:0:
320,192,132261,1,0,0:0:0:0:
448,192,132261,1,0,0:0:0:0:
64,192,132261,1,0,0:0:0:0:
192,192,132324,1,0,0:0:0:0:
320,192,132387,1,0,0:0:0:0:
64,192,132451,1,0,0:0:0:0:
192,192,132514,1,0,0:0:0:0:
320,192,132577,1,0,0:0:0:0:
448,192,132641,1,0,0:0:0:0:
64,192,132641,1,0,0:0:0:0:
448,192,132736,1,0,0:0:0:0:
64,192,132831,1,0,0:0:0:0:
320,192,132878,1,0,0:0:0:0:
192,192,132925,1,0,0:0:0:0:
320,192,132973,1,0,0:0:0:0:
64,192,133020,128,0,133210:0:0:0:0:
192,192,133020,128,0,133210:0:0:0:0:
448,192,133020,128,0,133210:0:0:0:0:
448,192,133305,128,0,133495:0:0:0:0:
320,192,133305,128,0,133495:0:0:0:0:
64,192,133305,128,0,133495:0:0:0:0:
192,192,133590,128,0,133780:0:0:0:0:
320,192,133590,128,0,133780:0:0:0:0:
448,192,133590,128,0,133780:0:0:0:0:
320,192,133875,128,0,134065:0:0:0:0:
192,192,133875,128,0,134065:0:0:0:0:
64,192,133875,128,0,134065:0:0:0:0:
448,192,134160,1,0,0:0:0:0:
64,192,134160,1,0,0:0:0:0:
320,192,134350,128,0,134444:0:0:0:0:
192,192,134350,128,0,134444:0:0:0:0:
64,192,134350,128,0,134444:0:0:0:0:
320,192,134539,1,0,0:0:0:0:
192,192,134539,1,0,0:0:0:0:
64,192,134539,1,0,0:0:0:0:
320,192,134634,1,0,0:0:0:0:
448,192,134634,1,0,0:0:0:0:
448,192,134824,1,0,0:0:0:0:
320,192,134824,1,0,0:0:0:0:
320,192,134919,1,0,0:0:0:0:
192,192,134919,1,0,0:0:0:0:
64,192,134919,1,0,0:0:0:0:
448,192,135109,1,0,0:0:0:0:
192,192,135204,1,0,0:0:0:0:
320,192,135299,1,0,0:0:0:0:
64,192,135299,1,0,0:0:0:0:
320,192,135394,1,0,0:0:0:0:
448,192,135394,1,0,0:0:0:0:
320,192,135584,1,0,0:0:0:0:
448,192,135584,1,0,0:0:0:0:
320,192,135679,1,0,0:0:0:0:
192,192,135679,1,0,0:0:0:0:
64,192,135679,1,0,0:0:0:0:
64,192,135869,1,0,0:0:0:0:
320,192,135963,1,0,0:0:0:0:
192,192,136058,1,0,0:0:0:0:
448,192,136058,1,0,0:0:0:0:
192,192,136153,1,0,0:0:0:0:
64,192,136153,1,0,0:0:0:0:
192,192,136343,1,0,0:0:0:0:
64,192,136343,1,0,0:0:0:0:
320,192,136438,1,0,0:0:0:0:
448,192,136438,1,0,0:0:0:0:
192,192,136438,1,0,0:0:0:0:
320,192,136628,1,0,0:0:0:0:
448,192,136818,1,0,0:0:0:0:
192,192,136818,1,0,0:0:0:0:
320,192,136818,1,0,0:0:0:0:
192,192,136913,1,0,0:0:0:0:
64,192,136913,1,0,0:0:0:0:
192,192,137103,1,0,0:0:0:0:
320,192,137103,1,0,0:0:0:0:
448,192,137103,1,0,0:0:0:0:
192,192,137198,1,0,0:0:0:0:
64,192,137198,1,0,0:0:0:0:
192,192,137387,1,0,0:0:0:0:
448,192,137387,1,0,0:0:0:0:
320,192,137387,1,0,0:0:0:0:
448,192,137577,1,0,0:0:0:0:
64,192,137577,1,0,0:0:0:0:
320,192,137672,1,0,0:0:0:0:
448,192,137672,1,0,0:0:0:0:
320,192,137862,1,0,0:0:0:0:
448,192,137862,1,0,0:0:0:0:
448,192,137957,1,0,0:0:0:0:
192,192,137957,1,0,0:0:0:0:
64,192,137957,1,0,0:0:0:0:
320,192,138147,1,0,0:0:0:0:
448,192,138337,1,0,0:0:0:0:
192,192,138337,1,0,0:0:0:0:
448,192,138432,1,0,0:0:0:0:
320,192,138432,1,0,0:0:0:0:
320,192,138622,1,0,0:0:0:0:
448,192,138622,1,0,0:0:0:0:
448,192,138717,1,0,0:0:0:0:
192,192,138717,1,0,0:0:0:0:
64,192,138717,1,0,0:0:0:0:
192,192,138906,1,0,0:0:0:0:
64,192,139096,1,0,0:0:0:0:
320,192,139096,1,0,0:0:0:0:
448,192,139096,1,0,0:0:0:0:
192,192,139160,1,0,0:0:0:0:
448,192,139223,1,0,0:0:0:0:
192,192,139286,1,0,0:0:0:0:
192,192,139476,1,0,0:0:0:0:
64,192,139476,1,0,0:0:0:0:
448,192,139476,1,0,0:0:0:0:
320,192,139539,1,0,0:0:0:0:
64,192,139603,1,0,0:0:0:0:
320,192,139666,1,0,0:0:0:0:
192,192,139761,1,0,0:0:0:0:
320,192,139856,1,0,0:0:0:0:
448,192,139856,1,0,0:0:0:0:
64,192,139856,1,0,0:0:0:0:
192,192,139951,1,0,0:0:0:0:
64,192,139951,1,0,0:0:0:0:
448,192,140141,1,0,0:0:0:0:
64,192,140141,1,0,0:0:0:0:
320,192,140141,1,0,0:0:0:0:
64,192,140236,1,0,0:0:0:0:
192,192,140236,1,0,0:0:0:0:
64,192,140425,1,0,0:0:0:0:
320,192,140425,1,0,0:0:0:0:
448,192,140425,1,0,0:0:0:0:
320,192,140615,1,0,0:0:0:0:
192,192,140615,1,0,0:0:0:0:
64,192,140615,1,0,0:0:0:0:
320,192,140710,1,0,0:0:0:0:
448,192,140710,1,0,0:0:0:0:
448,192,140900,1,0,0:0:0:0:
320,192,140900,1,0,0:0:0:0:
320,192,140995,1,0,0:0:0:0:
192,192,140995,1,0,0:0:0:0:
64,192,140995,1,0,0:0:0:0:
448,192,141185,1,0,0:0:0:0:
192,192,141280,1,0,0:0:0:0:
320,192,141375,1,0,0:0:0:0:
64,192,141375,1,0,0:0:0:0:
320,192,141470,1,0,0:0:0:0:
448,192,141470,1,0,0:0:0:0:
320,192,141660,1,0,0:0:0:0:
448,192,141660,1,0,0:0:0:0:
320,192,141755,1,0,0:0:0:0:
192,192,141755,1,0,0:0:0:0:
64,192,141755,1,0,0:0:0:0:
64,192,141944,1,0,0:0:0:0:
320,192,142039,1,0,0:0:0:0:
192,192,142134,1,0,0:0:0:0:
448,192,142134,1,0,0:0:0:0:
192,192,142229,1,0,0:0:0:0:
64,192,142229,1,0,0:0:0:0:
192,192,142419,1,0,0:0:0:0:
64,192,142419,1,0,0:0:0:0:
320,192,142514,1,0,0:0:0:0:
448,192,142514,1,0,0:0:0:0:
192,192,142514,1,0,0:0:0:0:
320,192,142704,1,0,0:0:0:0:
448,192,142894,1,0,0:0:0:0:
192,192,142894,1,0,0:0:0:0:
448,192,142989,1,0,0:0:0:0:
320,192,142989,1,0,0:0:0:0:
64,192,143084,1,0,0:0:0:0:
320,192,143179,1,0,0:0:0:0:
448,192,143179,1,0,0:0:0:0:
448,192,143274,1,0,0:0:0:0:
192,192,143274,1,0,0:0:0:0:
64,192,143274,1,0,0:0:0:0:
192,192,143463,1,0,0:0:0:0:
64,192,143653,1,0,0:0:0:0:
320,192,143653,1,0,0:0:0:0:
448,192,143653,1,0,0:0:0:0:
192,192,143717,1,0,0:0:0:0:
320,192,143780,1,0,0:0:0:0:
448,192,143843,1,0,0:0:0:0:
192,192,143906,1,0,0:0:0:0:
320,192,143970,1,0,0:0:0:0:
448,192,144033,1,0,0:0:0:0:
64,192,144033,1,0,0:0:0:0:
192,192,144096,1,0,0:0:0:0:
320,192,144160,1,0,0:0:0:0:
448,192,144223,1,0,0:0:0:0:
192,192,144318,1,0,0:0:0:0:
320,192,144413,1,0,0:0:0:0:
448,192,144413,1,0,0:0:0:0:
64,192,144413,1,0,0:0:0:0:
192,192,144476,1,0,0:0:0:0:
320,192,144539,1,0,0:0:0:0:
64,192,144603,1,0,0:0:0:0:
192,192,144666,1,0,0:0:0:0:
320,192,144729,1,0,0:0:0:0:
448,192,144793,1,0,0:0:0:0:
64,192,144793,1,0,0:0:0:0:
448,192,144911,1,0,0:0:0:0:
64,192,144982,1,0,0:0:0:0:
320,192,144982,1,0,0:0:0:0:
192,192,145101,1,0,0:0:0:0:
64,192,145101,1,0,0:0:0:0:
192,192,145362,128,0,145552:0:0:0:0:
64,192,145362,128,0,145552:0:0:0:0:
448,192,145362,128,0,145552:0:0:0:0:
448,192,145647,128,0,145837:0:0:0:0:
320,192,145647,128,0,145837:0:0:0:0:
64,192,145647,128,0,145837:0:0:0:0:
192,192,145932,128,0,146122:0:0:0:0:
320,192,145932,128,0,146122:0:0:0:0:
448,192,145932,128,0,146122:0:0:0:0:
320,192,146217,128,0,146406:0:0:0:0:
192,192,146217,128,0,146406:0:0:0:0:
64,192,146217,128,0,146406:0:0:0:0:
192,192,146501,128,0,146596:0:0:0:0:
64,192,146501,128,0,146596:0:0:0:0:
448,192,146501,128,0,146596:0:0:0:0:
64,192,146691,1,0,0:0:0:0:
320,192,146691,1,0,0:0:0:0:
448,192,146691,128,0,147736:0:0:0:0:
192,192,146881,128,0,147071:0:0:0:0:
320,192,147071,128,0,147261:0:0:0:0:
64,192,147261,128,0,147451:0:0:0:0:
192,192,147451,128,0,147831:0:0:0:0:
448,192,147831,128,0,148210:0:0:0:0:
192,192,148020,128,0,148210:0:0:0:0:
320,192,148210,128,0,148400:0:0:0:0:
64,192,148400,128,0,148590:0:0:0:0:
192,192,148590,128,0,148970:0:0:0:0:
448,192,148970,128,0,149160:0:0:0:0:
192,192,149160,128,0,149350:0:0:0:0:
320,192,149350,128,0,149539:0:0:0:0:
64,192,149539,128,0,149729:0:0:0:0:
448,192,149729,128,0,149919:0:0:0:0:
192,192,149919,128,0,150109:0:0:0:0:
320,192,150109,128,0,150299:0:0:0:0:
192,192,150299,128,0,150489:0:0:0:0:
64,192,150489,128,0,150869:0:0:0:0:
448,192,150869,128,0,151058:0:0:0:0:
192,192,151058,128,0,151248:0:0:0:0:
320,192,151248,128,0,151438:0:0:0:0:
192,192,151438,128,0,151628:0:0:0:0:
64,192,151628,128,0,152008:0:0:0:0:
448,192,152008,128,0,152198:0:0:0:0:
192,192,152198,128,0,152387:0:0:0:0:
64,192,152293,128,0,152387:0:0:0:0:
320,192,152387,128,0,152577:0:0:0:0:
448,192,152482,128,0,152577:0:0:0:0:
192,192,152577,128,0,152767:0:0:0:0:
64,192,152672,128,0,152767:0:0:0:0:
320,192,152672,128,0,152767:0:0:0:0:
448,192,152767,128,0,152957:0:0:0:0:
192,192,152957,128,0,153147:0:0:0:0:
320,192,153147,128,0,153337:0:0:0:0:
64,192,153337,128,0,153527:0:0:0:0:
192,192,153527,128,0,153906:0:0:0:0:
448,192,153906,128,0,154096:0:0:0:0:
192,192,154096,128,0,154286:0:0:0:0:
320,192,154286,128,0,154476:0:0:0:0:
64,192,154476,128,0,154666:0:0:0:0:
192,192,154666,128,0,155046:0:0:0:0:
448,192,155046,128,0,155236:0:0:0:0:
192,192,155236,128,0,155425:0:0:0:0:
320,192,155425,128,0,155615:0:0:0:0:
64,192,155615,128,0,155805:0:0:0:0:
448,192,155805,128,0,155995:0:0:0:0:
192,192,155995,128,0,156185:0:0:0:0:
320,192,156185,128,0,156375:0:0:0:0:
192,192,156375,128,0,156565:0:0:0:0:
64,192,156565,128,0,156944:0:0:0:0:
448,192,156944,128,0,157134:0:0:0:0:
192,192,157134,128,0,157324:0:0:0:0:
320,192,157324,128,0,157514:0:0:0:0:
192,192,157514,128,0,157704:0:0:0:0:
64,192,157704,128,0,158084:0:0:0:0:
448,192,158084,128,0,158274:0:0:0:0:
192,192,158274,128,0,158463:0:0:0:0:
64,192,158369,128,0,158463:0:0:0:0:
320,192,158463,128,0,158653:0:0:0:0:
448,192,158558,128,0,158653:0:0:0:0:
192,192,158653,128,0,158843:0:0:0:0:
64,192,158748,128,0,158843:0:0:0:0:
320,192,158748,128,0,158843:0:0:0:0:
448,192,158843,128,0,159033:0:0:0:0:
192,192,159033,128,0,159223:0:0:0:0:
320,192,159223,128,0,159413:0:0:0:0:
64,192,159413,128,0,159603:0:0:0:0:
192,192,159603,128,0,159982:0:0:0:0:
448,192,159982,128,0,160172:0:0:0:0:
192,192,160172,128,0,160362:0:0:0:0:
320,192,160362,128,0,160552:0:0:0:0:
64,192,160552,128,0,160742:0:0:0:0:
192,192,160742,128,0,161122:0:0:0:0:
448,192,161122,128,0,161312:0:0:0:0:
192,192,161312,128,0,161501:0:0:0:0:
320,192,161501,128,0,161691:0:0:0:0:
64,192,161691,128,0,161881:0:0:0:0:
448,192,161881,128,0,162071:0:0:0:0:
192,192,162071,128,0,162261:0:0:0:0:
320,192,162261,128,0,162451:0:0:0:0:
192,192,162451,128,0,162641:0:0:0:0:
64,192,162641,128,0,163020:0:0:0:0:
448,192,163020,128,0,163210:0:0:0:0:
192,192,163210,128,0,163400:0:0:0:0:
320,192,163400,128,0,163590:0:0:0:0:
192,192,163590,128,0,163780:0:0:0:0:
64,192,163780,128,0,164160:0:0:0:0:
448,192,164160,128,0,164350:0:0:0:0:
192,192,164350,128,0,164539:0:0:0:0:
64,192,164444,128,0,164539:0:0:0:0:
320,192,164539,128,0,164729:0:0:0:0:
448,192,164634,128,0,164729:0:0:0:0:
192,192,164729,128,0,164919:0:0:0:0:
64,192,164824,128,0,164919:0:0:0:0:
320,192,164824,128,0,164919:0:0:0:0:
448,192,164919,128,0,165109:0:0:0:0:
192,192,165109,128,0,165299:0:0:0:0:
320,192,165299,128,0,165489:0:0:0:0:
64,192,165489,128,0,165679:0:0:0:0:
192,192,165679,128,0,166058:0:0:0:0:
448,192,166058,128,0,166248:0:0:0:0:
192,192,166248,128,0,166438:0:0:0:0:
320,192,166438,128,0,166628:0:0:0:0:
64,192,166628,128,0,166818:0:0:0:0:
192,192,166818,128,0,167198:0:0:0:0:
448,192,167198,128,0,167387:0:0:0:0:
192,192,167387,128,0,167577:0:0:0:0:
320,192,167577,128,0,167767:0:0:0:0:
64,192,167767,128,0,167957:0:0:0:0:
448,192,167957,128,0,168147:0:0:0:0:
192,192,168147,128,0,168337:0:0:0:0:
320,192,168337,128,0,168527:0:0:0:0:
192,192,168527,128,0,168717:0:0:0:0:
64,192,168717,128,0,169096:0:0:0:0:
448,192,169096,128,0,169286:0:0:0:0:
192,192,169286,128,0,169476:0:0:0:0:
320,192,169476,128,0,169666:0:0:0:0:
192,192,169666,128,0,169856:0:0:0:0:
64,192,169856,128,0,170236:0:0:0:0:
448,192,170236,128,0,170425:0:0:0:0:
192,192,170425,128,0,170615:0:0:0:0:
64,192,170520,128,0,170615:0:0:0:0:
320,192,170615,128,0,170900:0:0:0:0:
448,192,170710,128,0,170805:0:0:0:0:
192,192,170805,128,0,170995:0:0:0:0:
64,192,170900,128,0,170995:0:0:0:0:
448,192,170995,128,0,172704:0:0:0:0:
320,192,170995,1,0,0:0:0:0:
320,192,172514,128,0,174223:0:0:0:0:
448,192,173463,1,0,0:0:0:0:
64,192,173558,1,0,0:0:0:0:
448,192,173653,1,0,0:0:0:0:
192,192,173748,1,0,0:0:0:0:
64,192,173748,1,0,0:0:0:0:
192,192,174033,128,0,175742:0:0:0:0:
64,192,174033,1,0,0:0:0:0:
64,192,175552,128,0,177261:0:0:0:0:
320,192,177071,128,0,178780:0:0:0:0:
448,192,177071,1,0,0:0:0:0:
192,192,178590,128,0,180299:0:0:0:0:
320,192,179634,1,0,0:0:0:0:
448,192,179634,1,0,0:0:0:0:
320,192,179824,1,0,0:0:0:0:
448,192,179824,1,0,0:0:0:0:
448,192,180109,128,0,181818:0:0:0:0:
320,192,180109,1,0,0:0:0:0:
64,192,181628,128,0,183147:0:0:0:0:
192,192,181628,1,0,0:0:0:0:
448,192,181913,1,0,0:0:0:0:
192,192,181913,1,0,0:0:0:0:
448,192,182198,1,0,0:0:0:0:
192,192,182198,1,0,0:0:0:0:
448,192,182482,1,0,0:0:0:0:
192,192,182482,1,0,0:0:0:0:
448,192,182767,1,0,0:0:0:0:
192,192,182767,1,0,0:0:0:0:
448,192,182862,1,0,0:0:0:0:
320,192,182862,1,0,0:0:0:0:
448,192,183147,1,0,0:0:0:0:
320,192,183147,1,0,0:0:0:0:
448,192,183527,1,0,0:0:0:0:
64,192,183527,1,0,0:0:0:0:
64,192,183906,1,0,0:0:0:0:
448,192,183906,1,0,0:0:0:0:
448,192,184286,1,0,0:0:0:0:
64,192,184286,1,0,0:0:0:0:
64,192,184666,1,0,0:0:0:0:
448,192,184666,1,0,0:0:0:0:
448,192,185046,1,0,0:0:0:0:
64,192,185046,1,0,0:0:0:0:
64,192,185425,1,0,0:0:0:0:
448,192,185425,1,0,0:0:0:0:
448,192,185805,1,0,0:0:0:0:
64,192,185805,1,0,0:0:0:0:
448,192,186185,1,0,0:0:0:0:
64,192,186185,128,0,186248:0:0:0:0:
448,192,186565,1,0,0:0:0:0:
64,192,186565,1,0,0:0:0:0:
64,192,186944,1,0,0:0:0:0:
448,192,186944,1,0,0:0:0:0:
448,192,187324,1,0,0:0:0:0:
64,192,187324,1,0,0:0:0:0:
64,192,187704,1,0,0:0:0:0:
448,192,187704,1,0,0:0:0:0:
448,192,188084,1,0,0:0:0:0:
64,192,188084,1,0,0:0:0:0:
64,192,188463,1,0,0:0:0:0:
448,192,188463,1,0,0:0:0:0:
448,192,188843,1,0,0:0:0:0:
64,192,188843,1,0,0:0:0:0:
320,192,189033,1,0,0:0:0:0:
448,192,189033,1,0,0:0:0:0:
64,192,189152,1,0,0:0:0:0:
320,192,189152,1,0,0:0:0:0:
192,192,189223,1,0,0:0:0:0:
64,192,189223,1,0,0:0:0:0:
448,192,189270,1,0,0:0:0:0:
320,192,189318,1,0,0:0:0:0:
192,192,189603,1,0,0:0:0:0:
64,192,189603,1,0,0:0:0:0:
448,192,189650,1,0,0:0:0:0:
320,192,189698,1,0,0:0:0:0:
320,192,189982,1,0,0:0:0:0:
64,192,189982,1,0,0:0:0:0:
448,192,190030,1,0,0:0:0:0:
192,192,190077,1,0,0:0:0:0:
320,192,190267,1,0,0:0:0:0:
64,192,190267,1,0,0:0:0:0:
448,192,190315,1,0,0:0:0:0:
192,192,190362,1,0,0:0:0:0:
320,192,190552,1,0,0:0:0:0:
64,192,190552,1,0,0:0:0:0:
448,192,190600,1,0,0:0:0:0:
192,192,190647,1,0,0:0:0:0:
192,192,190742,1,0,0:0:0:0:
448,192,190742,1,0,0:0:0:0:
64,192,190789,1,0,0:0:0:0:
320,192,190837,1,0,0:0:0:0:
448,192,191122,1,0,0:0:0:0:
192,192,191122,1,0,0:0:0:0:
64,192,191169,1,0,0:0:0:0:
320,192,191217,1,0,0:0:0:0:
448,192,191501,1,0,0:0:0:0:
192,192,191501,1,0,0:0:0:0:
64,192,191549,1,0,0:0:0:0:
320,192,191596,1,0,0:0:0:0:
448,192,191786,1,0,0:0:0:0:
320,192,191786,1,0,0:0:0:0:
64,192,191834,1,0,0:0:0:0:
192,192,191881,1,0,0:0:0:0:
448,192,192071,1,0,0:0:0:0:
320,192,192071,1,0,0:0:0:0:
64,192,192119,1,0,0:0:0:0:
192,192,192166,1,0,0:0:0:0:
320,192,192261,1,0,0:0:0:0:
448,192,192261,1,0,0:0:0:0:
64,192,192356,1,0,0:0:0:0:
448,192,192451,1,0,0:0:0:0:
448,192,192546,1,0,0:0:0:0:
192,192,192641,1,0,0:0:0:0:
64,192,192641,1,0,0:0:0:0:
448,192,192736,1,0,0:0:0:0:
320,192,192831,1,0,0:0:0:0:
320,192,192925,1,0,0:0:0:0:
192,192,193020,1,0,0:0:0:0:
64,192,193020,1,0,0:0:0:0:
320,192,193115,1,0,0:0:0:0:
192,192,193210,1,0,0:0:0:0:
192,192,193305,1,0,0:0:0:0:
448,192,193305,1,0,0:0:0:0:
320,192,193400,1,0,0:0:0:0:
448,192,193400,1,0,0:0:0:0:
192,192,193495,1,0,0:0:0:0:
64,192,193590,1,0,0:0:0:0:
320,192,193590,1,0,0:0:0:0:
64,192,193685,1,0,0:0:0:0:
192,192,193685,1,0,0:0:0:0:
320,192,193780,1,0,0:0:0:0:
448,192,193780,1,0,0:0:0:0:
192,192,193827,1,0,0:0:0:0:
64,192,193875,1,0,0:0:0:0:
320,192,193922,1,0,0:0:0:0:
192,192,193970,1,0,0:0:0:0:
448,192,194017,1,0,0:0:0:0:
64,192,194065,1,0,0:0:0:0:
192,192,194112,1,0,0:0:0:0:
320,192,194160,1,0,0:0:0:0:
448,192,194160,1,0,0:0:0:0:
64,192,194207,1,0,0:0:0:0:
192,192,194255,1,0,0:0:0:0:
448,192,194302,1,0,0:0:0:0:
320,192,194350,1,0,0:0:0:0:
64,192,194397,1,0,0:0:0:0:
448,192,194444,1,0,0:0:0:0:
320,192,194492,1,0,0:0:0:0:
64,192,194539,128,0,194729:0:0:0:0:
448,192,194729,128,0,194919:0:0:0:0:
320,192,194919,128,0,195109:0:0:0:0:
192,192,195109,128,0,195299:0:0:0:0:
320,192,195299,1,0,0:0:0:0:
448,192,195299,1,0,0:0:0:0:
64,192,195362,1,0,0:0:0:0:
320,192,195425,1,0,0:0:0:0:
448,192,195489,1,0,0:0:0:0:
320,192,195552,1,0,0:0:0:0:
192,192,195615,1,0,0:0:0:0:
320,192,195679,1,0,0:0:0:0:
448,192,195742,1,0,0:0:0:0:
320,192,195805,1,0,0:0:0:0:
64,192,195869,1,0,0:0:0:0:
192,192,195932,1,0,0:0:0:0:
448,192,195995,1,0,0:0:0:0:
320,192,196058,1,0,0:0:0:0:
192,192,196058,1,0,0:0:0:0:
64,192,196058,1,0,0:0:0:0:
320,192,196248,1,0,0:0:0:0:
192,192,196438,1,0,0:0:0:0:
64,192,196438,1,0,0:0:0:0:
448,192,196501,1,0,0:0:0:0:
192,192,196565,1,0,0:0:0:0:
64,192,196628,1,0,0:0:0:0:
192,192,196691,1,0,0:0:0:0:
320,192,196755,1,0,0:0:0:0:
192,192,196818,1,0,0:0:0:0:
64,192,196881,1,0,0:0:0:0:
192,192,196944,1,0,0:0:0:0:
448,192,197008,1,0,0:0:0:0:
320,192,197071,1,0,0:0:0:0:
64,192,197134,1,0,0:0:0:0:
448,192,197198,1,0,0:0:0:0:
192,192,197261,1,0,0:0:0:0:
64,192,197324,1,0,0:0:0:0:
448,192,197387,1,0,0:0:0:0:
320,192,197451,1,0,0:0:0:0:
192,192,197514,1,0,0:0:0:0:
320,192,197577,1,0,0:0:0:0:
448,192,197577,1,0,0:0:0:0:
64,192,197577,1,0,0:0:0:0:
192,192,197641,1,0,0:0:0:0:
64,192,197704,1,0,0:0:0:0:
448,192,197767,1,0,0:0:0:0:
320,192,197831,1,0,0:0:0:0:
448,192,197894,1,0,0:0:0:0:
192,192,197957,1,0,0:0:0:0:
448,192,198020,1,0,0:0:0:0:
64,192,198084,1,0,0:0:0:0:
320,192,198147,1,0,0:0:0:0:
192,192,198210,1,0,0:0:0:0:
64,192,198274,1,0,0:0:0:0:
448,192,198337,1,0,0:0:0:0:
320,192,198337,1,0,0:0:0:0:
192,192,198384,1,0,0:0:0:0:
448,192,198432,1,0,0:0:0:0:
64,192,198479,1,0,0:0:0:0:
448,192,198527,1,0,0:0:0:0:
192,192,198590,1,0,0:0:0:0:
448,192,198653,1,0,0:0:0:0:
64,192,198717,1,0,0:0:0:0:
448,192,198780,1,0,0:0:0:0:
192,192,198843,1,0,0:0:0:0:
320,192,198906,1,0,0:0:0:0:
64,192,198970,1,0,0:0:0:0:
448,192,199033,1,0,0:0:0:0:
320,192,199096,1,0,0:0:0:0:
64,192,199096,1,0,0:0:0:0:
192,192,199096,1,0,0:0:0:0:
320,192,199286,1,0,0:0:0:0:
192,192,199286,1,0,0:0:0:0:
192,192,199476,1,0,0:0:0:0:
64,192,199476,1,0,0:0:0:0:
448,192,199524,1,0,0:0:0:0:
64,192,199571,1,0,0:0:0:0:
320,192,199619,1,0,0:0:0:0:
64,192,199666,1,0,0:0:0:0:
448,192,199713,1,0,0:0:0:0:
192,192,199761,1,0,0:0:0:0:
320,192,199808,1,0,0:0:0:0:
448,192,199856,1,0,0:0:0:0:
64,192,199919,1,0,0:0:0:0:
192,192,199982,1,0,0:0:0:0:
320,192,200046,1,0,0:0:0:0:
64,192,200109,1,0,0:0:0:0:
448,192,200172,1,0,0:0:0:0:
192,192,200236,1,0,0:0:0:0:
320,192,200299,1,0,0:0:0:0:
192,192,200362,1,0,0:0:0:0:
64,192,200425,1,0,0:0:0:0:
320,192,200489,1,0,0:0:0:0:
192,192,200552,1,0,0:0:0:0:
320,192,200615,1,0,0:0:0:0:
448,192,200615,1,0,0:0:0:0:
64,192,200615,1,0,0:0:0:0:
64,192,200710,1,0,0:0:0:0:
192,192,200805,1,0,0:0:0:0:
320,192,200900,1,0,0:0:0:0:
448,192,200900,1,0,0:0:0:0:
64,192,200900,1,0,0:0:0:0:
448,192,200995,1,0,0:0:0:0:
320,192,201090,1,0,0:0:0:0:
192,192,201185,1,0,0:0:0:0:
64,192,201185,1,0,0:0:0:0:
448,192,201185,1,0,0:0:0:0:
192,192,201280,1,0,0:0:0:0:
320,192,201375,1,0,0:0:0:0:
448,192,201375,1,0,0:0:0:0:
64,192,201438,1,0,0:0:0:0:
320,192,201501,1,0,0:0:0:0:
448,192,201565,1,0,0:0:0:0:
320,192,201628,1,0,0:0:0:0:
192,192,201691,1,0,0:0:0:0:
320,192,201755,1,0,0:0:0:0:
448,192,201818,1,0,0:0:0:0:
320,192,201881,1,0,0:0:0:0:
64,192,201944,1,0,0:0:0:0:
192,192,202008,1,0,0:0:0:0:
448,192,202071,1,0,0:0:0:0:
320,192,202134,1,0,0:0:0:0:
192,192,202134,1,0,0:0:0:0:
64,192,202134,1,0,0:0:0:0:
320,192,202324,1,0,0:0:0:0:
192,192,202514,1,0,0:0:0:0:
64,192,202514,1,0,0:0:0:0:
448,192,202577,1,0,0:0:0:0:
192,192,202641,1,0,0:0:0:0:
64,192,202704,1,0,0:0:0:0:
192,192,202767,1,0,0:0:0:0:
320,192,202831,1,0,0:0:0:0:
192,192,202894,1,0,0:0:0:0:
64,192,202957,1,0,0:0:0:0:
192,192,203020,1,0,0:0:0:0:
448,192,203084,1,0,0:0:0:0:
320,192,203147,1,0,0:0:0:0:
64,192,203210,1,0,0:0:0:0:
448,192,203274,1,0,0:0:0:0:
192,192,203337,1,0,0:0:0:0:
64,192,203400,1,0,0:0:0:0:
448,192,203463,1,0,0:0:0:0:
320,192,203527,1,0,0:0:0:0:
192,192,203590,1,0,0:0:0:0:
320,192,203653,1,0,0:0:0:0:
448,192,203653,1,0,0:0:0:0:
64,192,203653,1,0,0:0:0:0:
192,192,203717,1,0,0:0:0:0:
64,192,203780,1,0,0:0:0:0:
320,192,203843,1,0,0:0:0:0:
192,192,203906,1,0,0:0:0:0:
64,192,203970,1,0,0:0:0:0:
448,192,204033,1,0,0:0:0:0:
320,192,204096,1,0,0:0:0:0:
448,192,204160,1,0,0:0:0:0:
192,192,204223,1,0,0:0:0:0:
320,192,204286,1,0,0:0:0:0:
448,192,204350,1,0,0:0:0:0:
192,192,204413,1,0,0:0:0:0:
64,192,204413,1,0,0:0:0:0:
320,192,204460,1,0,0:0:0:0:
64,192,204508,1,0,0:0:0:0:
448,192,204555,1,0,0:0:0:0:
64,192,204603,1,0,0:0:0:0:
320,192,204650,1,0,0:0:0:0:
192,192,204698,1,0,0:0:0:0:
448,192,204745,1,0,0:0:0:0:
64,192,204793,1,0,0:0:0:0:
192,192,204856,1,0,0:0:0:0:
320,192,204919,1,0,0:0:0:0:
448,192,204982,1,0,0:0:0:0:
64,192,205030,1,0,0:0:0:0:
448,192,205077,1,0,0:0:0:0:
192,192,205125,1,0,0:0:0:0:
448,192,205172,1,0,0:0:0:0:
320,192,205172,1,0,0:0:0:0:
64,192,205172,1,0,0:0:0:0:
64,192,205267,1,0,0:0:0:0:
320,192,205362,1,0,0:0:0:0:
448,192,205362,1,0,0:0:0:0:
320,192,205457,1,0,0:0:0:0:
192,192,205552,1,0,0:0:0:0:
64,192,205552,1,0,0:0:0:0:
448,192,205600,1,0,0:0:0:0:
192,192,205647,1,0,0:0:0:0:
320,192,205694,1,0,0:0:0:0:
192,192,205742,1,0,0:0:0:0:
448,192,205805,1,0,0:0:0:0:
192,192,205869,1,0,0:0:0:0:
320,192,205932,1,0,0:0:0:0:
448,192,205995,1,0,0:0:0:0:
64,192,206058,1,0,0:0:0:0:
320,192,206122,1,0,0:0:0:0:
192,192,206185,1,0,0:0:0:0:
64,192,206248,1,0,0:0:0:0:
320,192,206312,1,0,0:0:0:0:
448,192,206312,1,0,0:0:0:0:
192,192,206375,1,0,0:0:0:0:
64,192,206438,1,0,0:0:0:0:
448,192,206501,1,0,0:0:0:0:
448,192,206596,1,0,0:0:0:0:
192,192,206596,1,0,0:0:0:0:
320,192,206691,1,0,0:0:0:0:
192,192,206691,1,0,0:0:0:0:
64,192,206691,1,0,0:0:0:0:
320,192,206786,1,0,0:0:0:0:
448,192,206834,1,0,0:0:0:0:
64,192,206881,1,0,0:0:0:0:
64,192,206976,1,0,0:0:0:0:
192,192,207024,1,0,0:0:0:0:
448,192,207071,1,0,0:0:0:0:
448,192,207166,1,0,0:0:0:0:
320,192,207166,1,0,0:0:0:0:
192,192,207261,1,0,0:0:0:0:
64,192,207324,1,0,0:0:0:0:
192,192,207387,1,0,0:0:0:0:
320,192,207451,1,0,0:0:0:0:
448,192,207451,1,0,0:0:0:0:
64,192,207514,1,0,0:0:0:0:
320,192,207577,1,0,0:0:0:0:
448,192,207641,1,0,0:0:0:0:
320,192,207704,1,0,0:0:0:0:
192,192,207767,1,0,0:0:0:0:
320,192,207831,1,0,0:0:0:0:
448,192,207894,1,0,0:0:0:0:
320,192,207957,1,0,0:0:0:0:
64,192,208020,1,0,0:0:0:0:
192,192,208084,1,0,0:0:0:0:
448,192,208147,1,0,0:0:0:0:
320,192,208210,1,0,0:0:0:0:
192,192,208210,1,0,0:0:0:0:
64,192,208210,1,0,0:0:0:0:
320,192,208400,1,0,0:0:0:0:
192,192,208590,1,0,0:0:0:0:
64,192,208590,1,0,0:0:0:0:
448,192,208653,1,0,0:0:0:0:
192,192,208717,1,0,0:0:0:0:
64,192,208780,1,0,0:0:0:0:
192,192,208843,1,0,0:0:0:0:
320,192,208906,1,0,0:0:0:0:
192,192,208970,1,0,0:0:0:0:
64,192,209033,1,0,0:0:0:0:
192,192,209096,1,0,0:0:0:0:
448,192,209160,1,0,0:0:0:0:
320,192,209223,1,0,0:0:0:0:
64,192,209286,1,0,0:0:0:0:
448,192,209350,1,0,0:0:0:0:
192,192,209413,1,0,0:0:0:0:
64,192,209476,1,0,0:0:0:0:
448,192,209539,1,0,0:0:0:0:
320,192,209603,1,0,0:0:0:0:
192,192,209666,1,0,0:0:0:0:
320,192,209729,1,0,0:0:0:0:
448,192,209729,1,0,0:0:0:0:
64,192,209729,1,0,0:0:0:0:
192,192,209793,1,0,0:0:0:0:
64,192,209856,1,0,0:0:0:0:
448,192,209919,1,0,0:0:0:0:
320,192,209982,1,0,0:0:0:0:
448,192,210046,1,0,0:0:0:0:
192,192,210109,1,0,0:0:0:0:
448,192,210172,1,0,0:0:0:0:
64,192,210236,1,0,0:0:0:0:
320,192,210299,1,0,0:0:0:0:
192,192,210362,1,0,0:0:0:0:
64,192,210425,1,0,0:0:0:0:
448,192,210489,1,0,0:0:0:0:
320,192,210489,1,0,0:0:0:0:
192,192,210536,1,0,0:0:0:0:
448,192,210584,1,0,0:0:0:0:
64,192,210631,1,0,0:0:0:0:
448,192,210679,1,0,0:0:0:0:
192,192,210742,1,0,0:0:0:0:
448,192,210805,1,0,0:0:0:0:
64,192,210869,1,0,0:0:0:0:
448,192,210932,1,0,0:0:0:0:
192,192,210995,1,0,0:0:0:0:
320,192,211058,1,0,0:0:0:0:
64,192,211122,1,0,0:0:0:0:
448,192,211185,1,0,0:0:0:0:
320,192,211248,1,0,0:0:0:0:
64,192,211248,1,0,0:0:0:0:
192,192,211248,1,0,0:0:0:0:
320,192,211438,1,0,0:0:0:0:
192,192,211438,1,0,0:0:0:0:
192,192,211628,1,0,0:0:0:0:
64,192,211628,1,0,0:0:0:0:
448,192,211675,1,0,0:0:0:0:
64,192,211723,1,0,0:0:0:0:
320,192,211770,1,0,0:0:0:0:
64,192,211818,1,0,0:0:0:0:
448,192,211865,1,0,0:0:0:0:
192,192,211913,1,0,0:0:0:0:
320,192,211960,1,0,0:0:0:0:
448,192,212008,1,0,0:0:0:0:
64,192,212071,1,0,0:0:0:0:
192,192,212134,1,0,0:0:0:0:
320,192,212198,1,0,0:0:0:0:
64,192,212261,1,0,0:0:0:0:
448,192,212324,1,0,0:0:0:0:
192,192,212387,1,0,0:0:0:0:
320,192,212451,1,0,0:0:0:0:
192,192,212514,1,0,0:0:0:0:
64,192,212577,1,0,0:0:0:0:
320,192,212641,1,0,0:0:0:0:
192,192,212704,1,0,0:0:0:0:
320,192,212767,1,0,0:0:0:0:
448,192,212767,1,0,0:0:0:0:
64,192,212767,1,0,0:0:0:0:
64,192,212862,1,0,0:0:0:0:
192,192,212957,1,0,0:0:0:0:
320,192,213052,1,0,0:0:0:0:
448,192,213052,1,0,0:0:0:0:
64,192,213052,1,0,0:0:0:0:
448,192,213147,1,0,0:0:0:0:
320,192,213242,1,0,0:0:0:0:
192,192,213337,1,0,0:0:0:0:
64,192,213337,1,0,0:0:0:0:
448,192,213337,1,0,0:0:0:0:
192,192,213432,1,0,0:0:0:0:
320,192,213527,1,0,0:0:0:0:
448,192,213527,1,0,0:0:0:0:
64,192,213590,1,0,0:0:0:0:
320,192,213653,1,0,0:0:0:0:
448,192,213717,1,0,0:0:0:0:
320,192,213780,1,0,0:0:0:0:
192,192,213843,1,0,0:0:0:0:
320,192,213906,1,0,0:0:0:0:
448,192,213970,1,0,0:0:0:0:
320,192,214033,1,0,0:0:0:0:
64,192,214096,1,0,0:0:0:0:
192,192,214160,1,0,0:0:0:0:
448,192,214223,1,0,0:0:0:0:
320,192,214286,1,0,0:0:0:0:
192,192,214286,1,0,0:0:0:0:
64,192,214286,1,0,0:0:0:0:
320,192,214476,1,0,0:0:0:0:
192,192,214666,1,0,0:0:0:0:
64,192,214666,1,0,0:0:0:0:
448,192,214729,1,0,0:0:0:0:
192,192,214793,1,0,0:0:0:0:
64,192,214856,1,0,0:0:0:0:
192,192,214919,1,0,0:0:0:0:
320,192,214982,1,0,0:0:0:0:
192,192,215046,1,0,0:0:0:0:
64,192,215109,1,0,0:0:0:0:
192,192,215172,1,0,0:0:0:0:
448,192,215236,1,0,0:0:0:0:
320,192,215299,1,0,0:0:0:0:
64,192,215362,1,0,0:0:0:0:
448,192,215425,1,0,0:0:0:0:
192,192,215489,1,0,0:0:0:0:
64,192,215552,1,0,0:0:0:0:
448,192,215615,1,0,0:0:0:0:
320,192,215679,1,0,0:0:0:0:
192,192,215742,1,0,0:0:0:0:
320,192,215805,1,0,0:0:0:0:
448,192,215805,1,0,0:0:0:0:
64,192,215805,1,0,0:0:0:0:
192,192,215869,1,0,0:0:0:0:
64,192,215932,1,0,0:0:0:0:
320,192,215995,1,0,0:0:0:0:
192,192,216058,1,0,0:0:0:0:
64,192,216122,1,0,0:0:0:0:
448,192,216185,1,0,0:0:0:0:
320,192,216248,1,0,0:0:0:0:
448,192,216312,1,0,0:0:0:0:
64,192,216375,1,0,0:0:0:0:
192,192,216438,1,0,0:0:0:0:
64,192,216501,1,0,0:0:0:0:
448,192,216565,1,0,0:0:0:0:
320,192,216565,1,0,0:0:0:0:
192,192,216612,1,0,0:0:0:0:
448,192,216660,1,0,0:0:0:0:
64,192,216707,1,0,0:0:0:0:
448,192,216755,1,0,0:0:0:0:
192,192,216818,1,0,0:0:0:0:
448,192,216881,1,0,0:0:0:0:
64,192,216944,1,0,0:0:0:0:
448,192,217008,1,0,0:0:0:0:
192,192,217071,1,0,0:0:0:0:
320,192,217134,1,0,0:0:0:0:
64,192,217198,1,0,0:0:0:0:
448,192,217261,1,0,0:0:0:0:
320,192,217324,1,0,0:0:0:0:
64,192,217324,1,0,0:0:0:0:
192,192,217324,1,0,0:0:0:0:
320,192,217514,1,0,0:0:0:0:
192,192,217514,1,0,0:0:0:0:
192,192,217704,1,0,0:0:0:0:
64,192,217704,1,0,0:0:0:0:
448,192,217751,1,0,0:0:0:0:
192,192,217799,1,0,0:0:0:0:
320,192,217846,1,0,0:0:0:0:
192,192,217894,1,0,0:0:0:0:
448,192,217957,1,0,0:0:0:0:
192,192,218020,1,0,0:0:0:0:
320,192,218084,1,0,0:0:0:0:
192,192,218147,1,0,0:0:0:0:
448,192,218210,1,0,0:0:0:0:
320,192,218274,1,0,0:0:0:0:
64,192,218337,1,0,0:0:0:0:
192,192,218400,1,0,0:0:0:0:
448,192,218463,5,0,0:0:0:0:
320,192,218527,1,0,0:0:0:0:
192,192,218590,1,0,0:0:0:0:
64,192,218653,1,0,0:0:0:0:
320,192,218717,1,0,0:0:0:0:
64,192,218780,1,0,0:0:0:0:
448,192,218843,1,0,0:0:0:0:
320,192,218906,1,0,0:0:0:0:
448,192,218970,1,0,0:0:0:0:
64,192,219033,128,0,219508:0:0:0:0:
192,192,219096,1,0,0:0:0:0:
320,192,219160,1,0,0:0:0:0:
448,192,219223,1,0,0:0:0:0:
192,192,219318,1,0,0:0:0:0:
320,192,219413,1,0,0:0:0:0:
448,192,219508,1,0,0:0:0:0:
320,192,219603,5,0,0:0:0:0:
192,192,219603,1,0,0:0:0:0:
64,192,219603,1,0,0:0:0:0:
320,192,219698,1,0,0:0:0:0:
448,192,219698,1,0,0:0:0:0:
448,192,219887,1,0,0:0:0:0:
320,192,219887,1,0,0:0:0:0:
320,192,219982,1,0,0:0:0:0:
192,192,219982,1,0,0:0:0:0:
64,192,219982,1,0,0:0:0:0:
448,192,220172,1,0,0:0:0:0:
192,192,220267,1,0,0:0:0:0:
320,192,220362,1,0,0:0:0:0:
64,192,220362,1,0,0:0:0:0:
320,192,220457,1,0,0:0:0:0:
448,192,220457,1,0,0:0:0:0:
320,192,220647,1,0,0:0:0:0:
448,192,220647,1,0,0:0:0:0:
320,192,220742,1,0,0:0:0:0:
192,192,220742,1,0,0:0:0:0:
64,192,220742,1,0,0:0:0:0:
64,192,220932,1,0,0:0:0:0:
320,192,221027,1,0,0:0:0:0:
192,192,221122,1,0,0:0:0:0:
448,192,221122,1,0,0:0:0:0:
192,192,221217,1,0,0:0:0:0:
64,192,221217,1,0,0:0:0:0:
192,192,221406,1,0,0:0:0:0:
64,192,221406,1,0,0:0:0:0:
320,192,221501,1,0,0:0:0:0:
448,192,221501,1,0,0:0:0:0:
192,192,221501,1,0,0:0:0:0:
320,192,221691,1,0,0:0:0:0:
448,192,221881,1,0,0:0:0:0:
192,192,221881,1,0,0:0:0:0:
192,192,221976,1,0,0:0:0:0:
64,192,221976,1,0,0:0:0:0:
64,192,222166,1,0,0:0:0:0:
192,192,222166,1,0,0:0:0:0:
192,192,222261,1,0,0:0:0:0:
320,192,222261,1,0,0:0:0:0:
448,192,222261,1,0,0:0:0:0:
64,192,222451,1,0,0:0:0:0:
320,192,222546,1,0,0:0:0:0:
448,192,222641,1,0,0:0:0:0:
192,192,222641,1,0,0:0:0:0:
64,192,222641,1,0,0:0:0:0:
320,192,222736,1,0,0:0:0:0:
448,192,222736,1,0,0:0:0:0:
320,192,222925,1,0,0:0:0:0:
448,192,222925,1,0,0:0:0:0:
448,192,223020,1,0,0:0:0:0:
192,192,223020,1,0,0:0:0:0:
64,192,223020,1,0,0:0:0:0:
320,192,223210,1,0,0:0:0:0:
448,192,223400,1,0,0:0:0:0:
192,192,223400,1,0,0:0:0:0:
448,192,223495,1,0,0:0:0:0:
320,192,223495,1,0,0:0:0:0:
320,192,223685,1,0,0:0:0:0:
448,192,223685,1,0,0:0:0:0:
448,192,223780,1,0,0:0:0:0:
192,192,223780,1,0,0:0:0:0:
64,192,223780,1,0,0:0:0:0:
320,192,223970,1,0,0:0:0:0:
64,192,224160,1,0,0:0:0:0:
320,192,224160,1,0,0:0:0:0:
448,192,224160,1,0,0:0:0:0:
192,192,224223,1,0,0:0:0:0:
448,192,224286,1,0,0:0:0:0:
192,192,224350,1,0,0:0:0:0:
192,192,224539,1,0,0:0:0:0:
64,192,224539,1,0,0:0:0:0:
448,192,224539,1,0,0:0:0:0:
320,192,224603,1,0,0:0:0:0:
64,192,224666,1,0,0:0:0:0:
320,192,224729,1,0,0:0:0:0:
192,192,224824,1,0,0:0:0:0:
320,192,224919,1,0,0:0:0:0:
448,192,224919,1,0,0:0:0:0:
64,192,224919,1,0,0:0:0:0:
192,192,225014,1,0,0:0:0:0:
64,192,225014,1,0,0:0:0:0:
448,192,225204,1,0,0:0:0:0:
64,192,225204,1,0,0:0:0:0:
320,192,225204,1,0,0:0:0:0:
64,192,225299,1,0,0:0:0:0:
192,192,225299,1,0,0:0:0:0:
448,192,225489,1,0,0:0:0:0:
64,192,225607,1,0,0:0:0:0:
192,192,225607,1,0,0:0:0:0:
320,192,225679,1,0,0:0:0:0:
192,192,225679,1,0,0:0:0:0:
64,192,225679,1,0,0:0:0:0:
320,192,225774,1,0,0:0:0:0:
448,192,225774,1,0,0:0:0:0:
448,192,225963,1,0,0:0:0:0:
320,192,225963,1,0,0:0:0:0:
320,192,226058,1,0,0:0:0:0:
192,192,226058,1,0,0:0:0:0:
64,192,226058,1,0,0:0:0:0:
448,192,226248,1,0,0:0:0:0:
192,192,226343,1,0,0:0:0:0:
320,192,226438,1,0,0:0:0:0:
64,192,226438,1,0,0:0:0:0:
320,192,226533,1,0,0:0:0:0:
448,192,226533,1,0,0:0:0:0:
320,192,226723,1,0,0:0:0:0:
448,192,226723,1,0,0:0:0:0:
320,192,226818,1,0,0:0:0:0:
192,192,226818,1,0,0:0:0:0:
64,192,226818,1,0,0:0:0:0:
64,192,227008,1,0,0:0:0:0:
320,192,227103,1,0,0:0:0:0:
192,192,227198,1,0,0:0:0:0:
448,192,227198,1,0,0:0:0:0:
192,192,227293,1,0,0:0:0:0:
64,192,227293,1,0,0:0:0:0:
192,192,227482,1,0,0:0:0:0:
64,192,227482,1,0,0:0:0:0:
320,192,227577,1,0,0:0:0:0:
448,192,227577,1,0,0:0:0:0:
192,192,227577,1,0,0:0:0:0:
64,192,227767,1,0,0:0:0:0:
448,192,227957,1,0,0:0:0:0:
192,192,227957,1,0,0:0:0:0:
448,192,228052,1,0,0:0:0:0:
320,192,228052,1,0,0:0:0:0:
64,192,228147,1,0,0:0:0:0:
320,192,228242,1,0,0:0:0:0:
448,192,228242,1,0,0:0:0:0:
448,192,228337,1,0,0:0:0:0:
192,192,228337,1,0,0:0:0:0:
64,192,228337,1,0,0:0:0:0:
192,192,228527,1,0,0:0:0:0:
64,192,228717,1,0,0:0:0:0:
320,192,228717,1,0,0:0:0:0:
448,192,228717,1,0,0:0:0:0:
192,192,228780,1,0,0:0:0:0:
320,192,228843,1,0,0:0:0:0:
448,192,228906,1,0,0:0:0:0:
192,192,228970,1,0,0:0:0:0:
320,192,229033,1,0,0:0:0:0:
448,192,229096,1,0,0:0:0:0:
64,192,229096,1,0,0:0:0:0:
192,192,229160,1,0,0:0:0:0:
320,192,229223,1,0,0:0:0:0:
448,192,229286,1,0,0:0:0:0:
192,192,229381,1,0,0:0:0:0:
320,192,229476,1,0,0:0:0:0:
448,192,229476,1,0,0:0:0:0:
64,192,229476,1,0,0:0:0:0:
192,192,229539,1,0,0:0:0:0:
320,192,229603,1,0,0:0:0:0:
64,192,229666,1,0,0:0:0:0:
192,192,229729,1,0,0:0:0:0:
320,192,229793,1,0,0:0:0:0:
448,192,229856,1,0,0:0:0:0:
64,192,229856,1,0,0:0:0:0:
448,192,229951,1,0,0:0:0:0:
64,192,230046,1,0,0:0:0:0:
320,192,230093,1,0,0:0:0:0:
192,192,230141,1,0,0:0:0:0:
320,192,230188,1,0,0:0:0:0:
64,192,230236,128,0,230425:0:0:0:0:
192,192,230236,128,0,230425:0:0:0:0:
448,192,230236,128,0,230425:0:0:0:0:
448,192,230520,128,0,230710:0:0:0:0:
320,192,230520,128,0,230710:0:0:0:0:
64,192,230520,128,0,230710:0:0:0:0:
192,192,230805,128,0,230995:0:0:0:0:
320,192,230805,128,0,230995:0:0:0:0:
448,192,230805,128,0,230995:0:0:0:0:
320,192,231090,128,0,231280:0:0:0:0:
192,192,231090,128,0,231280:0:0:0:0:
64,192,231090,128,0,231280:0:0:0:0:
448,192,231375,1,0,0:0:0:0:
64,192,231375,1,0,0:0:0:0:
320,192,231565,128,0,231660:0:0:0:0:
192,192,231565,128,0,231660:0:0:0:0:
64,192,231565,128,0,231660:0:0:0:0:
320,192,231755,1,0,0:0:0:0:
192,192,231755,1,0,0:0:0:0:
64,192,231755,1,0,0:0:0:0:
320,192,231850,1,0,0:0:0:0:
448,192,231850,1,0,0:0:0:0:
448,192,232039,1,0,0:0:0:0:
320,192,232039,1,0,0:0:0:0:
320,192,232134,1,0,0:0:0:0:
192,192,232134,1,0,0:0:0:0:
64,192,232134,1,0,0:0:0:0:
448,192,232324,1,0,0:0:0:0:
192,192,232419,1,0,0:0:0:0:
320,192,232514,1,0,0:0:0:0:
64,192,232514,1,0,0:0:0:0:
320,192,232609,1,0,0:0:0:0:
448,192,232609,1,0,0:0:0:0:
320,192,232799,1,0,0:0:0:0:
448,192,232799,1,0,0:0:0:0:
320,192,232894,1,0,0:0:0:0:
192,192,232894,1,0,0:0:0:0:
64,192,232894,1,0,0:0:0:0:
64,192,233084,1,0,0:0:0:0:
320,192,233179,1,0,0:0:0:0:
192,192,233274,1,0,0:0:0:0:
448,192,233274,1,0,0:0:0:0:
192,192,233369,1,0,0:0:0:0:
64,192,233369,1,0,0:0:0:0:
192,192,233558,1,0,0:0:0:0:
64,192,233558,1,0,0:0:0:0:
320,192,233653,1,0,0:0:0:0:
448,192,233653,1,0,0:0:0:0:
192,192,233653,1,0,0:0:0:0:
320,192,233843,1,0,0:0:0:0:
448,192,234033,1,0,0:0:0:0:
192,192,234033,1,0,0:0:0:0:
320,192,234033,1,0,0:0:0:0:
192,192,234128,1,0,0:0:0:0:
64,192,234128,1,0,0:0:0:0:
192,192,234318,1,0,0:0:0:0:
320,192,234318,1,0,0:0:0:0:
448,192,234318,1,0,0:0:0:0:
192,192,234413,1,0,0:0:0:0:
64,192,234413,1,0,0:0:0:0:
192,192,234603,1,0,0:0:0:0:
448,192,234603,1,0,0:0:0:0:
320,192,234603,1,0,0:0:0:0:
448,192,234793,1,0,0:0:0:0:
64,192,234793,1,0,0:0:0:0:
320,192,234887,1,0,0:0:0:0:
448,192,234887,1,0,0:0:0:0:
320,192,235077,1,0,0:0:0:0:
448,192,235077,1,0,0:0:0:0:
448,192,235172,1,0,0:0:0:0:
192,192,235172,1,0,0:0:0:0:
64,192,235172,1,0,0:0:0:0:
320,192,235362,1,0,0:0:0:0:
448,192,235552,1,0,0:0:0:0:
192,192,235552,1,0,0:0:0:0:
448,192,235647,1,0,0:0:0:0:
320,192,235647,1,0,0:0:0:0:
320,192,235837,1,0,0:0:0:0:
448,192,235837,1,0,0:0:0:0:
448,192,235932,1,0,0:0:0:0:
192,192,235932,1,0,0:0:0:0:
64,192,235932,1,0,0:0:0:0:
192,192,236122,1,0,0:0:0:0:
64,192,236312,1,0,0:0:0:0:
320,192,236312,1,0,0:0:0:0:
448,192,236312,1,0,0:0:0:0:
192,192,236375,1,0,0:0:0:0:
448,192,236438,1,0,0:0:0:0:
192,192,236501,1,0,0:0:0:0:
192,192,236691,1,0,0:0:0:0:
64,192,236691,1,0,0:0:0:0:
448,192,236691,1,0,0:0:0:0:
320,192,236755,1,0,0:0:0:0:
64,192,236818,1,0,0:0:0:0:
320,192,236881,1,0,0:0:0:0:
192,192,236976,1,0,0:0:0:0:
320,192,237071,1,0,0:0:0:0:
448,192,237071,1,0,0:0:0:0:
64,192,237071,1,0,0:0:0:0:
192,192,237166,1,0,0:0:0:0:
64,192,237166,1,0,0:0:0:0:
448,192,237356,1,0,0:0:0:0:
64,192,237356,1,0,0:0:0:0:
320,192,237356,1,0,0:0:0:0:
64,192,237451,1,0,0:0:0:0:
192,192,237451,1,0,0:0:0:0:
64,192,237641,1,0,0:0:0:0:
320,192,237641,1,0,0:0:0:0:
448,192,237641,1,0,0:0:0:0:
320,192,237831,1,0,0:0:0:0:
192,192,237831,1,0,0:0:0:0:
64,192,237831,1,0,0:0:0:0:
320,192,237925,1,0,0:0:0:0:
448,192,237925,1,0,0:0:0:0:
448,192,238115,1,0,0:0:0:0:
320,192,238115,1,0,0:0:0:0:
320,192,238210,1,0,0:0:0:0:
192,192,238210,1,0,0:0:0:0:
64,192,238210,1,0,0:0:0:0:
448,192,238400,1,0,0:0:0:0:
192,192,238495,1,0,0:0:0:0:
320,192,238590,1,0,0:0:0:0:
64,192,238590,1,0,0:0:0:0:
320,192,238685,1,0,0:0:0:0:
448,192,238685,1,0,0:0:0:0:
320,192,238875,1,0,0:0:0:0:
448,192,238875,1,0,0:0:0:0:
320,192,238970,1,0,0:0:0:0:
192,192,238970,1,0,0:0:0:0:
64,192,238970,1,0,0:0:0:0:
64,192,239160,1,0,0:0:0:0:
320,192,239255,1,0,0:0:0:0:
192,192,239350,1,0,0:0:0:0:
448,192,239350,1,0,0:0:0:0:
192,192,239444,1,0,0:0:0:0:
64,192,239444,1,0,0:0:0:0:
192,192,239634,1,0,0:0:0:0:
64,192,239634,1,0,0:0:0:0:
320,192,239729,1,0,0:0:0:0:
448,192,239729,1,0,0:0:0:0:
192,192,239729,1,0,0:0:0:0:
320,192,239919,1,0,0:0:0:0:
448,192,240109,1,0,0:0:0:0:
192,192,240109,1,0,0:0:0:0:
448,192,240204,1,0,0:0:0:0:
320,192,240204,1,0,0:0:0:0:
64,192,240299,1,0,0:0:0:0:
320,192,240394,1,0,0:0:0:0:
448,192,240394,1,0,0:0:0:0:
448,192,240489,1,0,0:0:0:0:
192,192,240489,1,0,0:0:0:0:
64,192,240489,1,0,0:0:0:0:
192,192,240679,1,0,0:0:0:0:
64,192,240869,1,0,0:0:0:0:
320,192,240869,1,0,0:0:0:0:
448,192,240869,1,0,0:0:0:0:
192,192,240932,1,0,0:0:0:0:
320,192,240995,1,0,0:0:0:0:
448,192,241058,1,0,0:0:0:0:
192,192,241122,1,0,0:0:0:0:
320,192,241185,1,0,0:0:0:0:
448,192,241248,1,0,0:0:0:0:
64,192,241248,1,0,0:0:0:0:
192,192,241312,1,0,0:0:0:0:
320,192,241375,1,0,0:0:0:0:
448,192,241438,1,0,0:0:0:0:
192,192,241533,1,0,0:0:0:0:
320,192,241628,1,0,0:0:0:0:
448,192,241628,1,0,0:0:0:0:
64,192,241628,1,0,0:0:0:0:
192,192,241691,1,0,0:0:0:0:
320,192,241755,1,0,0:0:0:0:
64,192,241818,1,0,0:0:0:0:
192,192,241881,1,0,0:0:0:0:
320,192,241944,1,0,0:0:0:0:
448,192,242008,1,0,0:0:0:0:
64,192,242008,1,0,0:0:0:0:
448,192,242126,1,0,0:0:0:0:
64,192,242198,1,0,0:0:0:0:
320,192,242198,1,0,0:0:0:0:
192,192,242316,1,0,0:0:0:0:
64,192,242316,1,0,0:0:0:0:
192,192,242577,128,0,242767:0:0:0:0:
64,192,242577,128,0,242767:0:0:0:0:
448,192,242577,128,0,242767:0:0:0:0:
448,192,242862,128,0,243052:0:0:0:0:
320,192,242862,128,0,243052:0:0:0:0:
64,192,242862,128,0,243052:0:0:0:0:
320,192,243147,128,0,243242:0:0:0:0:
192,192,243147,128,0,243242:0:0:0:0:
448,192,243147,128,0,243242:0:0:0:0:
192,192,243337,1,0,0:0:0:0:
320,192,243384,1,0,0:0:0:0:
192,192,243432,128,0,243527:0:0:0:0:
64,192,243432,128,0,243527:0:0:0:0:
448,192,243432,128,0,243527:0:0:0:0:
320,192,243622,1,0,0:0:0:0:
448,192,243622,1,0,0:0:0:0:
64,192,243622,1,0,0:0:0:0:
192,192,243717,128,0,243812:0:0:0:0:
64,192,243717,128,0,243812:0:0:0:0:
64,192,243906,1,0,0:0:0:0:
320,192,243906,1,0,0:0:0:0:
448,192,243906,128,0,244951:0:0:0:0:
192,192,244096,128,0,244286:0:0:0:0:
320,192,244286,128,0,244476:0:0:0:0:
64,192,244476,128,0,244666:0:0:0:0:
192,192,244666,128,0,245046:0:0:0:0:
448,192,245046,128,0,245425:0:0:0:0:
192,192,245236,128,0,245425:0:0:0:0:
320,192,245425,128,0,245615:0:0:0:0:
64,192,245615,128,0,245805:0:0:0:0:
192,192,245805,128,0,246185:0:0:0:0:
448,192,246185,128,0,246375:0:0:0:0:
192,192,246375,128,0,246565:0:0:0:0:
320,192,246565,128,0,246755:0:0:0:0:
64,192,246755,128,0,246944:0:0:0:0:
448,192,246944,128,0,247134:0:0:0:0:
192,192,247134,128,0,247324:0:0:0:0:
320,192,247324,128,0,247514:0:0:0:0:
192,192,247514,128,0,247704:0:0:0:0:
64,192,247704,128,0,248084:0:0:0:0:
448,192,248084,128,0,248274:0:0:0:0:
192,192,248274,128,0,248463:0:0:0:0:
320,192,248463,128,0,248653:0:0:0:0:
192,192,248653,128,0,248843:0:0:0:0:
64,192,248843,128,0,249223:0:0:0:0:
448,192,249223,128,0,249413:0:0:0:0:
192,192,249413,128,0,249603:0:0:0:0:
320,192,249603,128,0,249793:0:0:0:0:
192,192,249793,128,0,249982:0:0:0:0:
448,192,249982,128,0,250172:0:0:0:0:
192,192,250172,128,0,250362:0:0:0:0:
320,192,250362,128,0,250552:0:0:0:0:
64,192,250552,128,0,250742:0:0:0:0:
192,192,250742,128,0,251122:0:0:0:0:
448,192,251122,128,0,251312:0:0:0:0:
192,192,251312,128,0,251501:0:0:0:0:
320,192,251501,128,0,251691:0:0:0:0:
64,192,251691,128,0,251881:0:0:0:0:
192,192,251881,128,0,252261:0:0:0:0:
448,192,252261,128,0,252451:0:0:0:0:
192,192,252451,128,0,252641:0:0:0:0:
320,192,252641,128,0,252831:0:0:0:0:
64,192,252831,128,0,253020:0:0:0:0:
448,192,253020,128,0,253210:0:0:0:0:
192,192,253210,128,0,253400:0:0:0:0:
320,192,253400,128,0,253590:0:0:0:0:
192,192,253590,128,0,253780:0:0:0:0:
64,192,253780,128,0,254160:0:0:0:0:
448,192,254160,128,0,254350:0:0:0:0:
192,192,254350,128,0,254539:0:0:0:0:
320,192,254539,128,0,254729:0:0:0:0:
192,192,254729,128,0,254919:0:0:0:0:
64,192,254919,128,0,255299:0:0:0:0:
448,192,255299,128,0,255489:0:0:0:0:
192,192,255489,128,0,255679:0:0:0:0:
320,192,255679,128,0,255869:0:0:0:0:
192,192,255869,128,0,256058:0:0:0:0:
448,192,256058,128,0,256248:0:0:0:0:
192,192,256248,128,0,256438:0:0:0:0:
320,192,256438,128,0,256628:0:0:0:0:
64,192,256628,128,0,256818:0:0:0:0:
192,192,256818,128,0,257198:0:0:0:0:
448,192,257198,128,0,257387:0:0:0:0:
192,192,257387,128,0,257577:0:0:0:0:
320,192,257577,128,0,257767:0:0:0:0:
64,192,257767,128,0,257957:0:0:0:0:
192,192,257957,128,0,258337:0:0:0:0:
448,192,258337,128,0,258527:0:0:0:0:
192,192,258527,128,0,258717:0:0:0:0:
320,192,258717,128,0,258906:0:0:0:0:
64,192,258906,128,0,259096:0:0:0:0:
448,192,259096,128,0,259286:0:0:0:0:
192,192,259286,128,0,259476:0:0:0:0:
320,192,259476,128,0,259666:0:0:0:0:
192,192,259666,128,0,259856:0:0:0:0:
64,192,259856,128,0,260236:0:0:0:0:
448,192,260236,128,0,260425:0:0:0:0:
192,192,260425,128,0,260615:0:0:0:0:
320,192,260615,128,0,260805:0:0:0:0:
192,192,260805,128,0,260995:0:0:0:0:
64,192,260995,128,0,261375:0:0:0:0:
448,192,261375,128,0,261565:0:0:0:0:
192,192,261565,128,0,261755:0:0:0:0:
320,192,261755,128,0,261944:0:0:0:0:
192,192,261944,128,0,262134:0:0:0:0:
448,192,262134,128,0,262324:0:0:0:0:
192,192,262324,128,0,262514:0:0:0:0:
320,192,262514,128,0,262704:0:0:0:0:
64,192,262704,128,0,262894:0:0:0:0:
192,192,262894,128,0,263274:0:0:0:0:
448,192,263274,128,0,263463:0:0:0:0:
192,192,263463,128,0,263653:0:0:0:0:
320,192,263653,128,0,263843:0:0:0:0:
64,192,263843,128,0,264033:0:0:0:0:
192,192,264033,128,0,264413:0:0:0:0:
448,192,264413,128,0,264603:0:0:0:0:
192,192,264603,128,0,264793:0:0:0:0:
320,192,264793,128,0,264982:0:0:0:0:
64,192,264982,128,0,265172:0:0:0:0:
448,192,265172,128,0,265362:0:0:0:0:
192,192,265362,128,0,265552:0:0:0:0:
320,192,265552,128,0,265742:0:0:0:0:
192,192,265742,128,0,265932:0:0:0:0:
64,192,265932,128,0,266312:0:0:0:0:
448,192,266312,128,0,266501:0:0:0:0:
192,192,266501,128,0,266691:0:0:0:0:
320,192,266691,128,0,266881:0:0:0:0:
192,192,266881,128,0,267071:0:0:0:0:
64,192,267071,128,0,267451:0:0:0:0:
448,192,267451,128,0,267641:0:0:0:0:
192,192,267641,128,0,267831:0:0:0:0:
320,192,267831,128,0,268020:0:0:0:0:
192,192,268020,128,0,268210:0:0:0:0:
448,192,268020,128,0,268115:0:0:0:0:
448,192,268210,128,0,268305:0:0:0:0:
320,192,268400,128,0,268495:0:0:0:0:
320,192,268590,128,0,268685:0:0:0:0:
192,192,268780,128,0,268875:0:0:0:0:
192,192,268970,128,0,269065:0:0:0:0:
64,192,269160,128,0,269255:0:0:0:0:
