osu file format v14

[General]
AudioFilename: audio.mp3
AudioLeadIn: 0
PreviewTime: 26318
Countdown: 0
SampleSet: Soft
StackLeniency: 0.4
Mode: 0
LetterboxInBreaks: 0
WidescreenStoryboard: 1

[Editor]
Bookmarks: 1389,104149,109558,154177
DistanceSpacing: 1.1
BeatDivisor: 16
GridSize: 4
TimelineZoom: 2

[Metadata]
Title:I Dream (Radio Mix) (Nightcore Mix)
TitleUnicode:I Dream (Radio Mix) (Nightcore Mix)
Artist:Akira
ArtistUnicode:Akira
Creator:Gero
Version:ZekeyHache's Insane
Source:
Tags:LeomineXD Leomine intiaz Nyantiaz ZekeyHache ezek ReFaller English Electronic Techno Trance Dance Rave Party Happy Hardcore Sped Up Ver.
BeatmapID:3713670
BeatmapSetID:1777388

[Difficulty]
HPDrainRate:5
CircleSize:4
OverallDifficulty:7
ApproachRate:8.2
SliderMultiplier:1.6
SliderTickRate:2

[Events]
//Background and Video events
0,0,"BG.jpg",0,0
//Break Periods
2,104349,108838
//Storyboard Layer 0 (Background)
//Storyboard Layer 1 (Fail)
//Storyboard Layer 2 (Pass)
//Storyboard Layer 3 (Foreground)
//Storyboard Layer 4 (Overlay)
//Storyboard Sound Samples

[TimingPoints]
1389,338.028169014084,4,2,1,60,1,0
1389,-1000,4,2,1,60,0,0
1410,-1000,4,2,1,5,0,0
4093,-200,4,2,1,60,0,0
9501,-125,4,2,1,60,0,0
14910,-100,4,2,1,60,0,0
27079,-100,4,2,1,60,0,1
37811,-100,4,2,1,60,0,0
37896,-100,4,2,1,80,0,1
48712,-200,4,2,1,30,0,0
51417,-166.666666666667,4,2,1,40,0,0
54121,-125,4,2,1,50,0,0
56825,-83.3333333333333,4,2,1,40,0,0
58177,-83.3333333333333,4,2,1,50,0,0
59529,-100,4,2,1,70,0,0
60881,-76.9230769230769,4,2,1,80,0,1
70346,-111.111111111111,4,2,1,80,0,1
71614,-76.9230769230769,4,2,1,80,0,0
71698,-66.6666666666667,4,2,1,80,0,1
77107,-100,4,2,1,60,0,0
79811,-100,4,2,1,60,0,1
82515,-125,4,2,1,70,0,0
87924,-111.111111111111,4,2,1,70,0,0
91980,-200,4,2,1,70,0,0
93332,-100,4,2,1,70,0,0
109558,-100,4,2,1,65,0,0
114881,-100,4,2,1,60,0,0
127135,-76.9230769230769,4,2,1,80,0,1
136600,-111.111111111111,4,2,1,80,0,1
137867,-76.9230769230769,4,2,1,80,0,0
137952,-76.9230769230769,4,2,1,80,0,1
148769,-100,4,2,1,80,0,0
148853,-100,4,2,1,5,0,0

[Colours]
Combo1 : 143,199,107
Combo2 : 98,184,202
Combo3 : 177,168,137

[HitObjects]
256,192,1389,5,4,1:0:0:0:
256,192,1473,12,2,4093,0:0:0:0:
86,118,4431,5,0,0:0:0:0:
229,354,4769,1,0,0:0:0:0:
243,82,5107,1,0,0:0:0:0:
84,250,5445,2,0,P|251:265|310:176,1,280,2|0,0:0|0:0,0:0:0:0:
308,103,6797,6,0,P|337:64|380:47,1,80,2|0,0:0|0:0,0:0:0:0:
234,149,7304,2,0,L|154:143,2,80,0|0|0,0:0|0:0|0:0,0:0:0:0:
308,186,8149,1,2,0:0:0:0:
106,347,9417,5,0,1:0:0:0:
106,347,9501,2,0,L|94:204,1,128,2|8,0:0|0:0,0:0:0:0:
82,79,10177,1,4,3:0:0:0:
132,29,10346,1,4,3:0:0:0:
189,69,10515,2,0,L|252:62,1,64,8|4,0:0|3:0,0:0:0:0:
305,15,10853,6,0,P|284:83|307:141,1,128,2|8,0:0|0:0,0:0:0:0:
351,184,11360,2,0,P|372:252|349:310,1,128,6|0,3:0|0:0,0:0:0:0:
306,355,11867,1,8,0:0:0:0:
243,322,12036,1,0,0:0:0:0:
243,322,12205,2,0,L|161:330,1,64,2|0,0:0|0:0,0:0:0:0:
165,259,12543,1,8,0:0:0:0:
165,259,12712,2,0,L|87:231,1,64,0|4,0:0|3:0,0:0:0:0:
129,172,13050,1,4,3:0:0:0:
129,172,13219,2,0,L|70:114,1,64,8|4,0:0|3:0,0:0:0:0:
26,51,13558,6,0,P|89:33|151:59,1,128,2|8,0:0|0:0,0:0:0:0:
207,99,14065,1,6,3:0:0:0:
207,99,14234,2,0,P|245:89|269:78,1,64,4|2,3:0|0:0,0:0:0:0:
394,89,14572,2,0,P|356:99|332:110,1,64,8|0,0:0|0:0,0:0:0:0:
191,198,14910,6,0,B|201:267|201:267|190:299|190:299|200:363,1,160,4|8,0:0|0:0,0:0:0:0:
314,382,15417,2,0,B|304:313|304:313|315:281|315:281|305:217,1,160,2|4,0:0|3:0,0:0:0:0:
323,106,15924,1,8,0:0:0:0:
323,106,16093,1,4,3:0:0:0:
204,51,16262,2,0,B|118:21|126:79|47:53,1,160,2|8,0:0|0:0,0:0:0:0:
0,183,16769,2,0,B|86:213|78:155|156:180,1,160,6|6,3:0|3:0,0:0:0:0:
201,255,17276,1,8,0:0:0:0:
148,325,17445,1,0,0:0:0:0:
148,325,17614,6,0,L|59:332,1,80,6|0,0:0|0:0,0:0:0:0:
269,368,17952,1,8,0:0:0:0:
269,368,18121,2,0,P|359:370|421:311,1,160,2|4,0:0|3:0,0:0:0:0:
366,203,18628,1,8,0:0:0:0:
366,203,18797,2,0,P|276:201|214:260,1,160,4|4,3:0|3:0,0:0:0:0:
191,324,19304,1,8,0:0:0:0:
41,64,19642,6,0,L|124:46,1,80,4|2,3:0|0:0,0:0:0:0:
97,132,19980,2,0,L|180:114,1,80,8|0,0:0|1:0,0:0:0:0:
251,99,20234,1,0,1:0:0:0:
251,99,20318,2,0,L|334:81,1,80,8|0,1:2|0:0,0:0:0:0:
452,150,20656,1,8,1:2:0:0:
452,150,20825,2,0,P|463:187|454:235,1,80,0|8,0:0|1:2,0:0:0:0:
419,306,21163,1,0,0:0:0:0:
341,264,21332,1,8,1:2:0:0:
268,307,21501,1,0,1:0:0:0:
268,307,21586,1,8,1:2:0:0:
268,307,21670,6,0,B|144:331|144:331|115:313,1,160,8|8,1:2|1:2,0:0:0:0:
166,242,22177,2,0,B|142:118|142:118|159:89,1,160,0|0,0:0|0:0,0:0:0:0:
217,23,22684,1,8,1:2:0:0:
217,23,22769,1,8,1:2:0:0:
217,23,22853,1,0,0:0:0:0:
296,61,23022,6,0,P|327:62|385:46,1,80,4|4,1:0|1:3,0:0:0:0:
329,142,23360,2,0,P|298:143|240:127,1,80,4|4,1:3|1:3,0:0:0:0:
296,223,23698,2,0,P|327:224|385:208,1,80,4|4,1:3|1:3,0:0:0:0:
329,304,24036,2,0,P|298:305|240:289,1,80,4|4,1:3|1:3,0:0:0:0:
180,273,24290,1,4,1:3:0:0:
180,273,24374,6,0,P|149:272|91:288,1,80,4|4,1:3|1:3,0:0:0:0:
26,219,24712,1,4,1:3:0:0:
90,143,24881,1,4,1:3:0:0:
90,143,24966,1,4,1:3:0:0:
90,143,25050,2,0,L|132:150,3,40,4|4|4|4,1:3|1:3|1:3|1:3,0:0:0:0:
166,125,25388,1,4,1:3:0:0:
166,125,25558,1,4,1:3:0:0:
87,50,25727,5,4,1:0:0:0:
202,126,27079,6,0,B|117:97|131:160|45:128,1,160,4|8,1:0|0:0,0:0:0:0:
87,50,27586,1,0,0:0:0:0:
164,205,27755,2,0,P|174:246|165:282,1,80,4|0,3:0|0:0,0:0:0:0:
264,363,28093,1,8,0:0:0:0:
358,279,28262,6,0,B|443:250|429:313|515:281,1,160,0|0,0:0|0:0,0:0:0:0:
378,180,28769,1,8,0:0:0:0:
378,180,28938,2,0,L|296:161,1,80,2|4,0:1|3:0,0:0:0:0:
409,73,29276,1,2,0:1:0:0:
409,73,29445,2,0,L|327:54,1,80,8|0,0:0|0:0,0:0:0:0:
150,44,29783,6,0,P|151:92|215:49,1,160,4|8,3:0|0:0,0:0:0:0:
36,119,30290,2,0,P|13:148|-1:191,1,80,0|4,0:0|3:0,0:0:0:0:
163,248,30628,2,0,P|150:210|126:178,1,80,0|8,0:0|0:0,0:0:0:0:
26,357,30966,1,0,0:0:0:0:
26,357,31135,6,0,L|121:342,1,80,4|0,3:0|0:0,0:0:0:0:
234,303,31473,2,0,L|329:318,1,80,8|0,0:0|0:0,0:0:0:0:
133,218,31811,2,0,B|126:180|126:180|135:135,1,80,4|0,3:0|0:0,0:0:0:0:
272,76,32149,2,0,B|279:114|279:114|270:159,1,80,8|0,0:0|0:0,0:0:0:0:
75,67,32487,6,0,L|234:2,1,160,4|8,1:0|1:2,0:0:0:0:
345,40,32994,1,0,0:0:0:0:
299,157,33163,2,0,L|140:222,1,160,0|8,1:0|1:2,0:0:0:0:
12,194,33670,1,0,0:0:0:0:
12,194,33839,2,0,P|16:145|92:175,1,160,0|8,1:0|1:2,0:0:0:0:
42,297,34346,2,0,L|18:379,1,80,2|2,0:1|1:0,0:0:0:0:
199,298,34684,1,2,0:1:0:0:
199,298,34853,2,0,L|223:216,1,80,8|0,1:2|0:0,0:0:0:0:
276,65,35191,6,0,L|326:216,1,160,4|8,1:0|1:2,0:0:0:0:
123,223,35698,2,0,P|131:181|156:147,1,80,0|0,0:0|1:0,0:0:0:0:
326,216,36036,2,0,P|318:258|293:292,1,80,0|8,0:0|1:2,0:0:0:0:
281,93,36374,1,0,0:0:0:0:
281,93,36543,5,0,1:0:0:0:
5,149,36881,1,8,0:0:0:0:
241,232,37219,1,0,1:0:0:0:
62,325,37473,1,0,1:0:0:0:
62,325,37558,1,0,0:0:0:0:
118,167,37727,1,0,1:0:0:0:
257,353,37896,6,0,B|321:331|321:331|346:332|346:332|411:311,1,160,0|8,1:0|1:2,0:0:0:0:
301,183,38403,2,0,P|296:134|302:104,1,80,0|0,0:0|1:0,0:0:0:0:
356,247,38741,1,0,0:0:0:0:
217,185,38910,1,8,1:2:0:0:
208,327,39079,1,0,0:0:0:0:
208,327,39248,6,0,P|145:324|55:365,1,160,2|8,1:2|1:2,0:0:0:0:
125,217,39755,2,0,P|66:240|2:316,1,160,2|2,0:0|0:0,0:0:0:0:
27,152,40262,1,8,1:2:0:0:
206,214,40431,1,0,0:0:0:0:
206,214,40600,6,0,L|219:135,1,80,0|0,1:0|0:0,0:0:0:0:
137,10,40938,1,8,1:2:0:0:
137,10,41107,2,0,L|124:89,1,80,0|0,0:0|1:0,0:0:0:0:
101,212,41445,1,0,0:0:0:0:
237,47,41614,1,8,1:2:0:0:
237,47,41783,6,0,P|304:33|399:51,1,160,0|0,0:0|0:0,0:0:0:0:
316,149,42290,1,8,1:2:0:0:
316,149,42459,1,2,0:0:0:0:
451,221,42628,2,0,P|467:264|461:302,1,80,0|2,1:0|0:0,0:0:0:0:
343,379,42966,2,0,P|327:336|333:298,1,80,8|0,1:2|1:0,0:0:0:0:
188,246,43304,6,0,P|204:289|198:327,1,80,4|0,1:0|0:0,0:0:0:0:
62,170,43642,2,0,L|236:137,2,160,8|0|8,1:2|1:0|1:2,0:0:0:0:
216,50,44487,1,0,1:0:0:0:
216,50,44572,1,0,1:0:0:0:
216,50,44656,6,0,P|269:62|309:155,1,160,4|8,1:0|1:2,0:0:0:0:
155,271,45163,2,0,P|102:259|62:166,1,160,0|0,0:1|0:0,0:0:0:0:
269,257,45670,1,8,1:2:0:0:
46,26,46008,5,0,1:0:0:0:
19,144,46177,1,0,1:0:0:0:
118,76,46346,1,8,1:2:0:0:
91,193,46515,1,0,1:0:0:0:
190,126,46684,1,0,1:0:0:0:
163,243,46853,1,2,1:3:0:0:
163,243,46938,1,2,1:3:0:0:
163,243,47022,1,0,1:0:0:0:
291,178,47191,1,2,1:3:0:0:
291,178,47276,1,2,1:3:0:0:
291,178,47360,6,0,P|323:156|361:144,1,80,0|2,1:0|1:3,0:0:0:0:
234,278,47698,2,0,P|195:266|163:243,1,80,0|4,1:0|1:3,0:0:0:0:
360,290,48036,2,0,L|405:277,3,40,8|8|4|0,1:2|1:2|1:3|1:0,0:0:0:0:
426,245,48374,1,8,1:2:0:0:
320,367,48543,1,8,1:2:0:0:
294,172,48712,6,0,P|264:148|225:138,1,80,4|2,1:0|1:2,0:0:0:0:
179,303,49388,2,0,P|203:333|213:372,1,80,2|2,1:2|1:2,0:0:0:0:
178,221,49896,2,0,L|217:224,1,40,0|2,0:0|1:2,0:0:0:0:
98,67,50234,5,0,0:0:0:0:
165,135,50403,1,2,1:2:0:0:
98,67,50572,1,0,0:0:0:0:
30,134,50741,1,2,1:2:0:0:
97,202,50910,1,0,0:0:0:0:
165,135,51079,1,2,1:2:0:0:
98,67,51248,1,2,1:2:0:0:
98,67,51332,1,2,1:2:0:0:
98,67,51417,6,0,L|-3:52,1,95.9999970703126,2|2,1:2|1:2,0:0:0:0:
150,270,52093,2,0,L|244:255,1,95.9999970703126,2|2,1:2|1:2,0:0:0:0:
205,149,52600,2,0,L|185:192,1,47.9999985351563,2|2,1:2|1:2,0:0:0:0:
301,181,52938,5,0,0:0:0:0:
360,99,53107,1,2,1:2:0:0:
301,17,53276,1,0,0:0:0:0:
205,49,53445,1,2,1:2:0:0:
205,149,53614,1,0,0:0:0:0:
301,181,53783,5,2,1:2:0:0:
200,38,53952,1,2,1:2:0:0:
77,128,54121,6,0,L|5:141,1,64,4|0,1:0|0:0,0:0:0:0:
109,283,54459,2,0,L|37:296,1,64,0|0,1:0|0:0,0:0:0:0:
73,109,54797,2,0,L|1:122,1,64,0|0,1:0|0:0,0:0:0:0:
199,224,55135,1,0,1:0:0:0:
199,224,55219,1,0,0:0:0:0:
199,224,55304,1,0,0:0:0:0:
435,128,55473,6,0,L|507:141,1,64,0|0,1:0|0:0,0:0:0:0:
403,283,55811,2,0,L|475:296,1,64,0|0,1:0|0:0,0:0:0:0:
439,109,56149,2,0,L|511:122,1,64,0|0,1:0|0:0,0:0:0:0:
313,224,56487,1,0,1:0:0:0:
313,224,56572,1,0,0:0:0:0:
313,224,56656,1,0,0:0:0:0:
173,149,56825,6,0,L|189:49,1,95.9999970703126,0|0,1:0|1:0,0:0:0:0:
64,138,57163,2,0,P|69:186|96:230,1,95.9999970703126,0|0,1:0|1:0,0:0:0:0:
176,263,57417,1,0,1:0:0:0:
176,263,57501,2,0,L|160:363,1,95.9999970703126,0|0,1:0|1:0,0:0:0:0:
303,299,57839,2,0,P|298:251|271:207,1,95.9999970703126,0|0,1:0|1:0,0:0:0:0:
191,174,58093,1,0,1:0:0:0:
191,174,58177,2,0,L|207:74,1,95.9999970703126,0|0,1:0|1:0,0:0:0:0:
256,192,58515,12,4,59529,3:0:0:0:
76,147,60881,6,0,L|59:36,1,103.999995239258,6|0,1:0|0:0,0:0:0:0:
189,194,61219,2,0,L|172:305,1,103.999995239258,10|0,1:0|0:0,0:0:0:0:
302,143,61558,2,0,L|285:32,1,103.999995239258,2|0,1:0|0:0,0:0:0:0:
415,190,61896,1,10,1:0:0:0:
415,190,61980,1,0,0:0:0:0:
415,190,62065,1,0,0:0:0:0:
318,286,62234,5,0,1:0:0:0:
374,106,62403,1,2,0:0:0:0:
408,276,62572,1,8,1:0:0:0:
408,276,62741,1,2,0:0:0:0:
304,193,62910,1,0,1:0:0:0:
304,193,63079,1,2,0:0:0:0:
232,304,63248,1,8,1:0:0:0:
232,304,63417,1,2,0:0:0:0:
125,195,63586,6,0,P|91:188|17:195,1,103.999995239258,2|0,1:0|0:0,0:0:0:0:
168,46,63924,2,0,P|202:39|276:46,1,103.999995239258,10|0,1:0|0:0,0:0:0:0:
126,226,64262,2,0,P|92:219|18:226,1,103.999995239258,2|0,1:0|0:0,0:0:0:0:
219,343,64600,1,10,1:0:0:0:
219,343,64684,1,0,0:0:0:0:
219,343,64769,1,0,0:0:0:0:
308,269,64938,5,0,1:0:0:0:
128,325,65107,1,2,0:0:0:0:
353,347,65276,1,8,1:0:0:0:
353,347,65445,1,2,0:0:0:0:
233,272,65614,1,0,1:0:0:0:
233,272,65783,1,2,0:0:0:0:
340,175,65952,1,8,1:0:0:0:
225,57,66121,5,4,3:0:0:0:
225,57,66205,1,4,3:0:0:0:
225,57,66290,2,0,L|236:166,1,103.999995239258,6|0,1:0|0:0,0:0:0:0:
446,119,66628,2,0,L|435:228,1,103.999995239258,10|0,1:0|0:0,0:0:0:0:
198,57,66966,2,0,L|209:166,1,103.999995239258,2|0,1:0|0:0,0:0:0:0:
228,329,67304,1,10,1:0:0:0:
228,329,67388,1,0,0:0:0:0:
228,329,67473,1,0,0:0:0:0:
315,243,67642,5,0,1:0:0:0:
157,215,67811,1,2,0:0:0:0:
157,215,67980,2,0,B|110:207|110:207|103:211|103:211|54:204,1,103.999995239258,8|2,1:0|0:0,0:0:0:0:
226,111,68318,2,0,B|273:103|273:103|280:107|280:107|329:100,1,103.999995239258,0|2,1:0|0:0,0:0:0:0:
237,226,68656,1,8,1:0:0:0:
237,226,68825,1,0,1:0:0:0:
387,237,68994,6,0,P|396:282|377:342,1,103.999995239258,2|0,1:0|1:0,0:0:0:0:
316,159,69332,2,0,P|307:114|326:54,1,103.999995239258,10|0,1:0|1:0,0:0:0:0:
410,238,69670,2,0,P|419:283|400:343,1,103.999995239258,2|0,1:0|1:0,0:0:0:0:
425,145,70008,1,10,1:0:0:0:
425,145,70093,1,0,1:0:0:0:
425,145,70177,1,0,1:0:0:0:
259,224,70346,6,0,P|253:237|249:301,1,71.9999978027344,0|2,1:0|0:0,0:0:0:0:
316,159,70684,2,0,P|316:123|304:89,2,71.9999978027344,0|2|6,1:0|0:0|1:3,0:0:0:0:
224,142,71191,1,2,0:0:0:0:
224,142,71276,1,6,1:3:0:0:
224,142,71360,1,0,0:0:0:0:
259,224,71529,1,6,1:3:0:0:
431,194,71698,6,0,B|424:95|424:95|404:113,1,120.000004577637,6|0,1:0|0:0,0:0:0:0:
333,250,72036,2,0,B|340:349|340:349|360:331,1,120.000004577637,10|0,1:0|0:0,0:0:0:0:
240,203,72374,2,0,B|233:104|233:104|213:122,1,120.000004577637,2|0,1:0|0:0,0:0:0:0:
142,293,72712,1,10,1:0:0:0:
142,293,72797,1,0,0:0:0:0:
142,293,72881,1,0,0:0:0:0:
60,166,73050,5,0,1:0:0:0:
217,117,73219,1,2,0:0:0:0:
205,238,73388,1,8,1:0:0:0:
205,238,73558,1,2,0:0:0:0:
362,189,73727,1,0,1:0:0:0:
362,189,73896,1,2,0:0:0:0:
350,310,74065,1,8,1:0:0:0:
350,310,74234,1,2,0:0:0:0:
507,261,74403,6,0,P|494:203|493:128,1,120.000004577637,6|0,1:0|0:0,0:0:0:0:
404,31,74741,2,0,P|391:89|390:163,1,120.000004577637,10|0,1:0|0:0,0:0:0:0:
301,261,75079,2,0,P|288:203|287:128,1,120.000004577637,2|0,1:0|0:0,0:0:0:0:
198,31,75417,1,10,1:0:0:0:
198,31,75501,1,0,0:0:0:0:
198,31,75586,1,0,0:0:0:0:
50,189,75755,5,0,1:0:0:0:
188,124,75924,1,2,0:0:0:0:
38,86,76093,1,8,1:0:0:0:
38,86,76262,1,2,0:0:0:0:
131,180,76431,1,0,1:0:0:0:
131,180,76600,1,2,0:0:0:0:
53,283,76769,1,8,1:0:0:0:
53,283,76938,1,0,1:0:0:0:
158,356,77107,6,0,B|243:385|229:322|315:354,2,160,0|8|0,1:0|1:0|1:0,0:0:0:0:
399,252,78121,1,8,1:0:0:0:
399,252,78205,1,0,0:0:0:0:
399,252,78290,1,8,1:0:0:0:
92,186,78628,5,4,3:0:0:0:
193,220,78797,1,4,3:0:0:0:
253,134,78966,1,4,3:0:0:0:
193,49,79135,1,4,3:0:0:0:
92,81,79304,1,4,3:0:0:0:
92,186,79473,1,4,3:0:0:0:
92,291,79642,1,4,3:0:0:0:
193,323,79811,6,0,B|262:333|262:333|294:322|294:322|358:332,2,160,4|4|4,3:0|3:0|3:0,0:0:0:0:
165,288,80572,1,4,3:0:0:0:
160,244,80656,1,4,3:0:0:0:
182,205,80741,1,4,3:0:0:0:
206,168,80825,1,4,3:0:0:0:
213,124,80910,1,4,3:0:0:0:
201,81,80994,1,4,3:0:0:0:
169,49,81079,1,4,3:0:0:0:
407,93,81332,5,0,1:0:0:0:
380,222,81501,1,8,0:0:0:0:
292,134,81670,1,0,1:0:0:0:
265,263,81839,1,8,0:0:0:0:
178,174,82008,1,0,1:0:0:0:
151,303,82177,1,8,0:0:0:0:
64,203,82346,1,0,1:0:0:0:
64,203,82431,1,0,0:0:0:0:
64,203,82515,5,4,3:0:0:0:
296,343,82853,2,0,P|341:315|431:308,1,128,4|0,3:0|0:0,0:0:0:0:
453,246,83360,1,4,3:0:0:0:
412,188,83529,2,0,P|400:156|402:121,1,64,4|2,3:0|0:0,0:0:0:0:
429,62,83867,6,0,B|361:39|372:88|304:63,1,128,4|4,3:0|3:0,0:0:0:0:
263,120,84374,2,0,B|194:145|205:95|138:118,1,128,4|4,3:0|3:0,0:0:0:0:
80,79,84881,1,4,3:0:0:0:
80,79,84966,1,4,3:0:0:0:
80,79,85050,1,2,0:0:0:0:
33,183,85219,6,0,L|41:322,1,128,4|0,3:0|0:0,0:0:0:0:
99,349,85727,2,0,P|126:329|162:315,1,64,4|0,3:0|0:0,0:0:0:0:
294,306,86065,2,0,P|265:294|240:275,1,64,4|4,3:0|3:0,0:0:0:0:
345,155,86403,6,0,P|360:198|292:183,1,128,2|0,0:0|0:0,0:0:0:0:
267,99,86910,1,0,0:0:0:0:
187,157,87079,2,0,L|177:247,1,64,4|0,3:0|0:0,0:0:0:0:
161,56,87417,1,4,3:0:0:0:
81,114,87586,2,0,L|71:204,1,64,4|2,3:0|0:0,0:0:0:0:
108,248,87839,1,4,3:0:0:0:
108,248,87924,6,0,L|96:338,1,71.9999978027344,4|0,3:0|0:0,0:0:0:0:
245,357,88262,2,0,P|238:322|217:293,1,71.9999978027344,4|4,3:0|3:0,0:0:0:0:
328,268,88600,2,0,P|307:238|276:221,1,71.9999978027344,0|4,0:0|3:0,0:0:0:0:
372,149,88938,2,0,P|340:131|305:128,1,71.9999978027344,4|4,3:0|3:0,0:0:0:0:
356,27,89276,6,0,P|320:24|286:36,1,71.9999978027344,4|0,3:0|0:0,0:0:0:0:
452,83,89614,1,4,3:0:0:0:
452,83,89783,2,0,L|468:238,1,143.999995605469,4|4,3:0|3:0,0:0:0:0:
398,301,90290,1,4,3:0:0:0:
398,301,90374,1,4,3:0:0:0:
398,301,90459,1,2,0:0:0:0:
298,230,90628,6,0,L|221:234,1,71.9999978027344,4|0,3:0|0:0,0:0:0:0:
96,314,90966,1,4,3:0:0:0:
96,314,91135,2,0,L|173:318,1,71.9999978027344,4|0,3:0|0:0,0:0:0:0:
297,202,91473,2,0,L|220:206,1,71.9999978027344,4|4,3:0|3:0,0:0:0:0:
103,115,91811,1,2,0:0:0:0:
103,115,91980,5,4,3:0:0:0:
229,88,92318,1,2,0:0:0:0:
229,88,92487,1,2,0:0:0:0:
355,61,92825,1,2,0:0:0:0:
355,61,92994,1,2,0:0:0:0:
55,179,93332,6,0,B|70:309|70:309|46:290,1,160,4|8,1:0|0:0,0:0:0:0:
178,239,93839,2,0,B|163:109|163:109|187:128,1,160,2|0,0:0|0:0,0:0:0:0:
55,68,94346,1,8,0:0:0:0:
55,68,94515,1,0,0:0:0:0:
211,26,94684,6,0,P|276:5|365:31,1,160,4|8,3:0|0:0,0:0:0:0:
504,126,95191,2,0,P|439:105|350:131,1,160,2|2,0:0|0:0,0:0:0:0:
291,191,95698,1,8,0:0:0:0:
339,264,95867,1,2,0:0:0:0:
339,264,96036,6,0,B|420:271,1,80,4|0,3:0|0:0,0:0:0:0:
242,347,96374,1,8,0:0:0:0:
242,347,96543,2,0,B|156:377|164:319|85:345,1,160,2|2,0:0|0:0,0:0:0:0:
203,246,97050,1,8,0:0:0:0:
203,246,97219,2,0,B|289:216|281:274|360:248,1,160,2|0,0:0|0:0,0:0:0:0:
431,198,97727,2,0,L|414:118,1,80,8|2,0:0|0:0,0:0:0:0:
291,71,98065,2,0,L|308:151,1,80,4|2,3:0|0:0,0:0:0:0:
460,196,98403,2,0,L|443:116,1,80,8|0,0:0|0:0,0:0:0:0:
426,44,98656,1,0,0:0:0:0:
425,43,98741,6,0,P|393:20|354:14,1,80,4|0,1:0|0:0,0:0:0:0:
213,96,99079,1,8,0:0:0:0:
213,96,99248,2,0,P|180:119|141:125,1,80,2|0,0:0|0:0,0:0:0:0:
76,65,99586,1,2,0:0:0:0:
19,128,99755,1,8,0:0:0:0:
86,196,99924,1,0,0:0:0:0:
86,196,100008,1,0,0:0:0:0:
86,196,100093,6,0,B|75:270|75:270|25:341,1,160,4|8,0:0|0:0,0:0:0:0:
103,384,100600,2,0,B|152:315|152:315|219:280,1,160,2|0,0:0|0:0,0:0:0:0:
306,270,101107,1,8,0:0:0:0:
288,183,101276,1,4,3:0:0:0:
371,211,101445,6,0,P|419:241|404:164,1,160,4|0,1:0|1:0,0:0:0:0:
236,53,101952,1,2,0:0:0:0:
236,53,102121,2,0,L|217:165,1,80,0|4,1:0|3:0,0:0:0:0:
209,206,102374,1,4,3:0:0:0:
209,206,102459,1,0,1:0:0:0:
55,93,102628,1,4,3:0:0:0:
55,93,102797,6,0,L|74:205,1,80,4|4,3:0|3:0,0:0:0:0:
4,316,103135,2,0,L|116:297,1,80,4|4,3:0|3:0,0:0:0:0:
270,281,103473,1,6,3:0:0:0:
368,248,103642,1,6,3:0:0:0:
368,144,103811,1,6,3:0:0:0:
269,112,103980,1,6,3:0:0:0:
208,196,104149,5,6,3:0:0:0:
113,346,109558,6,0,B|56:367|-6:302|37:223|105:221|136:258|136:258|176:305|261:279|263:189|205:155|159:171,1,480,4|4,3:0|3:0,0:0:0:0:
87,120,110741,1,2,0:0:0:0:
136,46,110910,6,0,P|214:36|286:69,1,160,4|4,3:0|3:0,0:0:0:0:
448,133,111417,2,0,P|376:166|298:156,1,160,2|10,0:0|0:0,0:0:0:0:
423,52,111924,1,8,0:0:0:0:
423,52,112093,1,10,0:0:0:0:
474,220,112262,6,0,B|481:343|481:343|514:308,1,160,4|4,3:0|3:0,0:0:0:0:
388,272,112769,2,0,P|350:263|311:271,1,80,2|4,0:0|3:0,0:0:0:0:
188,359,113107,2,0,P|226:368|265:360,1,80,2|4,0:0|3:0,0:0:0:0:
128,271,113445,1,2,0:0:0:0:
128,271,113614,6,0,B|98:185|156:193|130:114,1,160,4|4,3:0|3:0,0:0:0:0:
87,38,114121,1,2,0:0:0:0:
87,38,114290,2,0,L|174:30,1,80,4|10,3:0|0:0,0:0:0:0:
322,78,114628,2,0,L|235:86,1,80,8|4,0:0|3:0,0:0:0:0:
208,164,114881,1,0,1:0:0:0:
208,164,114966,6,0,L|367:148,1,160,0|0,1:0|1:0,0:0:0:0:
510,209,115473,2,0,L|350:224,1,160,0|0,0:0|0:0,0:0:0:0:
269,335,115980,1,0,1:0:0:0:
269,335,116149,1,0,0:0:0:0:
143,243,116318,6,0,P|80:270|125:321,1,160,0|0,1:0|1:0,0:0:0:0:
230,222,116825,2,0,P|275:170|212:143,1,160,0|0,0:0|0:0,0:0:0:0:
139,94,117332,1,0,1:0:0:0:
201,32,117501,1,0,0:0:0:0:
201,32,117586,1,0,1:0:0:0:
201,32,117670,6,0,B|287:2|279:60|358:34,1,160,0|0,1:0|1:0,0:0:0:0:
473,15,118177,2,0,P|464:78|519:162,1,160,0|0,0:0|0:0,0:0:0:0:
408,212,118684,1,0,1:0:0:0:
408,212,118853,1,0,0:0:0:0:
321,134,119022,6,0,B|235:104|243:162|164:136,1,160,0|0,1:0|1:0,0:0:0:0:
82,106,119529,1,0,0:0:0:0:
35,180,119698,2,0,L|27:268,1,80,0|0,1:0|0:0,0:0:0:0:
148,241,120036,2,0,L|140:329,1,80,0|0,1:0|1:0,0:0:0:0:
261,301,120374,6,0,P|332:267|411:272,1,160,0|0,1:0|1:0,0:0:0:0:
442,133,120881,2,0,P|370:167|291:162,1,160,0|0,0:0|0:0,0:0:0:0:
213,79,121388,1,0,1:0:0:0:
213,79,121558,1,0,0:0:0:0:
76,121,121727,6,0,B|86:190|86:190|75:222|75:222|85:286,1,160,0|0,1:0|1:0,0:0:0:0:
184,218,122234,2,0,B|194:287|194:287|183:319|183:319|193:383,1,160,2|2,0:0|0:0,0:0:0:0:
304,309,122741,1,0,1:0:0:0:
304,309,123079,5,0,1:0:0:0:
415,325,123248,1,0,1:0:0:0:
291,231,123417,1,0,1:0:0:0:
438,220,123586,1,0,1:0:0:0:
438,220,123670,1,0,1:0:0:0:
438,220,123755,1,0,1:0:0:0:
299,151,123924,1,0,1:0:0:0:
367,269,124093,1,0,1:0:0:0:
220,215,124262,1,0,1:0:0:0:
220,215,124346,1,0,1:0:0:0:
220,215,124431,6,0,L|214:271,3,40,2|0|0|0,1:2|1:0|1:0|1:0,0:0:0:0:
174,269,124769,2,0,L|180:325,3,40,2|0|2|0,1:2|1:0|1:2|1:0,0:0:0:0:
142,335,125107,1,0,1:0:0:0:
99,322,125191,1,0,1:0:0:0:
74,285,125276,1,2,1:2:0:0:
71,241,125360,1,0,1:0:0:0:
90,201,125445,1,2,1:2:0:0:
102,159,125529,1,0,1:0:0:0:
102,114,125614,1,0,1:0:0:0:
90,71,125698,1,0,1:0:0:0:
49,54,125783,5,4,1:0:0:0:
49,54,126459,5,2,0:0:0:0:
49,54,127135,6,0,P|97:71|145:55,1,103.999995239258,6|0,1:0|0:0,0:0:0:0:
351,141,127473,2,0,P|302:158|254:142,1,103.999995239258,10|0,1:0|0:0,0:0:0:0:
49,228,127811,2,0,P|97:245|145:229,1,103.999995239258,2|0,1:0|0:0,0:0:0:0:
350,314,128149,1,10,1:0:0:0:
350,314,128234,1,0,0:0:0:0:
350,314,128318,1,0,0:0:0:0:
259,228,128487,5,0,1:0:0:0:
281,354,128656,1,2,0:0:0:0:
204,283,128825,1,8,1:0:0:0:
204,283,128994,1,2,0:0:0:0:
332,192,129163,1,0,1:0:0:0:
332,192,129332,1,2,0:0:0:0:
205,122,129501,1,8,1:0:0:0:
205,122,129670,1,2,0:0:0:0:
329,44,129839,6,0,B|398:27|398:27|438:27,1,103.999995239258,6|0,1:0|0:0,0:0:0:0:
355,191,130177,2,0,B|424:204|424:204|460:221,1,103.999995239258,10|0,1:0|0:0,0:0:0:0:
300,311,130515,2,0,B|357:352|357:352|383:383,1,103.999995239258,2|0,1:0|0:0,0:0:0:0:
188,283,130853,1,10,1:0:0:0:
188,283,130938,1,0,0:0:0:0:
188,283,131022,1,0,0:0:0:0:
95,362,131191,5,0,1:0:0:0:
64,249,131360,1,2,0:0:0:0:
3,357,131529,1,8,1:0:0:0:
3,357,131698,1,2,0:0:0:0:
1,210,131867,1,0,1:0:0:0:
1,210,132036,1,2,0:0:0:0:
125,294,132205,1,8,0:0:0:0:
125,294,132374,1,0,1:0:0:0:
89,146,132543,6,0,P|85:101|130:107,1,103.999995239258,6|0,1:0|0:0,0:0:0:0:
302,86,132881,2,0,P|306:40|261:46,1,103.999995239258,10|0,1:0|0:0,0:0:0:0:
62,146,133219,2,0,P|57:100|102:106,1,103.999995239258,2|0,1:0|0:0,0:0:0:0:
176,251,133558,1,10,1:0:0:0:
176,251,133642,1,0,0:0:0:0:
176,251,133727,1,0,0:0:0:0:
196,146,133896,5,0,1:0:0:0:
264,263,134065,1,2,0:0:0:0:
301,134,134234,1,8,1:0:0:0:
301,134,134403,1,2,0:0:0:0:
369,251,134572,1,0,1:0:0:0:
369,251,134741,1,2,0:0:0:0:
400,115,134910,1,8,1:0:0:0:
400,115,135079,1,4,3:0:0:0:
457,241,135248,6,0,P|449:293|415:331,1,103.999995239258,4|4,1:0|3:0,0:0:0:0:
280,263,135586,2,0,P|288:211|322:173,1,103.999995239258,8|4,1:0|3:0,0:0:0:0:
479,252,135924,2,0,P|471:304|437:342,1,103.999995239258,8|4,1:0|3:0,0:0:0:0:
418,162,136262,1,8,1:0:0:0:
418,162,136346,1,4,3:0:0:0:
418,162,136431,1,4,3:0:0:0:
284,205,136600,6,0,P|278:192|274:128,1,71.9999978027344,4|4,1:0|3:0,0:0:0:0:
341,270,136938,2,0,P|341:306|329:340,2,71.9999978027344,4|4|4,3:0|3:0|3:0,0:0:0:0:
249,287,137445,1,4,3:0:0:0:
249,287,137529,1,4,3:0:0:0:
249,287,137614,1,4,3:0:0:0:
284,205,137783,1,4,3:0:0:0:
171,153,137952,6,0,L|64:148,1,103.999995239258,6|0,1:0|0:0,0:0:0:0:
189,36,138290,2,0,L|296:41,1,103.999995239258,10|0,1:0|0:0,0:0:0:0:
417,147,138628,1,2,1:0:0:0:
484,37,138797,1,0,0:0:0:0:
403,135,138966,1,10,1:0:0:0:
466,23,139135,2,0,P|404:28|361:52,1,103.999995239258,0|0,0:0|1:0,0:0:0:0:
486,195,139473,5,2,0:0:0:0:
374,219,139642,1,8,1:0:0:0:
262,243,139811,1,2,0:0:0:0:
339,327,139980,1,0,1:0:0:0:
227,351,140149,1,2,0:0:0:0:
115,375,140318,1,8,1:0:0:0:
115,375,140487,1,2,0:0:0:0:
156,233,140656,6,0,P|161:182|142:127,1,103.999995239258,6|0,1:0|0:0,0:0:0:0:
11,147,140994,2,0,P|6:198|25:253,1,103.999995239258,10|0,1:0|0:0,0:0:0:0:
241,272,141332,1,6,1:0:0:0:
247,149,141501,1,0,0:0:0:0:
268,269,141670,1,10,1:0:0:0:
271,146,141839,2,0,L|273:39,1,103.999995239258,4|4,3:0|1:0,0:0:0:0:
47,194,142177,5,2,0:0:0:0:
159,170,142346,1,8,1:0:0:0:
271,146,142515,1,2,0:0:0:0:
194,62,142684,1,0,1:0:0:0:
306,38,142853,1,2,0:0:0:0:
418,14,143022,1,8,1:0:0:0:
418,14,143191,1,4,3:0:0:0:
505,167,143360,6,0,B|467:207|467:207|420:220,1,103.999995239258,6|0,1:0|0:0,0:0:0:0:
340,367,143698,2,0,B|378:327|378:327|424:313,1,103.999995239258,10|0,1:0|0:0,0:0:0:0:
251,241,144036,1,2,1:0:0:0:
139,272,144205,1,0,0:0:0:0:
249,192,144374,1,10,1:0:0:0:
137,161,144543,2,0,P|106:164|47:208,1,103.999995239258,4|4,3:0|1:0,0:0:0:0:
282,333,144881,5,2,0:0:0:0:
386,292,145050,1,8,1:0:0:0:
361,183,145219,1,2,0:0:0:0:
249,192,145388,1,0,1:0:0:0:
139,216,145558,1,2,0:0:0:0:
100,111,145727,1,8,1:0:0:0:
200,58,145896,1,0,1:0:0:0:
200,58,145980,1,0,1:0:0:0:
200,58,146065,6,0,L|310:78,1,103.999995239258,4|2,1:0|0:0,0:0:0:0:
463,164,146403,2,0,L|353:184,1,103.999995239258,8|2,1:0|0:0,0:0:0:0:
206,15,146741,2,0,L|316:35,1,103.999995239258,8|0,1:0|1:0,0:0:0:0:
167,188,147079,1,12,1:0:0:0:
77,28,147248,1,12,1:0:0:0:
77,28,147586,5,6,1:3:0:0:
64,141,147755,1,14,1:3:0:0:
51,254,147924,1,14,1:3:0:0:
154,207,148093,1,6,1:3:0:0:
141,320,148262,1,14,1:3:0:0:
244,276,148431,1,6,1:3:0:0:
257,163,148600,1,6,1:3:0:0:
167,94,148769,1,4,1:0:0:0:
256,192,148853,12,0,154177,0:0:0:0:
