osu file format v14

[General]
AudioFilename: audio.mp3
AudioLeadIn: 0
PreviewTime: 26318
Countdown: 0
SampleSet: Soft
StackLeniency: 0.4
Mode: 0
LetterboxInBreaks: 0
WidescreenStoryboard: 1

[Editor]
Bookmarks: 1389,48712,54121,82515,87924,104149,109558,154177
DistanceSpacing: 1.2
BeatDivisor: 16
GridSize: 4
TimelineZoom: 2

[Metadata]
Title:I Dream (Radio Mix) (Nightcore Mix)
TitleUnicode:I Dream (Radio Mix) (Nightcore Mix)
Artist:Akira
ArtistUnicode:Akira
Creator:Gero
Version:Easy
Source:
Tags:LeomineXD Leomine intiaz Nyantiaz ZekeyHache ezek ReFaller English Electronic Techno Trance Dance Rave Party Happy Hardcore Sped Up Ver.
BeatmapID:3712406
BeatmapSetID:1777388

[Difficulty]
HPDrainRate:2
CircleSize:3
OverallDifficulty:2
ApproachRate:3
SliderMultiplier:0.799999999999999
SliderTickRate:2

[Events]
//Background and Video events
0,0,"BG.jpg",0,0
//Break Periods
2,48912,52681
2,82715,86484
2,104349,108118
//Storyboard Layer 0 (Background)
//Storyboard Layer 1 (Fail)
//Storyboard Layer 2 (Pass)
//Storyboard Layer 3 (Foreground)
//Storyboard Layer 4 (Overlay)
//Storyboard Sound Samples

[TimingPoints]
1389,338.028169014084,4,2,1,60,1,0
1389,-100,4,2,1,60,0,0
1410,-100,4,2,1,5,0,0
4093,-100,4,2,1,60,0,0
9501,-100,4,2,1,60,0,0
14910,-100,4,2,1,60,0,0
27079,-100,4,2,1,60,0,1
34262,-100,4,2,1,5,0,1
34346,-100,4,2,1,60,0,1
34431,-100,4,2,1,5,0,1
34515,-100,4,2,1,60,0,1
34600,-100,4,2,1,5,0,1
34684,-100,4,2,1,60,0,1
34769,-100,4,2,1,5,0,1
34853,-100,4,2,1,60,0,1
37811,-100,4,2,1,60,0,0
37896,-100,4,2,1,80,0,1
48712,-100,4,2,1,30,0,0
51417,-100,4,2,1,40,0,0
54121,-100,4,2,1,50,0,0
56825,-100,4,2,1,40,0,0
58177,-100,4,2,1,50,0,0
59529,-100,4,2,1,70,0,0
60881,-100,4,2,1,80,0,1
62487,-100,4,2,1,5,0,1
62572,-100,4,2,1,80,0,1
62656,-100,4,2,1,5,0,1
62741,-100,4,2,1,80,0,1
62825,-100,4,2,1,5,0,1
62910,-100,4,2,1,80,0,1
62994,-100,4,2,1,5,0,1
63079,-100,4,2,1,80,0,1
63163,-100,4,2,1,5,0,1
63248,-100,4,2,1,80,0,1
63332,-100,4,2,1,5,0,1
63417,-100,4,2,1,80,0,1
63501,-100,4,2,1,5,0,1
63586,-100,4,2,1,80,0,1
65191,-100,4,2,1,5,0,1
65276,-100,4,2,1,80,0,1
65360,-100,4,2,1,5,0,1
65445,-100,4,2,1,80,0,1
65529,-100,4,2,1,5,0,1
65614,-100,4,2,1,80,0,1
65698,-100,4,2,1,5,0,1
65783,-100,4,2,1,80,0,1
65867,-100,4,2,1,5,0,1
65952,-100,4,2,1,80,0,1
66036,-100,4,2,1,5,0,1
66121,-100,4,2,1,80,0,1
66290,-100,4,2,1,80,0,1
67896,-100,4,2,1,5,0,1
67981,-100,4,2,1,80,0,1
68065,-100,4,2,1,5,0,1
68150,-100,4,2,1,80,0,1
68234,-100,4,2,1,5,0,1
68319,-100,4,2,1,80,0,1
68403,-100,4,2,1,5,0,1
68488,-100,4,2,1,80,0,1
68572,-100,4,2,1,5,0,1
68657,-100,4,2,1,80,0,1
68741,-100,4,2,1,5,0,1
68826,-100,4,2,1,80,0,1
71614,-100,4,2,1,80,0,0
71698,-100,4,2,1,80,0,1
73304,-100,4,2,1,5,0,1
73389,-100,4,2,1,80,0,1
73473,-100,4,2,1,5,0,1
73558,-100,4,2,1,80,0,1
73642,-100,4,2,1,5,0,1
73727,-100,4,2,1,80,0,1
73811,-100,4,2,1,5,0,1
73896,-100,4,2,1,80,0,1
73980,-100,4,2,1,5,0,1
74065,-100,4,2,1,80,0,1
74149,-100,4,2,1,5,0,1
74234,-100,4,2,1,80,0,1
74318,-100,4,2,1,5,0,1
74403,-100,4,2,1,80,0,1
76008,-100,4,2,1,5,0,1
76093,-100,4,2,1,80,0,1
76177,-100,4,2,1,5,0,1
76262,-100,4,2,1,80,0,1
76346,-100,4,2,1,5,0,1
76431,-100,4,2,1,80,0,1
76515,-100,4,2,1,5,0,1
76600,-100,4,2,1,80,0,1
76684,-100,4,2,1,5,0,1
76769,-100,4,2,1,80,0,1
76853,-100,4,2,1,5,0,1
76938,-100,4,2,1,80,0,1
77107,-100,4,2,1,60,0,0
79811,-100,4,2,1,60,0,1
82515,-100,4,2,1,70,0,0
87924,-100,4,2,1,70,0,0
91980,-100,4,2,1,70,0,0
93332,-100,4,2,1,70,0,0
109558,-100,4,2,1,65,0,0
114881,-100,4,2,1,60,0,0
124346,-100,4,2,1,5,0,0
124431,-100,4,2,1,60,0,0
125783,-100,4,2,1,70,0,0
125825,-100,4,2,1,5,0,0
126459,-100,4,2,1,70,0,0
126501,-100,4,2,1,5,0,0
127135,-100,4,2,1,80,0,1
128741,-100,4,2,1,5,0,1
128825,-100,4,2,1,80,0,1
128910,-100,4,2,1,5,0,1
128994,-100,4,2,1,80,0,1
129079,-100,4,2,1,5,0,1
129163,-100,4,2,1,80,0,1
129248,-100,4,2,1,5,0,1
129332,-100,4,2,1,80,0,1
129417,-100,4,2,1,5,0,1
129501,-100,4,2,1,80,0,1
129586,-100,4,2,1,5,0,1
129670,-100,4,2,1,80,0,1
129755,-100,4,2,1,5,0,1
129839,-100,4,2,1,80,0,1
131445,-100,4,2,1,5,0,1
131529,-100,4,2,1,80,0,1
131614,-100,4,2,1,5,0,1
131698,-100,4,2,1,80,0,1
131783,-100,4,2,1,5,0,1
131867,-100,4,2,1,80,0,1
131952,-100,4,2,1,5,0,1
132036,-100,4,2,1,80,0,1
132121,-100,4,2,1,5,0,1
132205,-100,4,2,1,80,0,1
132290,-100,4,2,1,5,0,1
132374,-100,4,2,1,80,0,1
134149,-100,4,2,1,5,0,1
134233,-100,4,2,1,80,0,1
134318,-100,4,2,1,5,0,1
134402,-100,4,2,1,80,0,1
134487,-100,4,2,1,5,0,1
134571,-100,4,2,1,80,0,1
134656,-100,4,2,1,5,0,1
134740,-100,4,2,1,80,0,1
134825,-100,4,2,1,5,0,1
134909,-100,4,2,1,80,0,1
134994,-100,4,2,1,5,0,1
135079,-100,4,2,1,80,0,1
135248,-100,4,2,1,80,0,1
137867,-100,4,2,1,80,0,0
137952,-100,4,2,1,80,0,1
139558,-100,4,2,1,5,0,1
139642,-100,4,2,1,80,0,1
139727,-100,4,2,1,5,0,1
139811,-100,4,2,1,80,0,1
139896,-100,4,2,1,5,0,1
139980,-100,4,2,1,80,0,1
140065,-100,4,2,1,5,0,1
140149,-100,4,2,1,80,0,1
140234,-100,4,2,1,5,0,1
140318,-100,4,2,1,80,0,1
140403,-100,4,2,1,5,0,1
140487,-100,4,2,1,80,0,1
140572,-100,4,2,1,5,0,1
140656,-100,4,2,1,80,0,1
142262,-100,4,2,1,5,0,1
142346,-100,4,2,1,80,0,1
142431,-100,4,2,1,5,0,1
142515,-100,4,2,1,80,0,1
142600,-100,4,2,1,5,0,1
142684,-100,4,2,1,80,0,1
142769,-100,4,2,1,5,0,1
142853,-100,4,2,1,80,0,1
142938,-100,4,2,1,5,0,1
143022,-100,4,2,1,80,0,1
143107,-100,4,2,1,5,0,1
143191,-100,4,2,1,80,0,1
144966,-100,4,2,1,5,0,1
145050,-100,4,2,1,80,0,1
145135,-100,4,2,1,5,0,1
145219,-100,4,2,1,80,0,1
145304,-100,4,2,1,5,0,1
145388,-100,4,2,1,80,0,1
145473,-100,4,2,1,5,0,1
145557,-100,4,2,1,80,0,1
145642,-100,4,2,1,5,0,1
145726,-100,4,2,1,80,0,1
148769,-100,4,2,1,80,0,0
148853,-100,4,2,1,5,0,0

[Colours]
Combo1 : 143,199,107
Combo2 : 98,184,202
Combo3 : 177,168,137

[HitObjects]
200,164,1389,6,0,P|256:364|312:164,1,559.999999999999,4|0,1:0|0:0,0:0:0:0:
256,84,4093,5,2,0:0:0:0:
312,4,4431,1,0,0:0:0:0:
368,84,4769,2,0,B|408:84|408:84|436:112,1,79.9999999999999,0|0,0:0|0:0,0:0:0:0:
488,192,5445,6,0,L|316:359,1,240,2|0,0:0|0:0,0:0:0:0:
256,284,6797,2,0,B|235:228|235:228|256:172,2,120,2|0|0,0:0|0:0|0:0,0:0:0:0:
160,284,8149,2,0,B|139:228|139:228|160:172,2,120,2|0|0,0:0|0:0|0:0,0:0:0:0:
64,284,9501,6,0,B|7:228|7:228|64:172,1,160,2|4,0:0|3:0,0:0:0:0:
112,88,10515,1,8,0:0:0:0:
160,172,10853,2,0,L|217:228,1,79.9999999999999,2|8,0:0|0:0,0:0:0:0:
284,160,11529,2,0,L|341:216,1,79.9999999999999,4|8,3:0|0:0,0:0:0:0:
408,148,12205,6,0,B|428:120|412:92|408:92|404:92|388:64|408:36,2,120,2|0|8,0:0|0:0|0:0,0:0:0:0:
475,216,13558,2,0,B|495:244|479:272|475:272|471:272|455:300|475:328,2,120,2|6|8,0:0|3:0|0:0,0:0:0:0:
408,148,14910,6,0,B|328:148|328:148|344:108|328:69,1,160,4|0,0:0|0:0,0:0:0:0:
256,8,15924,1,8,0:0:0:0:
183,69,16262,2,0,B|168:108|184:148|184:148|104:148,1,160,2|0,0:0|0:0,0:0:0:0:
16,192,17276,1,8,0:0:0:0:
104,236,17614,6,0,P|122:292|104:348,2,120,6|2|8,0:0|0:0|0:0,0:0:0:0:
192,192,18966,2,0,B|232:192|232:192|256:160|256:160|280:192|280:192|320:192,1,160,2|4,0:0|3:0,0:0:0:0:
408,236,19980,1,8,0:0:0:0:
496,192,20318,6,0,B|496:132|496:132|496:76|449:48,1,160,8|8,1:2|1:2,0:0:0:0:
408,136,21332,1,8,1:2:0:0:
366,48,21670,2,0,B|320:76|320:132|320:132|320:192,1,160,8|8,1:2|1:2,0:0:0:0:
256,264,22684,1,8,1:2:0:0:
192,192,23022,2,0,B|192:144|192:144|180:124|180:124|180:75,2,120,4|4|4,1:0|1:3|1:3,0:0:0:0:
128,264,24374,6,0,B|132:300|168:328|204:328|204:328|308:328|308:328|344:328|380:300|384:264,1,320,4|4,1:3|1:0,0:0:0:0:
384,264,27079,6,0,B|440:256|474:192|474:192|440:128|384:120,1,240,4|8,1:0|0:0,0:0:0:0:
316,52,28431,2,0,L|196:52,1,120,4|2,3:0|0:1,0:0:0:0:
128,120,29276,1,2,0:1:0:0:
128,264,29783,6,0,L|181:371,2,120,4|0|8,3:0|0:0|0:0,0:0:0:0:
192,192,31135,2,0,P|256:151|320:192,1,160,4|4,3:0|3:0,0:0:0:0:
384,264,32149,1,8,0:0:0:0:
448,192,32487,6,0,B|480:144|456:64|376:64|376:64|317:64,1,240,4|8,1:0|1:2,0:0:0:0:
256,136,33839,1,0,1:0:0:0:
194,64,34177,2,0,L|194:24,2,40,8|2|2,1:2|0:1|1:0,0:0:0:0:
132,136,34853,1,8,1:2:0:0:
194,208,35191,6,0,B|214:236|198:264|194:264|190:264|174:292|194:320,2,120,4|0|8,1:0|0:0|1:2,0:0:0:0:
256,136,36543,1,0,1:0:0:0:
318,208,36881,2,0,L|398:208,2,79.9999999999999,8|0|0,0:0|1:0|0:0,0:0:0:0:
256,136,37896,6,0,B|200:136|200:136|192:128|192:128|139:128,2,120,0|0|8,1:0|0:0|1:2,0:0:0:0:
318,64,39248,2,0,B|376:64|376:64|428:30,1,120,2|2,1:2|0:0,0:0:0:0:
460,120,40093,1,2,0:0:0:0:
460,264,40600,6,0,B|460:296|432:320|404:320|404:320|372:320,2,120,0|0|8,1:0|0:0|1:2,0:0:0:0:
396,192,41952,2,0,B|316:192|316:192|336:160|320:114,1,160,2|0,1:2|1:0,0:0:0:0:
256,44,42966,1,8,1:2:0:0:
191,114,43304,6,0,B|183:153|183:153|191:192,1,79.9999999999999,4|8,1:0|1:2,0:0:0:0:
126,262,43980,2,0,B|134:301|134:301|126:340,1,79.9999999999999,0|8,1:0|1:2,0:0:0:0:
38,301,44656,2,0,L|9:184,2,120,4|0|8,1:0|0:1|1:2,0:0:0:0:
126,262,46008,6,0,B|152:204|228:204|256:250|256:250|284:204|360:204|386:262,2,320,0|0|4,1:0|1:0|1:0,0:0:0:0:
126,262,54121,5,4,1:0:0:0:
256,120,54797,1,0,1:0:0:0:
386,262,55473,1,0,1:0:0:0:
256,120,56149,1,0,1:0:0:0:
126,262,56825,6,0,P|256:341|386:262,2,320,0|0|4,1:0|1:0|3:0,0:0:0:0:
126,262,60881,5,6,1:0:0:0:
64,192,61219,2,0,B|104:128|104:128|188:128,1,160,10|10,1:0|1:0,0:0:0:0:
256,60,62234,1,0,1:0:0:0:
323,128,62572,2,0,B|408:128|408:128|448:192,1,160,8|8,1:0|1:0,0:0:0:0:
385,262,63586,6,0,B|416:292|396:348|348:348|348:348|307:348,1,160,2|2,1:0|1:0,0:0:0:0:
256,268,64600,1,10,1:0:0:0:
204,348,64938,2,0,B|164:348|164:348|116:348|96:292|126:262,1,160,0|0,1:0|1:0,0:0:0:0:
189,192,65952,1,8,1:0:0:0:
126,121,66290,6,0,L|182:65,1,79.9999999999999,6|10,1:0|1:0,0:0:0:0:
278,65,66966,2,0,L|334:8,1,79.9999999999999,2|10,1:0|1:0,0:0:0:0:
402,76,67642,2,0,L|402:244,1,160,0|0,1:0|1:0,0:0:0:0:
480,292,68656,1,8,1:0:0:0:
402,348,68994,6,0,B|366:324|326:344|326:348|326:352|286:372|250:348,1,160,2|2,1:0|1:0,0:0:0:0:
136,192,70346,2,0,B|172:168|212:188|212:192|212:196|252:216|288:192,1,160,0|6,1:0|1:3,0:0:0:0:
326,103,71360,1,0,0:0:0:0:
364,14,71698,6,0,L|476:128,1,160,6|2,1:0|1:0,0:0:0:0:
404,192,72712,1,10,1:0:0:0:
476,255,73050,2,0,L|364:370,1,160,0|0,1:0|1:0,0:0:0:0:
326,281,74065,1,8,1:0:0:0:
289,192,74403,6,0,P|256:173|223:192,2,79.9999999999999,6|10|2,1:0|1:0|1:0,0:0:0:0:
326,103,75417,1,10,1:0:0:0:
363,14,75755,2,0,B|324:-4|276:12|256:42|256:42|236:12|188:-4|149:14,1,240,0|8,1:0|1:0,0:0:0:0:
186,103,77107,5,0,1:0:0:0:
256,280,77783,1,0,1:0:0:0:
326,103,78459,2,0,P|256:70|186:103,1,160,0|4,0:0|3:0,0:0:0:0:
256,192,79811,12,0,81163,0:0:0:0:
256,192,82515,5,4,3:0:0:0:
256,192,87924,6,0,P|304:162|352:192,2,120,4|4|4,3:0|3:0|3:0,0:0:0:0:
188,259,89276,2,0,P|140:229|92:259,2,120,4|4|4,3:0|3:0|3:0,0:0:0:0:
256,326,90628,2,0,P|304:296|352:326,2,120,4|4|4,3:0|3:0|3:0,0:0:0:0:
188,259,91980,5,4,3:0:0:0:
188,259,93332,6,0,P|151:192|188:125,1,160,4|0,1:0|0:0,0:0:0:0:
256,56,94346,1,8,0:0:0:0:
324,125,94684,2,0,P|361:192|324:259,1,160,4|0,3:0|3:0,0:0:0:0:
256,328,95698,1,8,0:0:0:0:
188,259,96036,6,0,B|174:235|174:235|110:235|110:235|96:259,2,120,4|2|8,3:0|0:0|0:0,0:0:0:0:
256,192,97388,2,0,B|323:192|323:192|331:188|331:188|331:196|331:196|339:192|339:192|406:192,1,160,4|4,3:0|3:0,0:0:0:0:
474,123,98403,1,8,0:0:0:0:
405,53,98741,6,0,P|343:16|313:81,1,160,4|0,1:0|0:0,0:0:0:0:
256,158,99755,1,8,0:0:0:0:
197,82,100093,2,0,P|166:17|105:53,1,160,4|4,0:0|3:0,0:0:0:0:
38,123,101107,1,8,0:0:0:0:
106,192,101445,6,0,B|140:192|176:216|176:260|176:260|176:312,1,160,4|0,1:0|1:0,0:0:0:0:
406,192,102797,2,0,B|372:192|336:216|336:260|336:260|336:312,1,160,4|6,3:0|3:0,0:0:0:0:
256,136,104149,1,6,3:0:0:0:
256,136,109558,6,0,P|171:192|256:248,1,240,4|4,3:0|3:0,0:0:0:0:
332,308,110910,2,0,P|358:192|332:76,1,240,4|8,3:0|0:0,0:0:0:0:
256,16,112262,6,0,L|136:16,2,120,4|2|4,3:0|0:0|3:0,0:0:0:0:
332,76,113614,1,4,3:0:0:0:
484,192,114290,1,4,3:0:0:0:
332,308,114966,6,0,B|292:308|292:308|256:326|256:326|220:308|220:308|180:308,1,160,0|0,1:0|1:0,0:0:0:0:
112,240,115980,1,0,1:0:0:0:
180,172,116318,2,0,B|220:172|220:172|256:154|256:154|292:172|292:172|332:172,1,160,0|0,1:0|1:0,0:0:0:0:
400,240,117332,1,0,1:0:0:0:
468,172,117670,2,0,B|488:144|472:116|468:116|464:116|448:88|468:60,2,120,0|0|0,1:0|0:0|1:0,0:0:0:0:
400,240,119022,6,0,L|325:381,1,160,0|0,1:0|1:0,0:0:0:0:
256,316,120036,1,0,1:0:0:0:
186,381,120374,2,0,L|112:240,1,160,0|0,1:0|1:0,0:0:0:0:
28,192,121388,1,0,1:0:0:0:
112,144,121727,2,0,P|164:119|216:144,2,120,0|2|0,1:0|0:0|1:0,0:0:0:0:
256,192,123079,12,0,124346,1:0:0:0:
256,192,124431,12,4,125783,1:0:0:0:
386,122,127135,5,6,1:0:0:0:
448,192,127473,2,0,B|420:192|396:224|396:256|396:256|326:256,1,160,10|10,1:0|1:0,0:0:0:0:
256,324,128487,1,0,1:0:0:0:
185,256,128825,2,0,B|116:256|116:256|116:224|92:192|64:192,1,160,8|8,1:0|1:0,0:0:0:0:
126,121,129839,6,0,P|131:47|204:35,1,160,6|2,1:0|1:0,0:0:0:0:
256,116,130853,1,10,1:0:0:0:
307,35,131191,2,0,P|380:47|385:121,1,160,0|0,1:0|1:0,0:0:0:0:
323,192,132205,1,8,0:0:0:0:
386,263,132543,6,0,L|330:319,1,79.9999999999999,6|10,1:0|1:0,0:0:0:0:
234,319,133219,2,0,L|178:376,1,79.9999999999999,2|10,1:0|1:0,0:0:0:0:
110,308,133896,2,0,L|110:140,1,160,0|0,1:0|1:0,0:0:0:0:
32,92,134910,1,8,1:0:0:0:
110,36,135248,6,0,B|186:11|186:11|262:36,1,160,4|8,1:0|1:0,0:0:0:0:
376,192,136600,2,0,B|300:217|300:217|224:192,1,160,4|4,1:0|3:0,0:0:0:0:
186,281,137614,1,4,3:0:0:0:
147,369,137952,6,0,P|76:336|45:265,1,160,6|2,1:0|1:0,0:0:0:0:
108,192,138966,1,10,1:0:0:0:
45,118,139304,2,0,P|76:47|147:14,1,160,0|0,1:0|1:0,0:0:0:0:
186,103,140318,1,8,1:0:0:0:
223,192,140656,6,0,B|256:215|256:215|289:192,2,79.9999999999999,6|10|6,1:0|1:0|1:0,0:0:0:0:
186,281,141670,1,10,1:0:0:0:
149,370,142008,2,0,B|188:388|236:372|256:342|256:342|276:372|324:388|363:370,1,240,4|8,1:0|1:0,0:0:0:0:
326,281,143360,6,0,P|363:214|326:147,1,160,6|2,1:0|1:0,0:0:0:0:
256,80,144374,1,10,1:0:0:0:
186,147,144712,2,0,P|149:214|186:281,1,160,4|0,1:0|1:0,0:0:0:0:
256,348,145727,1,8,1:0:0:0:
326,281,146065,6,0,B|365:289|365:289|404:281,1,79.9999999999999,4|8,1:0|1:0,0:0:0:0:
444,192,146741,2,0,L|488:80,2,120,8|12|14,1:0|1:0|1:3,0:0:0:0:
372,128,148093,2,0,B|332:128|332:128|303:99,1,79.9999999999999,6|6,1:3|1:3,0:0:0:0:
256,16,148769,5,4,1:0:0:0:
256,192,148938,12,0,154177,0:0:0:0:
