osu file format v14

[General]
AudioFilename: audio.ogg
AudioLeadIn: 0
PreviewTime: 26251
Countdown: 0
SampleSet: Normal
StackLeniency: 0
Mode: 1
LetterboxInBreaks: 0
WidescreenStoryboard: 1

[Editor]
DistanceSpacing: 1.5
BeatDivisor: 4
GridSize: 16
TimelineZoom: 1.8

[Metadata]
Title:Cat Loving
TitleUnicode:キャットラビング
Artist:Akina
ArtistUnicode:秋奈
Creator:liku
Version:Kantan
Source:
Tags:Hivie 香椎モイミ Moimi Kashii Rubbing 神椿スタジオ KAMITSUBAKI STUDIO カバー Cover 歌ってみた Utattemita Japanese Pop Jpop J-Pop KAFU 可不 Cevio AI
BeatmapID:4029678
BeatmapSetID:1947455

[Difficulty]
HPDrainRate:8
CircleSize:5
OverallDifficulty:3
ApproachRate:5
SliderMultiplier:1.3
SliderTickRate:1

[Events]
//Background and Video events
0,0,"nyan.jpg",0,40
//Break Periods
//Storyboard Layer 0 (Background)
//Storyboard Layer 1 (Fail)
//Storyboard Layer 2 (Pass)
//Storyboard Layer 3 (Foreground)
//Storyboard Layer 4 (Overlay)
//Storyboard Sound Samples

[TimingPoints]
123,368.098159509202,4,1,0,70,1,0
3067,368.098159509202,4,1,0,70,1,0
26625,-100,4,1,0,70,0,1
42637,-100,4,1,0,70,0,0
92882,368.098159509202,4,1,0,70,1,0
95826,-100,4,1,0,70,0,1
109078,-100,4,1,0,70,0,0

[HitObjects]
216,120,3067,5,0,0:0:0:0:
211,122,3803,1,8,0:0:0:0:
205,126,4539,1,0,0:0:0:0:
205,126,4907,1,0,0:0:0:0:
205,126,5275,1,8,0:0:0:0:
205,126,6011,1,0,0:0:0:0:
109,182,6747,1,8,0:0:0:0:
125,155,7116,1,8,0:0:0:0:
109,182,7484,1,8,0:0:0:0:
202,130,8956,1,0,0:0:0:0:
202,130,9692,1,0,0:0:0:0:
123,158,10428,1,8,0:0:0:0:
123,158,10797,1,8,0:0:0:0:
202,130,11165,1,0,0:0:0:0:
143,162,11901,1,8,0:0:0:0:
202,130,12637,1,0,0:0:0:0:
202,130,13373,1,0,0:0:0:0:
202,130,13741,1,0,0:0:0:0:
143,161,14109,1,8,0:0:0:0:
143,161,14478,1,8,0:0:0:0:
143,161,14846,1,4,0:0:0:0:
271,110,15398,1,12,0:0:0:0:
260,124,16318,1,12,0:0:0:0:
260,124,16870,1,4,0:0:0:0:
255,118,17790,1,4,0:0:0:0:
255,118,18343,1,12,0:0:0:0:
242,143,19263,1,0,0:0:0:0:
244,147,20735,1,4,0:0:0:0:
244,147,21287,1,4,0:0:0:0:
244,147,22208,1,12,0:0:0:0:
244,147,22760,1,12,0:0:0:0:
244,147,23680,1,4,0:0:0:0:
244,147,24232,1,12,0:0:0:0:
110,153,24784,1,8,0:0:0:0:
234,157,25152,1,0,0:0:0:0:
192,97,26625,1,4,0:0:0:0:
192,97,27361,1,8,0:0:0:0:
192,97,27913,1,0,0:0:0:0:
192,97,28281,1,0,0:0:0:0:
192,97,28833,1,8,0:0:0:0:
192,97,29570,1,8,0:0:0:0:
192,97,30306,1,0,0:0:0:0:
151,137,30858,1,8,0:0:0:0:
175,118,32146,1,8,0:0:0:0:
102,130,32514,1,4,0:0:0:0:
102,130,33251,1,8,0:0:0:0:
102,130,33987,1,8,0:0:0:0:
102,130,34355,1,0,0:0:0:0:
102,130,34723,1,8,0:0:0:0:
102,130,35459,1,8,0:0:0:0:
83,95,36195,1,0,0:0:0:0:
102,115,36747,1,8,0:0:0:0:
164,177,38036,1,8,0:0:0:0:
102,115,38404,1,4,0:0:0:0:
91,121,39140,1,8,0:0:0:0:
135,181,39508,1,8,0:0:0:0:
91,121,39876,1,0,0:0:0:0:
91,121,40244,1,0,0:0:0:0:
91,121,40613,1,8,0:0:0:0:
91,121,41349,1,0,0:0:0:0:
91,121,41717,1,0,0:0:0:0:
91,121,42453,1,8,0:0:0:0:
156,166,42637,1,8,0:0:0:0:
56,115,44293,1,4,0:0:0:0:
121,203,45030,1,8,0:0:0:0:
121,203,45582,1,0,0:0:0:0:
207,164,45950,1,8,0:0:0:0:
121,203,46502,1,8,0:0:0:0:
165,175,47606,1,8,0:0:0:0:
115,203,47974,1,8,0:0:0:0:
115,203,48527,1,0,0:0:0:0:
115,203,49447,1,8,0:0:0:0:
115,203,50183,1,4,0:0:0:0:
195,188,50551,1,8,0:0:0:0:
115,203,50919,1,8,0:0:0:0:
115,203,51471,1,0,0:0:0:0:
115,203,52392,1,8,0:0:0:0:
115,203,52760,1,0,0:0:0:0:
115,203,53496,1,0,0:0:0:0:
115,203,53864,1,0,0:0:0:0:
61,105,54416,1,8,0:0:0:0:
174,84,56073,1,0,0:0:0:0:
156,171,56441,1,8,0:0:0:0:
166,109,56809,1,8,0:0:0:0:
156,171,57177,1,0,0:0:0:0:
171,112,57545,1,8,0:0:0:0:
162,114,58097,1,8,0:0:0:0:
149,114,58649,1,8,0:0:0:0:
149,114,59017,1,0,0:0:0:0:
149,114,59386,1,8,0:0:0:0:
143,115,60490,1,8,0:0:0:0:
143,115,60858,1,0,0:0:0:0:
143,115,61226,1,8,0:0:0:0:
146,98,61594,1,8,0:0:0:0:
188,68,62330,1,0,0:0:0:0:
143,115,62698,1,8,0:0:0:0:
181,72,63066,1,8,0:0:0:0:
143,115,63435,1,0,0:0:0:0:
143,115,63987,1,8,0:0:0:0:
143,115,64539,1,0,0:0:0:0:
112,134,64907,1,8,0:0:0:0:
132,134,65643,1,0,0:0:0:0:
134,159,66195,1,8,0:0:0:0:
82,149,66563,1,8,0:0:0:0:
91,146,66932,1,0,0:0:0:0:
167,227,67852,1,4,0:0:0:0:
167,227,68404,1,12,0:0:0:0:
161,227,69324,1,12,0:0:0:0:
161,227,69876,1,4,0:0:0:0:
161,227,70797,1,12,0:0:0:0:
102,157,71349,1,4,0:0:0:0:
102,157,71901,1,8,0:0:0:0:
102,157,72269,1,0,0:0:0:0:
92,160,73741,1,4,0:0:0:0:
92,160,74293,1,4,0:0:0:0:
90,166,75214,1,12,0:0:0:0:
90,166,75766,1,12,0:0:0:0:
90,166,76686,1,4,0:0:0:0:
90,166,77238,1,12,0:0:0:0:
106,164,77790,1,0,0:0:0:0:
90,166,78159,1,8,0:0:0:0:
94,174,79631,1,0,0:0:0:0:
94,174,80367,1,8,0:0:0:0:
94,174,81103,1,0,0:0:0:0:
94,174,81840,1,8,0:0:0:0:
94,174,82576,1,8,0:0:0:0:
94,174,82944,1,0,0:0:0:0:
141,100,83680,1,8,0:0:0:0:
94,174,84416,1,0,0:0:0:0:
94,174,84784,1,8,0:0:0:0:
94,174,85520,1,0,0:0:0:0:
88,174,86257,1,8,0:0:0:0:
88,174,86625,1,0,0:0:0:0:
145,131,87361,1,0,0:0:0:0:
88,174,87729,1,8,0:0:0:0:
88,174,88465,1,0,0:0:0:0:
97,186,88833,1,0,0:0:0:0:
88,174,89201,1,8,0:0:0:0:
97,186,89570,1,8,0:0:0:0:
72,199,91410,1,8,0:0:0:0:
72,199,91778,1,0,0:0:0:0:
72,199,92146,1,8,0:0:0:0:
72,199,92882,1,0,0:0:0:0:
72,199,93618,1,8,0:0:0:0:
72,199,94354,1,0,0:0:0:0:
72,199,94722,1,0,0:0:0:0:
72,199,95090,1,8,0:0:0:0:
72,199,95826,1,4,0:0:0:0:
68,203,96562,1,8,0:0:0:0:
68,203,97115,1,8,0:0:0:0:
68,203,97667,1,0,0:0:0:0:
68,203,98035,1,8,0:0:0:0:
119,178,98771,1,4,0:0:0:0:
119,178,99507,1,8,0:0:0:0:
119,178,100243,1,0,0:0:0:0:
119,178,100612,1,0,0:0:0:0:
119,178,100980,1,8,0:0:0:0:
119,178,101716,1,8,0:0:0:0:
111,180,102452,1,0,0:0:0:0:
111,180,103004,1,8,0:0:0:0:
111,180,103556,1,8,0:0:0:0:
105,182,103924,1,0,0:0:0:0:
105,182,104661,1,4,0:0:0:0:
100,185,105397,1,8,0:0:0:0:
186,195,105765,1,8,0:0:0:0:
100,185,106133,1,0,0:0:0:0:
100,185,106501,1,8,0:0:0:0:
100,185,106869,1,0,0:0:0:0:
100,185,107605,1,0,0:0:0:0:
179,229,107974,1,0,0:0:0:0:
94,186,108710,1,8,0:0:0:0:
109,138,108894,1,8,0:0:0:0:
93,189,110550,1,0,0:0:0:0:
87,191,110918,1,0,0:0:0:0:
93,189,111286,1,8,0:0:0:0:
87,191,111655,1,8,0:0:0:0:
87,191,112391,1,0,0:0:0:0:
87,191,112759,1,8,0:0:0:0:
87,191,113127,1,4,0:0:0:0:
