osu file format v14

[General]
AudioFilename: audio.mp3
AudioLeadIn: 0
PreviewTime: 26355
Countdown: 0
SampleSet: Soft
StackLeniency: 0.7
Mode: 0
LetterboxInBreaks: 0
WidescreenStoryboard: 1

[Editor]
DistanceSpacing: 1
BeatDivisor: 4
GridSize: 16
TimelineZoom: 1.7

[Metadata]
Title:Cat Loving
TitleUnicode:キャットラビング
Artist:Akina
ArtistUnicode:秋奈
Creator:Amia
Version:Normal
Source:
Tags:香椎モイミ Moimi Kashii Rubbing 神椿スタジオ KAMITSUBAKI STUDIO カバー Cover 歌ってみた Utattemita Keysound Piano TikTok xianoll -Amia- Japanese Pop Jpop J-Pop
BeatmapID:3471426
BeatmapSetID:1698928

[Difficulty]
HPDrainRate:4
CircleSize:3.4
OverallDifficulty:4.5
ApproachRate:5.5
SliderMultiplier:1.1
SliderTickRate:1

[Events]
//Background and Video events
0,0,"nyan.jpg",0,0
//Break Periods
//Storyboard Layer 0 (Background)
//Storyboard Layer 1 (Fail)
//Storyboard Layer 2 (Pass)
//Storyboard Layer 3 (Foreground)
//Storyboard Layer 4 (Overlay)
//Storyboard Sound Samples

[TimingPoints]
129,368.098159509202,4,2,6,60,1,0
129,-117.647058823529,4,2,6,60,0,0
3073,368.098159509202,4,2,6,60,1,0
3073,-111.111111111111,4,2,6,60,0,0
14852,-105.263157894737,4,2,6,70,0,0
26631,-100,4,2,30,80,0,1
26815,-100,4,2,32,80,0,1
27183,-100,4,2,33,80,0,1
27367,-100,4,2,15,80,0,1
27735,-100,4,2,30,80,0,1
28287,-100,4,2,32,80,0,1
28655,-100,4,2,33,80,0,1
28839,-100,4,2,15,80,0,1
29576,-100,4,2,33,80,0,1
29760,-100,4,2,32,80,0,1
29944,-100,4,2,33,80,0,1
30128,-100,4,2,32,80,0,1
30220,-100,4,2,33,80,0,1
30496,-100,4,2,32,80,0,1
30680,-100,4,2,33,80,0,1
30864,-100,4,2,15,80,0,1
31232,-100,4,2,33,80,0,1
31416,-100,4,2,32,80,0,1
31600,-100,4,2,13,80,0,1
31784,-100,4,2,32,80,0,1
32520,-100,4,2,30,80,0,1
32704,-100,4,2,32,80,0,1
33072,-100,4,2,33,80,0,1
33257,-100,4,2,15,80,0,1
33625,-100,4,2,30,80,0,1
34177,-100,4,2,32,80,0,1
34545,-100,4,2,33,80,0,1
34729,-100,4,2,15,80,0,1
35465,-100,4,2,35,80,0,1
35649,-100,4,2,33,80,0,1
36017,-100,4,2,32,80,0,1
36109,-100,4,2,13,80,0,1
36385,-100,4,2,32,80,0,1
36569,-100,4,2,33,80,0,1
36753,-100,4,2,15,80,0,1
37122,-100,4,2,33,80,0,1
37306,-100,4,2,32,80,0,1
37490,-100,4,2,13,80,0,1
37674,-100,4,2,32,80,0,1
38410,-100,4,2,13,80,0,1
38594,-100,4,2,30,80,0,1
38778,-100,4,2,13,80,0,1
38962,-100,4,2,30,80,0,1
39054,-100,4,2,13,80,0,1
39330,-100,4,2,30,80,0,1
39514,-100,4,2,9,80,0,1
39698,-100,4,2,8,80,0,1
40066,-100,4,2,9,80,0,1
40250,-100,4,2,30,80,0,1
40434,-100,4,2,8,80,0,1
40619,-100,4,2,27,80,0,1
40987,-100,4,2,32,80,0,1
41355,-100,4,2,13,80,0,1
41539,-100,4,2,30,80,0,1
41723,-100,4,2,13,80,0,1
41907,-100,4,2,30,80,0,1
41999,-100,4,2,13,80,0,1
42275,-100,4,2,32,80,0,1
42459,-100,4,2,33,80,0,1
42643,-100,4,2,32,80,0,1
43379,-100,4,2,13,80,0,1
43563,-100,4,2,32,80,0,1
43931,-100,4,2,6,80,0,1
44299,-117.647058823529,4,2,6,70,0,0
56079,-111.111111111111,4,2,6,70,0,0
67858,-105.263157894737,4,2,6,70,0,0
79637,-125,4,2,6,70,0,0
85526,-117.647058823529,4,2,6,70,0,0
88471,-111.111111111111,4,2,6,70,0,0
92888,368.098159509202,4,2,6,70,1,0
92888,-100,4,2,6,70,0,0
95832,-100,4,2,15,80,0,1
96016,-100,4,2,14,80,0,1
96200,-100,4,2,15,80,0,1
96384,-100,4,2,14,80,0,1
96478,-100,4,2,15,80,0,1
96753,-100,4,2,14,80,0,1
96937,-100,4,2,15,80,0,1
97121,-100,4,2,34,80,0,1
97489,-100,4,2,15,80,0,1
97673,-100,4,2,14,80,0,1
97857,-100,4,2,32,80,0,1
98041,-100,4,2,14,80,0,1
98777,-100,4,2,11,80,0,1
98961,-100,4,2,14,80,0,1
99329,-100,4,2,15,80,0,1
99513,-100,4,2,34,80,0,1
99881,-100,4,2,11,80,0,1
100434,-100,4,2,14,80,0,1
100802,-100,4,2,15,80,0,1
100986,-100,4,2,34,80,0,1
101722,-100,4,2,18,80,0,1
101906,-100,4,2,15,80,0,1
102274,-100,4,2,14,80,0,1
102368,-100,4,2,32,80,0,1
102642,-100,4,2,14,80,0,1
102826,-100,4,2,15,80,0,1
103010,-100,4,2,34,80,0,1
103378,-100,4,2,15,80,0,1
103562,-100,4,2,14,80,0,1
103746,-100,4,2,32,80,0,1
103932,-100,4,2,14,80,0,1
104668,-100,4,2,32,80,0,1
104852,-100,4,2,11,80,0,1
105036,-100,4,2,32,80,0,1
105221,-100,4,2,11,80,0,1
105313,-100,4,2,32,80,0,1
105589,-100,4,2,11,80,0,1
105773,-100,4,2,10,80,0,1
105957,-100,4,2,29,80,0,1
106325,-100,4,2,10,80,0,1
106509,-100,4,2,11,80,0,1
106693,-100,4,2,29,80,0,1
106877,-100,4,2,7,80,0,1
107245,-100,4,2,14,80,0,1
107613,-100,4,2,32,80,0,1
107797,-100,4,2,11,80,0,1
107981,-100,4,2,32,80,0,1
108165,-100,4,2,11,80,0,1
108257,-100,4,2,32,80,0,1
108533,-100,4,2,11,80,0,1
108717,-100,4,2,32,80,0,1
108902,-100,4,2,11,80,0,1
109086,-100,4,2,14,80,0,1
109454,-100,4,2,34,80,0,1
109822,-100,4,2,15,80,0,1
110190,-100,4,2,32,80,0,1
110556,-111.111111111111,4,2,6,70,0,0

[Colours]
Combo1 : 215,96,132
Combo2 : 154,131,116
Combo3 : 154,147,174
Combo4 : 233,206,194

[HitObjects]
27,33,129,6,0,P|14:76|41:112,1,93.500001783371,2|2,0:2|0:2,0:0:0:0:
135,153,865,2,0,P|147:196|120:232,1,93.500001783371,2|2,0:2|0:2,0:0:0:0:
68,321,1601,2,0,L|159:339,1,93.500001783371,2|2,0:2|0:2,0:0:0:0:
205,372,2153,1,2,0:2:0:0:
205,372,2337,1,2,0:2:0:0:
264,287,2705,1,8,0:2:0:0:
355,343,3073,6,0,P|403:337|429:297,1,98.9999969787599,6|2,3:2|3:2,0:0:0:0:
467,259,3625,1,2,0:2:0:0:
467,259,3809,2,0,L|442:163,1,98.9999969787599,2|0,3:2|3:2,0:0:0:0:
395,64,4545,2,0,B|342:60|342:60|311:94,1,98.9999969787599,2|2,3:2|3:2,0:0:0:0:
265,119,5097,1,2,0:2:0:0:
265,119,5281,2,0,P|219:98|171:87,1,98.9999969787599,2|0,3:2|3:2,0:0:0:0:
87,18,6017,5,2,3:2:0:0:
4,89,6385,2,0,L|19:136,1,49.4999984893799,2|2,3:2|0:2,0:0:0:0:
56,175,6753,2,0,P|27:214|20:263,1,98.9999969787599,2|2,3:2|3:2,0:0:0:0:
62,363,7490,2,0,L|109:347,1,49.4999984893799,2|2,3:2|0:2,0:0:0:0:
148,309,7858,1,2,3:2:0:0:
234,375,8226,2,0,L|329:347,1,98.9999969787599,2|0,3:2|3:2,0:0:0:0:
360,243,8962,6,0,B|377:179|377:179|360:150,1,98.9999969787599,6|2,3:2|3:2,0:0:0:0:
332,110,9514,1,2,0:2:0:0:
332,110,9698,2,0,P|289:86|229:78,1,98.9999969787599,2|0,3:2|3:2,0:0:0:0:
150,17,10434,2,0,P|110:43|105:91,1,98.9999969787599,2|2,3:2|3:2,0:0:0:0:
62,122,10987,1,2,0:2:0:0:
62,122,11171,2,0,L|42:218,1,98.9999969787599,2|0,3:2|3:2,0:0:0:0:
37,328,11907,5,2,3:2:0:0:
137,286,12275,2,0,L|187:275,1,49.4999984893799,2|2,3:2|0:2,0:0:0:0:
227,241,12643,1,2,3:2:0:0:
315,304,13011,2,0,L|365:293,1,49.4999984893799,2|2,3:2|0:2,0:0:0:0:
414,311,13379,2,0,L|437:214,1,98.9999969787599,2|2,3:2|3:2,0:0:0:0:
474,175,13931,1,2,0:2:0:0:
474,175,14115,1,2,3:2:0:0:
418,79,14484,1,10,0:2:0:0:
334,157,14852,6,0,P|308:157|286:171,1,52.2499986047745,6|2,1:2|1:2,0:0:0:0:
267,228,15220,1,2,0:2:0:0:
267,228,15404,2,0,L|163:244,1,104.499997209549,2|2,1:2|3:2,0:0:0:0:
115,213,15956,1,2,1:2:0:0:
55,114,16324,2,0,L|70:64,1,52.2499986047745,6|2,1:2|1:2,0:0:0:0:
113,25,16692,1,2,0:2:0:0:
113,25,16876,2,0,P|163:36|209:60,1,104.499997209549,2|2,1:2|3:2,0:0:0:0:
247,104,17428,1,2,1:2:0:0:
343,41,17796,6,0,L|393:27,1,52.2499986047745,6|2,1:2|1:2,0:0:0:0:
453,42,18165,1,2,0:2:0:0:
453,42,18349,2,0,P|490:76|489:127,1,104.499997209549,2|2,1:2|3:2,0:0:0:0:
470,181,18901,1,2,1:2:0:0:
381,253,19269,2,0,B|334:241|334:241|328:247|328:247|281:236,1,104.499997209549,6|2,1:2|1:2,0:0:0:0:
245,345,20005,2,0,B|198:355|198:355|192:349|192:349|145:361,1,104.499997209549,2|2,1:2|1:2,0:0:0:0:
64,280,20741,6,0,P|46:257|41:233,1,52.2499986047745,6|2,1:2|1:2,0:0:0:0:
3,198,21109,1,2,0:2:0:0:
3,198,21293,2,0,L|41:100,1,104.499997209549,2|2,1:2|3:2,0:0:0:0:
25,51,21846,1,2,1:2:0:0:
132,9,22214,2,0,L|181:25,1,52.2499986047745,6|2,1:2|1:2,0:0:0:0:
215,78,22582,1,2,0:2:0:0:
215,78,22766,2,0,L|317:57,1,104.499997209549,2|2,1:2|3:2,0:0:0:0:
362,22,23318,1,2,1:2:0:0:
444,102,23686,6,0,L|432:152,1,52.2499986047745,6|2,1:2|0:2,0:0:0:0:
445,208,24054,1,2,1:2:0:0:
330,194,24422,2,0,L|341:244,1,52.2499986047745,2|2,1:2|3:2,0:0:0:0:
329,300,24790,1,2,1:2:0:0:
238,370,25158,2,0,P|211:343|209:317,1,52.2499986047745,2|2,3:1|0:1,0:0:0:0:
168,288,25526,2,0,P|168:249|184:230,1,52.2499986047745,2|2,3:1|0:1,0:0:0:0:
212,195,25895,1,2,3:1:0:0:
138,106,26263,1,0,3:2:0:0:
27,156,26631,6,0,L|36:210,1,55,6|2,1:2|3:2,0:0:0:0:
81,241,26999,2,0,L|71:295,1,55,2|2,1:2|3:2,0:0:0:0:
45,343,27367,1,2,1:2:0:0:
155,374,27735,1,2,1:2:0:0:
155,374,27919,2,0,L|260:344,1,110,2|2,3:2|3:2,0:0:0:0:
304,310,28471,2,0,L|370:327,1,55,2|2,1:2|3:2,0:0:0:0:
396,361,28839,1,2,1:2:0:0:
491,305,29207,1,2,1:2:0:0:
482,195,29576,6,0,L|428:182,1,55,2|2,1:2|3:2,0:0:0:0:
395,139,29944,2,0,L|314:155,2,82.5,2|2|2,1:2|0:2|3:2,0:0:0:0:
436,102,30680,1,2,1:2:0:0:
436,102,30864,2,0,P|439:49|396:17,1,110,2|2,3:2|3:2,0:0:0:0:
342,10,31416,1,2,1:2:0:0:
237,43,31784,1,10,1:2:0:0:
253,151,32152,2,0,L|305:133,1,55,14|8,1:2|3:0,0:0:0:0:
356,152,32520,6,0,P|372:175|377:202,1,55,6|2,1:2|3:2,0:0:0:0:
343,245,32888,2,0,P|328:267|323:294,1,55,2|2,1:2|3:2,0:0:0:0:
343,345,33257,1,2,1:2:0:0:
239,383,33625,2,0,L|133:350,1,110,2|2,1:2|1:2,0:0:0:0:
83,342,34177,1,2,3:2:0:0:
83,342,34361,2,0,L|74:287,1,55,2|2,1:2|3:2,0:0:0:0:
98,238,34729,1,2,1:2:0:0:
12,168,35097,1,2,1:2:0:0:
91,92,35465,6,0,L|158:107,1,55,2|2,1:2|3:2,0:0:0:0:
189,135,35833,2,0,P|199:173|182:210,2,82.5,2|2|2,1:2|0:2|3:2,0:0:0:0:
233,101,36569,1,2,1:2:0:0:
233,101,36753,2,0,P|284:82|338:73,1,110,2|2,3:2|1:2,0:0:0:0:
377,30,37306,1,2,1:2:0:0:
475,79,37674,1,2,1:2:0:0:
422,175,38042,2,0,L|436:228,1,55,14|8,1:2|0:2,0:0:0:0:
441,282,38410,6,0,P|416:294|389:294,1,55,6|2,1:2|2:2,0:0:0:0:
336,278,38778,2,0,P|325:238|309:199,2,82.5,2|2|2,1:2|0:2|3:2,0:0:0:0:
300,320,39514,1,2,1:2:0:0:
192,341,39882,6,0,P|172:321|167:295,1,55,2|2,1:2|3:2,0:0:0:0:
132,252,40250,2,0,P|131:224|146:202,1,55,2|2,1:2|3:2,0:0:0:0:
152,146,40619,2,0,P|171:126|197:121,1,55,2|0,1:2|3:0,0:0:0:0:
251,116,40987,1,2,1:2:0:0:
289,12,41355,6,0,L|342:0,1,55,2|2,1:2|3:2,0:0:0:0:
391,24,41723,2,0,P|431:21|465:44,2,82.5,2|2|2,1:2|0:2|0:2,0:0:0:0:
370,77,42459,1,2,1:2:0:0:
370,77,42643,1,2,1:2:0:0:
329,179,43011,2,0,L|221:155,1,110,2|2,0:2|0:2,0:0:0:0:
168,141,43563,1,2,0:2:0:0:
64,296,44299,5,4,3:2:0:0:
65,202,44668,6,0,L|154:228,1,93.500001783371,2|2,3:2|3:2,0:0:0:0:
168,325,45404,1,2,3:2:0:0:
168,325,45588,2,0,L|257:298,1,93.500001783371,2|2,0:2|0:2,0:0:0:0:
346,264,46324,1,2,0:2:0:0:
346,264,46508,2,0,P|369:264|388:276,1,46.7500008916855,0|2,3:2|0:2,0:0:0:0:
408,318,46876,1,2,3:2:0:0:
485,265,47244,5,0,3:2:0:0:
503,173,47612,2,0,P|484:159|461:152,1,46.7500008916855,2|2,3:2|0:2,0:0:0:0:
427,121,47980,2,0,P|404:124|383:135,1,46.7500008916855,2|2,3:2|0:2,0:0:0:0:
299,176,48533,2,0,L|253:186,1,46.7500008916855,2|0,0:2|3:2,0:0:0:0:
215,213,48901,1,2,0:2:0:0:
133,179,49269,1,2,0:2:0:0:
133,179,49453,2,0,P|113:168|100:149,1,46.7500008916855,2|2,3:2|0:2,0:0:0:0:
70,112,49821,1,2,3:2:0:0:
103,24,50189,5,4,3:2:0:0:
180,75,50557,2,0,L|225:62,1,46.7500008916855,2|2,3:2|0:2,0:0:0:0:
257,29,50925,2,0,L|302:41,1,46.7500008916855,2|2,3:2|0:2,0:0:0:0:
344,71,51293,1,2,3:2:0:0:
344,71,51477,1,2,0:2:0:0:
432,38,51846,2,0,P|459:74|452:119,1,93.500001783371,2|2,0:2|0:2,0:0:0:0:
419,153,52398,2,0,L|430:198,1,46.7500008916855,2|2,3:2|0:2,0:0:0:0:
472,218,52766,2,0,P|456:263|445:308,1,93.500001783371,2|0,3:2|3:2,0:0:0:0:
361,349,53502,6,0,L|315:337,1,46.7500008916855,2|2,3:2|0:2,0:0:0:0:
276,362,53870,2,0,L|230:350,1,46.7500008916855,2|2,3:2|0:2,0:0:0:0:
189,364,54238,1,8,1:2:0:0:
189,364,54422,1,10,3:2:0:0:
110,312,54790,2,0,P|104:289|95:267,1,46.7500008916855,2|0,3:2|3:2,0:0:0:0:
87,226,55158,1,2,3:2:0:0:
87,226,55342,1,2,3:2:0:0:
137,147,55711,2,0,P|159:152|181:161,1,46.7500008916855,10|8,1:2|1:3,0:0:0:0:
226,180,56079,5,6,3:2:0:0:
313,226,56447,2,0,L|361:214,1,49.4999984893799,2|2,3:2|0:2,0:0:0:0:
408,226,56815,2,0,P|450:204|458:157,1,98.9999969787599,2|2,3:2|3:2,0:0:0:0:
454,111,57367,1,2,0:2:0:0:
454,111,57551,2,0,L|357:89,1,98.9999969787599,2|2,3:2|3:2,0:0:0:0:
326,50,58103,1,2,0:2:0:0:
246,106,58471,1,2,0:2:0:0:
246,106,58655,2,0,L|240:155,1,49.4999984893799,2|2,3:2|0:2,0:0:0:0:
198,181,59023,5,2,3:2:0:0:
103,210,59392,2,0,P|83:254|96:300,1,98.9999969787599,2|0,3:2|3:2,0:0:0:0:
124,347,59944,1,2,0:2:0:0:
124,347,60128,1,2,3:2:0:0:
199,283,60496,2,0,L|293:313,1,98.9999969787599,2|2,3:2|3:2,0:0:0:0:
326,356,61048,1,2,0:2:0:0:
326,356,61232,1,2,3:2:0:0:
389,280,61600,2,0,P|376:258|373:234,1,49.4999984893799,2|0,3:2|0:2,0:0:0:0:
400,193,61968,5,4,3:2:0:0:
464,117,62336,2,0,L|445:69,1,49.4999984893799,2|2,3:2|0:2,0:0:0:0:
417,30,62704,2,0,P|375:7|330:24,1,98.9999969787599,2|2,3:2|3:2,0:0:0:0:
249,81,63441,2,0,L|191:58,1,49.4999984893799,2|2,3:2|0:2,0:0:0:0:
163,42,63809,1,2,3:2:0:0:
163,42,63993,1,2,0:2:0:0:
78,92,64361,1,2,0:2:0:0:
78,92,64545,2,0,L|55:150,1,49.4999984893799,2|2,3:2|0:2,0:0:0:0:
21,169,64913,6,0,L|57:261,1,98.9999969787599,2|2,3:2|3:2,0:0:0:0:
71,359,65649,2,0,L|117:341,1,49.4999984893799,2|2,3:2|0:2,0:0:0:0:
170,348,66017,1,2,3:2:0:0:
170,348,66201,1,2,0:2:0:0:
224,265,66569,1,2,0:2:0:0:
310,313,66938,2,0,P|357:295|405:284,1,98.9999969787599,2|2,0:2|0:2,0:0:0:0:
433,243,67490,1,10,0:2:0:0:
385,137,67858,6,0,P|367:119|355:96,1,52.2499986047745,6|2,1:2|1:2,0:0:0:0:
322,54,68226,1,2,0:2:0:0:
322,54,68410,2,0,B|266:50|266:50|231:83,1,104.499997209549,2|2,1:2|3:2,0:0:0:0:
179,108,68962,1,2,1:2:0:0:
219,216,69330,2,0,L|206:273,1,52.2499986047745,6|2,1:2|1:2,0:0:0:0:
219,327,69698,1,2,0:2:0:0:
219,327,69882,2,0,L|119:358,1,104.499997209549,2|2,1:2|3:2,0:0:0:0:
66,336,70434,1,2,1:2:0:0:
12,233,70803,6,0,L|23:181,1,52.2499986047745,6|2,1:2|1:2,0:0:0:0:
17,129,71171,1,2,0:2:0:0:
17,129,71355,2,0,P|63:103|114:90,1,104.499997209549,2|2,1:2|3:2,0:0:0:0:
149,46,71907,1,2,1:2:0:0:
262,30,72275,2,0,B|281:62|281:62|263:131,1,104.499997209549,6|2,1:2|1:2,0:0:0:0:
377,147,73011,2,0,B|396:179|396:179|378:248,1,104.499997209549,2|2,1:2|1:2,0:0:0:0:
343,353,73747,6,0,L|285:332,1,52.2499986047745,6|2,1:2|1:2,0:0:0:0:
255,299,74115,1,2,0:2:0:0:
255,299,74299,2,0,B|198:305|222:339|164:345,1,104.499997209549,2|2,1:2|3:2,0:0:0:0:
109,357,74852,1,2,1:2:0:0:
25,277,75220,2,0,L|79:253,1,52.2499986047745,6|2,1:2|1:2,0:0:0:0:
94,204,75588,1,2,0:2:0:0:
94,204,75772,2,0,P|141:183|190:196,1,104.499997209549,2|2,1:2|3:2,0:0:0:0:
231,236,76324,1,2,1:2:0:0:
315,157,76692,6,0,P|337:169|363:169,1,52.2499986047745,6|2,1:2|0:2,0:0:0:0:
416,147,77060,1,2,1:2:0:0:
460,41,77428,2,0,P|437:28|411:28,1,52.2499986047745,2|2,1:2|3:2,0:0:0:0:
359,51,77796,1,2,1:2:0:0:
247,79,78165,2,0,L|196:66,1,52.2499986047745,6|2,3:1|0:1,0:0:0:0:
151,30,78533,2,0,L|100:42,1,52.2499986047745,2|2,3:1|0:1,0:0:0:0:
47,19,78901,1,2,3:1:0:0:
26,132,79269,1,4,0:1:0:0:
98,195,79637,6,0,L|184:176,1,88,6|2,3:2|3:2,0:0:0:0:
272,137,80373,1,2,3:2:0:0:
286,237,80741,1,2,3:2:0:0:
286,237,80925,2,0,L|267:323,1,88,2|2,0:2|0:2,0:0:0:0:
293,363,81477,2,0,P|332:379|372:362,1,88,2|2,3:2|3:2,0:0:0:0:
454,312,82214,1,2,3:2:0:0:
394,234,82582,5,2,3:2:0:0:
449,154,82950,2,0,L|512:172,2,66,2|2|2,3:2|0:2|0:2,0:0:0:0:
420,114,83686,1,2,3:2:0:0:
420,114,83870,2,0,B|371:108|371:108|338:129,1,88,2|2,0:2|0:2,0:0:0:0:
314,170,84422,1,2,3:2:0:0:
230,121,84790,1,2,3:2:0:0:
275,35,85158,1,2,3:2:0:0:
174,14,85526,6,0,L|81:28,1,93.500001783371,6|2,3:2|3:2,0:0:0:0:
49,69,86079,1,2,0:2:0:0:
49,69,86263,1,2,3:2:0:0:
6,164,86631,1,2,3:2:0:0:
6,164,86815,2,0,P|-4:207|24:241,1,93.500001783371,2|2,0:2|0:2,0:0:0:0:
66,273,87367,2,0,L|110:259,1,46.7500008916855,2|2,3:2|0:2,0:0:0:0:
141,218,87735,1,2,3:2:0:0:
217,288,88103,1,2,3:2:0:0:
276,196,88471,6,0,P|324:208|368:232,1,98.9999969787599,2|2,3:2|3:2,0:0:0:0:
397,284,89023,1,2,3:2:0:0:
397,284,89207,1,2,1:2:0:0:
487,221,89576,1,2,1:2:0:0:
487,221,89760,2,0,L|460:125,1,98.9999969787599,2|2,1:2|0:2,0:0:0:0:
490,80,90312,1,2,3:2:0:0:
402,15,90680,1,2,3:2:0:0:
343,107,91048,1,4,1:1:0:0:
258,38,91416,6,0,P|210:37|183:76,1,98.9999969787599,2|2,0:2|0:2,0:0:0:0:
153,122,91968,1,2,0:2:0:0:
153,122,92152,2,0,L|163:170,1,49.4999984893799,2|0,0:2|3:2,0:0:0:0:
196,213,92520,1,4,1:1:0:0:
198,333,92888,6,0,P|143:340|92:361,1,110,6|2,1:2|1:2,0:0:0:0:
44,382,93440,1,2,0:2:0:0:
44,382,93624,1,2,1:2:0:0:
15,280,93992,1,2,1:2:0:0:
15,280,94176,2,0,L|35:171,1,110,2|2,0:2|1:2,0:0:0:0:
38,116,94728,2,0,B|61:102|61:102|90:105,1,55,2|2,1:2|1:2,0:0:0:0:
132,137,95096,2,0,B|161:140|161:140|184:126,1,55,2|0,1:2|1:2,0:0:0:0:
213,80,95464,1,2,0:2:0:0:
316,20,95832,6,0,L|328:73,1,55,6|2,1:2|3:2,0:0:0:0:
352,123,96200,2,0,L|336:204,2,82.5,2|2|2,1:2|0:2|3:2,0:0:0:0:
401,95,96937,1,2,1:2:0:0:
401,95,97121,2,0,P|454:92|486:135,1,110,2|2,3:2|3:2,0:0:0:0:
506,184,97673,1,2,1:2:0:0:
459,283,98041,1,2,1:2:0:0:
359,237,98409,2,0,P|331:237|308:252,1,55,14|8,1:2|3:2,0:0:0:0:
254,247,98777,6,0,L|273:303,1,55,6|2,1:2|3:2,0:0:0:0:
252,350,99145,2,0,L|196:369,1,55,2|2,1:2|3:2,0:0:0:0:
147,351,99513,1,2,1:2:0:0:
82,261,99881,2,0,L|27:271,2,55,2|2|2,1:2|3:2|1:2,0:0:0:0:
100,211,100434,1,2,3:2:0:0:
100,211,100618,2,0,P|96:183|84:159,1,55,2|2,1:2|3:2,0:0:0:0:
56,111,100986,1,2,1:2:0:0:
113,17,101354,1,2,1:2:0:0:
200,84,101722,6,0,L|213:150,1,55,2|2,1:2|3:2,0:0:0:0:
207,192,102090,2,0,P|169:202|132:185,2,82.5,2|2|2,1:2|0:2|3:2,0:0:0:0:
261,217,102826,1,2,1:2:0:0:
261,217,103010,2,0,P|304:246|301:299,1,110,2|2,3:2|1:2,0:0:0:0:
286,351,103562,1,2,1:2:0:0:
394,371,103930,1,2,1:2:0:0:
466,288,104299,2,0,L|452:235,1,55,14|8,1:2|0:2,0:0:0:0:
410,199,104667,6,0,B|396:179|396:179|397:148,1,55,6|2,1:2|2:2,0:0:0:0:
420,98,105035,2,0,B|501:83,2,82.5,2|2|2,1:2|0:2|3:2,0:0:0:0:
385,54,105771,1,2,1:2:0:0:
282,12,106139,6,0,P|254:19|237:39,1,55,2|2,1:2|3:2,0:0:0:0:
186,59,106507,2,0,P|171:82|173:109,1,55,2|2,1:2|3:2,0:0:0:0:
150,161,106875,2,0,P|156:187|176:205,1,55,2|0,1:2|3:0,0:0:0:0:
212,246,107243,1,2,1:2:0:0:
201,355,107611,6,0,P|226:364|252:357,1,55,2|2,1:2|3:2,0:0:0:0:
298,325,107980,2,0,B|341:329|341:329|359:363,2,82.5,2|2|2,1:2|0:2|0:2,0:0:0:0:
280,273,108716,2,0,P|268:248|265:221,1,55,10|10,1:2|1:2,0:0:0:0:
296,175,109084,2,0,P|323:129|304:79,1,110,2|2,0:2|0:2,0:0:0:0:
222,6,109820,2,0,L|114:30,1,110,2|2,0:2|0:2,0:0:0:0:
51,105,110556,6,0,L|62:153,1,49.4999984893799,2|2,3:2|0:2,0:0:0:0:
95,189,110924,1,2,3:2:0:0:
169,124,111292,2,0,L|217:135,1,49.4999984893799,2|2,3:2|0:2,0:0:0:0:
269,147,111661,1,2,3:2:0:0:
269,147,111845,1,2,3:2:0:0:
345,83,112213,1,2,1:2:0:0:
345,83,112397,2,0,B|383:56|383:56|433:68,1,98.9999969787599,2|2,3:2|3:2,0:0:0:0:
485,152,113133,1,2,3:2:0:0:
