osu file format v14

[General]
AudioFilename: audio.mp3
AudioLeadIn: 0
PreviewTime: 26355
Countdown: 0
SampleSet: Soft
StackLeniency: 0.7
Mode: 0
LetterboxInBreaks: 0
WidescreenStoryboard: 1

[Editor]
DistanceSpacing: 1
BeatDivisor: 4
GridSize: 16
TimelineZoom: 1.7

[Metadata]
Title:Cat Loving
TitleUnicode:キャットラビング
Artist:Akina
ArtistUnicode:秋奈
Creator:Amia
Version:Hard
Source:
Tags:香椎モイミ Moimi Kashii Rubbing 神椿スタジオ KAMITSUBAKI STUDIO カバー Cover 歌ってみた Utattemita Keysound Piano TikTok xianoll -Amia- Japanese Pop Jpop J-Pop
BeatmapID:3471425
BeatmapSetID:1698928

[Difficulty]
HPDrainRate:4.5
CircleSize:3.8
OverallDifficulty:6
ApproachRate:8
SliderMultiplier:1.4
SliderTickRate:1

[Events]
//Background and Video events
0,0,"nyan.jpg",0,0
//Break Periods
//Storyboard Layer 0 (Background)
//Storyboard Layer 1 (Fail)
//Storyboard Layer 2 (Pass)
//Storyboard Layer 3 (Foreground)
//Storyboard Layer 4 (Overlay)
//Storyboard Sound Samples

[TimingPoints]
129,368.098159509202,4,2,6,60,1,0
129,-125,4,2,6,60,0,0
3073,368.098159509202,4,2,6,60,1,0
3073,-111.111111111111,4,2,6,60,0,0
14852,-100,4,2,6,70,0,0
26631,-83.3333333333333,4,2,30,80,0,1
26815,-83.3333333333333,4,2,32,80,0,1
27183,-83.3333333333333,4,2,33,80,0,1
27367,-83.3333333333333,4,2,15,80,0,1
27735,-83.3333333333333,4,2,30,80,0,1
28287,-83.3333333333333,4,2,32,80,0,1
28655,-83.3333333333333,4,2,33,80,0,1
28839,-83.3333333333333,4,2,15,80,0,1
29576,-83.3333333333333,4,2,33,80,0,1
29760,-83.3333333333333,4,2,32,80,0,1
29944,-83.3333333333333,4,2,33,80,0,1
30128,-83.3333333333333,4,2,32,80,0,1
30220,-83.3333333333333,4,2,33,80,0,1
30496,-83.3333333333333,4,2,32,80,0,1
30680,-83.3333333333333,4,2,33,80,0,1
30864,-83.3333333333333,4,2,15,80,0,1
31232,-83.3333333333333,4,2,33,80,0,1
31416,-83.3333333333333,4,2,32,80,0,1
31600,-83.3333333333333,4,2,13,80,0,1
31784,-83.3333333333333,4,2,32,80,0,1
32520,-83.3333333333333,4,2,30,80,0,1
32704,-83.3333333333333,4,2,32,80,0,1
33072,-83.3333333333333,4,2,33,80,0,1
33257,-83.3333333333333,4,2,15,80,0,1
33625,-83.3333333333333,4,2,30,80,0,1
34177,-83.3333333333333,4,2,32,80,0,1
34545,-83.3333333333333,4,2,33,80,0,1
34729,-83.3333333333333,4,2,15,80,0,1
35465,-83.3333333333333,4,2,35,80,0,1
35649,-83.3333333333333,4,2,33,80,0,1
36017,-83.3333333333333,4,2,32,80,0,1
36109,-83.3333333333333,4,2,13,80,0,1
36385,-83.3333333333333,4,2,32,80,0,1
36569,-83.3333333333333,4,2,33,80,0,1
36753,-83.3333333333333,4,2,15,80,0,1
37122,-83.3333333333333,4,2,33,80,0,1
37306,-83.3333333333333,4,2,32,80,0,1
37490,-83.3333333333333,4,2,13,80,0,1
37674,-83.3333333333333,4,2,32,80,0,1
38410,-83.3333333333333,4,2,13,80,0,1
38594,-83.3333333333333,4,2,30,80,0,1
38778,-83.3333333333333,4,2,13,80,0,1
38962,-83.3333333333333,4,2,30,80,0,1
39054,-83.3333333333333,4,2,13,80,0,1
39330,-83.3333333333333,4,2,30,80,0,1
39514,-83.3333333333333,4,2,9,80,0,1
39698,-83.3333333333333,4,2,8,80,0,1
40066,-83.3333333333333,4,2,9,80,0,1
40250,-83.3333333333333,4,2,30,80,0,1
40434,-83.3333333333333,4,2,8,80,0,1
40619,-83.3333333333333,4,2,27,80,0,1
40987,-83.3333333333333,4,2,32,80,0,1
41355,-83.3333333333333,4,2,13,80,0,1
41539,-83.3333333333333,4,2,30,80,0,1
41723,-83.3333333333333,4,2,13,80,0,1
41907,-83.3333333333333,4,2,30,80,0,1
41999,-83.3333333333333,4,2,13,80,0,1
42275,-83.3333333333333,4,2,32,80,0,1
42459,-83.3333333333333,4,2,33,80,0,1
42643,-83.3333333333333,4,2,32,80,0,1
43379,-83.3333333333333,4,2,13,80,0,1
43563,-83.3333333333333,4,2,32,80,0,1
43931,-83.3333333333333,4,2,6,80,0,1
44299,-125,4,2,6,70,0,0
44668,-125,4,2,6,70,0,0
56079,-111.111111111111,4,2,6,70,0,0
67858,-100,4,2,6,70,0,0
79637,-125,4,2,6,70,0,0
85526,-111.111111111111,4,2,6,70,0,0
88471,-100,4,2,6,70,0,0
92888,368.098159509202,4,2,6,70,1,0
95832,-83.3333333333333,4,2,15,80,0,1
96016,-83.3333333333333,4,2,14,80,0,1
96200,-83.3333333333333,4,2,15,80,0,1
96384,-83.3333333333333,4,2,14,80,0,1
96476,-83.3333333333333,4,2,15,80,0,1
96753,-83.3333333333333,4,2,14,80,0,1
96937,-83.3333333333333,4,2,15,80,0,1
97121,-83.3333333333333,4,2,34,80,0,1
97489,-83.3333333333333,4,2,15,80,0,1
97673,-83.3333333333333,4,2,14,80,0,1
97857,-83.3333333333333,4,2,32,80,0,1
98041,-83.3333333333333,4,2,14,80,0,1
98777,-83.3333333333333,4,2,11,80,0,1
98961,-83.3333333333333,4,2,14,80,0,1
99329,-83.3333333333333,4,2,15,80,0,1
99513,-83.3333333333333,4,2,34,80,0,1
99881,-83.3333333333333,4,2,11,80,0,1
100434,-83.3333333333333,4,2,14,80,0,1
100802,-83.3333333333333,4,2,15,80,0,1
100986,-83.3333333333333,4,2,34,80,0,1
101722,-83.3333333333333,4,2,18,80,0,1
101906,-83.3333333333333,4,2,15,80,0,1
102274,-83.3333333333333,4,2,14,80,0,1
102366,-83.3333333333333,4,2,32,80,0,1
102642,-83.3333333333333,4,2,14,80,0,1
102826,-83.3333333333333,4,2,15,80,0,1
103010,-83.3333333333333,4,2,34,80,0,1
103378,-83.3333333333333,4,2,15,80,0,1
103562,-83.3333333333333,4,2,14,80,0,1
103746,-83.3333333333333,4,2,32,80,0,1
103930,-83.3333333333333,4,2,14,80,0,1
104667,-83.3333333333333,4,2,32,80,0,1
104851,-83.3333333333333,4,2,11,80,0,1
105035,-83.3333333333333,4,2,32,80,0,1
105219,-83.3333333333333,4,2,11,80,0,1
105311,-83.3333333333333,4,2,32,80,0,1
105587,-83.3333333333333,4,2,11,80,0,1
105771,-83.3333333333333,4,2,10,80,0,1
105955,-83.3333333333333,4,2,29,80,0,1
106323,-83.3333333333333,4,2,10,80,0,1
106507,-83.3333333333333,4,2,11,80,0,1
106691,-83.3333333333333,4,2,29,80,0,1
106875,-83.3333333333333,4,2,7,80,0,1
107243,-83.3333333333333,4,2,14,80,0,1
107611,-83.3333333333333,4,2,32,80,0,1
107795,-83.3333333333333,4,2,11,80,0,1
107980,-83.3333333333333,4,2,32,80,0,1
108164,-83.3333333333333,4,2,11,80,0,1
108256,-83.3333333333333,4,2,32,80,0,1
108532,-83.3333333333333,4,2,11,80,0,1
108716,-83.3333333333333,4,2,32,80,0,1
108900,-83.3333333333333,4,2,11,80,0,1
109084,-83.3333333333333,4,2,14,80,0,1
109452,-83.3333333333333,4,2,34,80,0,1
109820,-83.3333333333333,4,2,15,80,0,1
110188,-83.3333333333333,4,2,32,80,0,1
110556,-111.111111111111,4,2,6,70,0,0

[Colours]
Combo1 : 215,96,132
Combo2 : 154,131,116
Combo3 : 154,147,174
Combo4 : 233,206,194

[HitObjects]
396,49,129,6,0,L|450:38,1,56,2|2,0:2|0:2,0:0:0:0:
470,119,497,2,0,L|415:129,1,56,2|2,0:2|0:2,0:0:0:0:
434,209,865,2,0,L|488:198,1,56,2|2,0:2|0:2,0:0:0:0:
508,279,1233,2,0,L|453:289,1,56,2|2,0:2|0:2,0:0:0:0:
399,354,1601,5,2,0:2:0:0:
334,300,1785,2,0,L|330:272,2,28,2|2|2,0:2|0:2|0:2,0:0:0:0:
292,373,2153,1,2,0:2:0:0:
232,314,2337,2,0,L|177:300,1,56,2|0,0:2|0:0,0:0:0:0:
107,338,2705,1,8,0:2:0:0:
107,338,2797,1,8,0:3:0:0:
107,338,2889,1,10,0:3:0:0:
52,276,3073,6,0,P|50:246|31:215,1,62.9999980773926,6|2,3:2|0:2,0:0:0:0:
7,140,3441,2,0,P|38:138|64:122,1,62.9999980773926,2|2,3:2|0:2,0:0:0:0:
103,49,3809,2,0,P|163:63|213:101,1,125.999996154785,2|0,3:2|3:2,0:0:0:0:
274,165,4361,1,2,0:2:0:0:
274,165,4545,6,0,L|334:146,1,62.9999980773926,2|2,3:2|0:2,0:0:0:0:
377,76,4913,2,0,L|437:95,1,62.9999980773926,2|2,3:2|0:2,0:0:0:0:
487,159,5281,2,0,B|468:217|468:217|473:225|473:225|454:286,1,125.999996154785,2|0,3:2|3:2,0:0:0:0:
406,343,5833,1,2,0:2:0:0:
406,342,6017,6,0,P|375:337|351:310,1,62.9999980773926,2|2,3:2|0:2,0:0:0:0:
272,308,6385,2,0,P|260:278|273:243,1,62.9999980773926,2|2,3:2|0:2,0:0:0:0:
310,178,6753,2,0,B|331:99|331:99|303:63,1,125.999996154785,2|2,3:2|3:2,0:0:0:0:
253,6,7306,1,2,0:2:0:0:
253,6,7490,6,0,L|192:22,1,62.9999980773926,2|2,3:2|0:2,0:0:0:0:
143,88,7858,2,0,L|82:71,1,62.9999980773926,2|2,3:2|0:2,0:0:0:0:
28,9,8226,2,0,P|-9:56|8:114,1,125.999996154785,2|0,3:2|3:2,0:0:0:0:
27,198,8778,1,2,0:2:0:0:
27,198,8962,6,0,B|60:196|60:196|79:172,1,62.9999980773926,6|2,3:2|0:2,0:0:0:0:
160,172,9330,2,0,B|162:205|162:205|185:224,1,62.9999980773926,2|2,3:2|0:2,0:0:0:0:
248,172,9698,2,0,P|305:146|366:129,1,125.999996154785,2|0,3:2|3:2,0:0:0:0:
441,173,10250,1,2,0:2:0:0:
441,173,10434,6,0,L|465:86,1,62.9999980773926,2|2,3:2|0:2,0:0:0:0:
509,48,10803,2,0,L|448:31,1,62.9999980773926,2|2,3:2|0:2,0:0:0:0:
370,6,11171,2,0,B|300:1|300:1|270:60,1,125.999996154785,2|0,3:2|3:2,0:0:0:0:
219,112,11723,1,2,0:2:0:0:
219,112,11907,6,0,L|232:173,1,62.9999980773926,2|2,3:2|0:2,0:0:0:0:
297,222,12275,2,0,L|283:283,1,62.9999980773926,2|2,3:2|0:2,0:0:0:0:
224,339,12643,2,0,P|200:359|170:365,1,62.9999980773926,2|0,3:2|0:0,0:0:0:0:
89,352,13011,1,2,3:2:0:0:
122,279,13195,1,2,0:2:0:0:
122,279,13379,6,0,L|110:217,1,62.9999980773926,2|2,3:2|0:2,0:0:0:0:
36,180,13747,2,0,L|47:118,1,62.9999980773926,2|2,3:2|0:2,0:0:0:0:
120,80,14115,2,0,L|108:18,1,62.9999980773926,2|0,3:2|0:0,0:0:0:0:
195,8,14484,1,10,0:2:0:0:
195,8,14576,1,8,0:3:0:0:
195,8,14668,1,10,0:3:0:0:
259,71,14852,5,6,1:2:0:0:
215,152,15036,1,2,1:2:0:0:
215,152,15220,1,2,0:2:0:0:
285,209,15404,2,0,B|313:245|313:245|405:226,1,140,2|2,1:2|3:2,0:0:0:0:
499,222,15956,1,2,1:2:0:0:
499,222,16140,1,2,0:2:0:0:
439,152,16324,5,6,1:2:0:0:
506,90,16508,1,2,1:2:0:0:
506,90,16692,1,2,0:2:0:0:
428,41,16876,2,0,P|363:32|340:93,1,140,2|2,1:2|3:2,0:0:0:0:
307,180,17428,1,2,1:2:0:0:
307,180,17612,1,2,3:2:0:0:
216,168,17796,5,6,1:2:0:0:
230,262,17980,1,2,1:2:0:0:
230,262,18165,1,2,0:2:0:0:
143,232,18349,2,0,L|116:369,1,140,2|2,1:2|3:2,0:0:0:0:
29,363,18901,1,2,1:2:0:0:
29,363,19085,1,2,0:2:0:0:
4,275,19269,6,0,P|-7:243|9:213,1,70,6|2,1:2|0:1,0:0:0:0:
96,188,19637,2,0,P|107:219|90:249,1,70,2|2,1:2|0:1,0:0:0:0:
4,275,20005,2,0,P|-7:243|9:213,1,70,2|2,1:2|0:1,0:0:0:0:
96,188,20373,2,0,P|107:219|90:249,1,70,2|2,1:2|0:1,0:0:0:0:
116,336,20741,5,6,1:2:0:0:
188,279,20925,1,2,1:2:0:0:
188,279,21109,1,2,0:2:0:0:
230,359,21293,2,0,B|298:383|298:383|344:333,1,140,2|2,1:2|3:2,0:0:0:0:
376,250,21846,1,2,1:2:0:0:
376,250,22030,1,2,0:2:0:0:
315,182,22214,5,6,1:2:0:0:
384,122,22398,1,2,1:2:0:0:
384,122,22582,1,2,0:2:0:0:
305,74,22766,2,0,L|166:51,1,140,2|2,1:2|3:2,0:0:0:0:
94,5,23318,1,2,1:2:0:0:
94,5,23502,1,2,3:2:0:0:
36,75,23686,6,0,B|31:116|31:116|47:139,1,70,6|2,1:2|0:2,0:0:0:0:
95,222,24054,1,2,1:2:0:0:
95,222,24238,1,2,0:2:0:0:
175,178,24422,2,0,B|191:201|191:201|186:242,1,70,2|2,1:2|3:2,0:0:0:0:
146,326,24790,1,2,1:2:0:0:
146,326,24974,1,2,0:2:0:0:
229,362,25158,6,0,L|297:346,1,70,2|2,3:1|0:1,0:0:0:0:
367,288,25526,1,2,3:1:0:0:
412,366,25711,1,2,0:1:0:0:
471,297,25895,2,0,P|477:227|497:160,1,140,2|0,3:1|3:2,0:0:0:0:
500,76,26447,1,2,0:2:0:0:
500,76,26539,1,0,0:0:0:0:
500,76,26631,6,0,L|402:54,1,83.9999974365235,6|2,1:2|3:2,0:0:0:0:
331,5,26999,1,2,1:2:0:0:
323,105,27183,1,2,3:2:0:0:
227,71,27367,2,0,L|129:93,1,83.9999974365235,2|0,1:2|3:2,0:0:0:0:
63,149,27735,1,2,1:2:0:0:
155,188,27919,6,0,B|131:262|131:262|136:273|136:273|112:347,1,167.999994873047,2|2,3:2|3:2,0:0:0:0:
21,330,28471,1,2,1:2:0:0:
21,330,28563,1,0,0:0:0:0:
21,330,28655,1,2,3:2:0:0:
2,230,28839,2,0,P|30:199|70:194,1,83.9999974365235,2|0,1:2|3:0,0:0:0:0:
95,96,29207,2,0,P|135:101|163:131,1,83.9999974365235,2|0,1:2|3:2,0:0:0:0:
216,217,29576,6,0,L|321:192,1,83.9999974365235,2|2,1:2|3:2,0:0:0:0:
368,126,29944,1,2,1:2:0:0:
428,213,30128,1,2,3:2:0:0:
428,213,30220,2,0,P|445:271|411:322,1,125.999996154785,2|2,0:2|3:2,0:0:0:0:
329,381,30680,1,2,1:2:0:0:
263,304,30864,6,0,B|164:282|197:359|107:339,1,167.999994873047,2|2,3:2|3:2,0:0:0:0:
8,319,31416,2,0,P|16:278|50:256,1,83.9999974365235,2|2,1:2|3:2,0:0:0:0:
143,220,31784,1,10,1:2:0:0:
65,155,31968,1,8,3:0:0:0:
119,73,32152,1,14,1:2:0:0:
119,73,32244,1,8,0:2:0:0:
119,73,32336,1,8,3:0:0:0:
214,104,32520,6,0,L|296:87,1,83.9999974365235,6|2,1:2|3:2,0:0:0:0:
378,144,32888,1,2,1:2:0:0:
434,60,33072,1,2,3:2:0:0:
490,143,33257,2,0,L|473:225,1,83.9999974365235,2|0,1:2|3:0,0:0:0:0:
480,325,33625,2,0,P|442:306|402:294,1,83.9999974365235,2|2,1:2|3:2,0:0:0:0:
320,243,33993,5,2,1:2:0:0:
320,243,34177,1,2,3:2:0:0:
297,341,34361,1,2,1:2:0:0:
216,280,34545,1,2,3:2:0:0:
172,370,34729,2,0,P|131:365|102:335,1,83.9999974365235,2|0,1:2|3:0,0:0:0:0:
23,271,35097,2,0,L|45:190,1,83.9999974365235,2|0,1:2|3:0,0:0:0:0:
16,93,35465,6,0,B|48:60|48:60|85:68,1,83.9999974365235,2|2,1:2|3:2,0:0:0:0:
163,132,35833,1,2,1:2:0:0:
209,44,36017,1,2,3:2:0:0:
209,44,36109,2,0,L|339:19,1,125.999996154785,2|2,0:2|3:2,0:0:0:0:
432,34,36569,1,2,1:2:0:0:
366,105,36753,6,0,P|326:177|326:260,1,167.999994873047,2|2,3:2|1:2,0:0:0:0:
387,343,37306,1,2,1:2:0:0:
425,249,37490,1,2,1:2:0:0:
327,261,37674,2,0,L|285:268,2,41.9999987182618,2|0|0,1:2|3:2|3:2,0:0:0:0:
375,176,38042,1,14,1:2:0:0:
375,176,38134,1,8,0:2:0:0:
375,176,38226,1,8,0:2:0:0:
291,119,38410,6,0,L|209:99,1,83.9999974365235,6|2,1:2|2:2,0:0:0:0:
141,25,38778,1,2,1:2:0:0:
50,64,38962,1,2,3:0:0:0:
50,64,39054,2,0,L|70:188,1,125.999996154785,2|2,0:2|3:2,0:0:0:0:
40,287,39514,1,2,1:2:0:0:
40,287,39698,1,2,3:2:0:0:
135,320,39882,6,0,P|168:297|172:256,1,83.9999974365235,2|2,1:2|3:2,0:0:0:0:
214,165,40250,2,0,P|236:198|277:202,1,83.9999974365235,2|2,1:2|3:2,0:0:0:0:
354,267,40619,2,0,P|320:289|316:330,1,83.9999974365235,2|0,1:2|3:0,0:0:0:0:
401,383,40987,2,0,P|434:360|438:319,1,83.9999974365235,2|0,1:2|3:0,0:0:0:0:
477,227,41355,6,0,L|451:146,1,83.9999974365235,2|2,1:2|3:2,0:0:0:0:
447,45,41723,1,2,1:2:0:0:
363,99,41907,1,2,3:2:0:0:
363,99,41999,2,0,L|233:73,1,125.999996154785,2|2,0:2|0:2,0:0:0:0:
150,27,42459,1,2,1:2:0:0:
148,127,42643,1,2,1:2:0:0:
305,249,43011,6,0,P|328:284|325:325,1,83.9999974365235,2|2,0:2|0:2,0:0:0:0:
244,382,43379,1,2,0:2:0:0:
244,382,43563,1,2,0:2:0:0:
63,292,43931,6,0,L|22:302,4,41.9999987182618,2|2|2|2|4,0:2|0:2|0:2|0:2|3:2,0:0:0:0:
84,121,44668,6,0,L|139:134,1,56,2|2,3:2|0:2,0:0:0:0:
203,187,45036,2,0,L|258:174,1,56,2|2,3:2|0:2,0:0:0:0:
317,114,45404,1,2,3:2:0:0:
317,114,45588,6,0,L|372:127,1,56,2|0,0:2|3:2,0:0:0:0:
452,150,45956,2,0,L|425:258,1,112,2|2,0:2|0:2,0:0:0:0:
453,338,46508,1,0,3:2:0:0:
371,357,46692,2,0,L|377:384,2,28,2|0|2,0:2|0:0|3:2,0:0:0:0:
331,288,47060,1,0,0:0:0:0:
331,288,47244,6,0,P|307:272|280:266,1,56,0|0,3:2|0:0,0:0:0:0:
197,281,47612,2,0,L|208:335,1,56,2|2,3:2|0:2,0:0:0:0:
131,363,47980,1,2,3:2:0:0:
131,363,48165,2,0,L|120:309,1,56,2|0,0:2|3:2,0:0:0:0:
56,253,48533,6,0,L|74:182,1,56,2|0,0:2|3:2,0:0:0:0:
17,132,48901,2,0,L|35:61,1,56,2|0,0:2|3:2,0:0:0:0:
78,8,49269,1,2,0:2:0:0:
156,37,49453,1,2,3:2:0:0:
123,114,49637,2,0,L|108:138,2,28,2|0|2,0:2|0:0|3:2,0:0:0:0:
210,114,50005,1,0,0:0:0:0:
210,114,50189,5,4,3:2:0:0:
360,39,50557,2,0,P|387:37|411:51,1,56,2|2,3:2|0:2,0:0:0:0:
490,78,50925,2,0,P|505:101|505:128,1,56,2|2,3:2|0:2,0:0:0:0:
499,216,51293,1,2,3:2:0:0:
499,216,51477,6,0,P|486:240|462:254,1,56,2|0,0:2|3:2,0:0:0:0:
393,303,51846,2,0,L|400:330,2,28,2|2|2,0:2|0:2|3:2,0:0:0:0:
313,293,52214,1,2,0:2:0:0:
313,293,52398,2,0,P|314:265|330:242,1,56,2|2,3:2|0:2,0:0:0:0:
362,164,52766,2,0,L|351:109,1,56,2|0,3:2|0:0,0:0:0:0:
274,73,53134,6,0,L|284:18,1,56,0|0,3:2|0:0,0:0:0:0:
200,13,53502,2,0,B|174:6|174:6|150:21,1,56,2|2,3:2|0:2,0:0:0:0:
144,105,53870,2,0,B|170:112|170:112|193:96,1,56,2|2,3:2|0:2,0:0:0:0:
282,82,54238,1,8,1:2:0:0:
282,82,54330,1,8,1:2:0:0:
282,82,54422,1,10,3:2:0:0:
446,66,54790,6,0,L|452:38,2,28,2|0|0,3:2|3:2|3:2,0:0:0:0:
507,131,55158,1,2,3:2:0:0:
507,131,55342,2,0,L|495:185,1,56,2|0,3:2|0:0,0:0:0:0:
437,246,55711,1,10,1:2:0:0:
437,246,55803,1,8,0:2:0:0:
437,246,55895,1,8,1:3:0:0:
492,322,56079,5,6,3:2:0:0:
329,253,56447,2,0,P|301:267|287:294,1,62.9999980773926,2|2,3:2|0:2,0:0:0:0:
204,326,56815,2,0,P|189:298|162:284,1,62.9999980773926,2|0,3:2|0:0,0:0:0:0:
80,311,57183,1,2,3:2:0:0:
80,311,57367,1,2,0:2:0:0:
17,249,57551,6,0,L|30:184,1,62.9999980773926,2|2,3:2|0:2,0:0:0:0:
30,99,57919,1,2,3:2:0:0:
107,140,58103,2,0,P|167:141|202:91,1,125.999996154785,2|2,0:2|0:2,0:0:0:0:
221,5,58655,2,0,P|251:11|270:36,1,62.9999980773926,2|2,3:2|0:2,0:0:0:0:
297,124,59023,5,2,3:2:0:0:
297,124,59207,1,2,0:2:0:0:
364,66,59392,2,0,B|447:45|447:45|478:69,1,125.999996154785,2|0,3:2|3:2,0:0:0:0:
500,158,59944,1,2,0:2:0:0:
500,158,60128,2,0,L|486:219,1,62.9999980773926,2|2,3:2|0:2,0:0:0:0:
407,260,60496,6,0,L|393:198,1,62.9999980773926,2|2,3:2|0:2,0:0:0:0:
322,146,60864,2,0,L|308:207,1,62.9999980773926,2|2,3:2|0:2,0:0:0:0:
229,248,61232,2,0,L|215:186,1,62.9999980773926,2|0,3:2|0:0,0:0:0:0:
139,141,61600,2,0,L|125:202,1,62.9999980773926,2|0,3:2|0:2,0:0:0:0:
73,273,61968,5,4,3:2:0:0:
215,377,62336,2,0,B|247:383|247:383|272:367,1,62.9999980773926,2|2,3:2|0:2,0:0:0:0:
344,314,62704,1,2,3:2:0:0:
344,314,62888,1,2,0:2:0:0:
279,261,63072,1,2,3:2:0:0:
279,261,63257,1,2,0:2:0:0:
340,197,63441,6,0,L|401:209,1,62.9999980773926,2|2,3:2|0:2,0:0:0:0:
464,270,63809,1,2,3:2:0:0:
508,193,63993,2,0,P|518:132|479:85,1,125.999996154785,2|2,0:2|0:2,0:0:0:0:
442,5,64545,2,0,L|380:18,1,62.9999980773926,2|2,3:2|0:2,0:0:0:0:
343,97,64913,5,2,3:2:0:0:
284,31,65097,1,2,0:2:0:0:
240,107,65281,2,0,P|209:111|181:98,1,62.9999980773926,2|2,3:2|0:2,0:0:0:0:
145,22,65649,1,2,3:2:0:0:
145,22,65833,1,2,0:2:0:0:
63,47,66017,1,2,3:2:0:0:
63,47,66201,2,0,P|59:78|72:106,1,62.9999980773926,2|0,0:2|3:2,0:0:0:0:
3,160,66569,6,0,L|17:221,1,62.9999980773926,2|0,0:2|3:2,0:0:0:0:
9,309,66938,2,0,L|133:345,1,125.999996154785,2|2,0:2|0:2,0:0:0:0:
222,376,67490,1,10,0:2:0:0:
222,376,67582,1,0,3:2:0:0:
222,376,67674,1,8,0:3:0:0:
276,303,67858,5,6,1:2:0:0:
220,237,68042,1,2,1:2:0:0:
220,237,68226,1,2,0:2:0:0:
282,170,68410,2,0,B|342:154|342:154|358:164|358:164|418:146,1,140,2|2,1:2|3:2,0:0:0:0:
501,185,68962,1,2,1:2:0:0:
501,185,69146,1,2,0:2:0:0:
433,247,69330,5,6,1:2:0:0:
506,309,69514,1,2,1:2:0:0:
506,309,69698,1,2,0:2:0:0:
448,379,69882,2,0,P|382:354|314:339,1,140,2|2,1:2|3:2,0:0:0:0:
234,378,70434,1,2,1:2:0:0:
234,378,70619,1,2,3:2:0:0:
170,312,70803,5,6,1:2:0:0:
236,249,70987,1,2,1:2:0:0:
236,249,71171,1,2,0:2:0:0:
155,207,71355,2,0,B|61:234|61:234|32:201,1,140,2|2,1:2|3:2,0:0:0:0:
10,118,71907,1,2,1:2:0:0:
10,118,72091,1,2,0:2:0:0:
34,30,72275,6,0,P|68:35|99:50,1,70,6|2,1:2|0:1,0:0:0:0:
162,123,72643,1,2,1:2:0:0:
162,123,72827,1,2,0:1:0:0:
215,49,73011,2,0,P|246:33|280:28,1,70,2|2,1:2|0:1,0:0:0:0:
362,78,73379,1,2,1:2:0:0:
362,78,73563,1,2,0:1:0:0:
436,25,73747,5,6,1:2:0:0:
507,89,73931,1,2,1:2:0:0:
507,89,74115,1,2,0:2:0:0:
460,166,74299,2,0,L|434:304,1,140,2|2,1:2|3:2,0:0:0:0:
380,377,74852,1,2,1:2:0:0:
380,377,75036,1,2,0:2:0:0:
319,308,75220,6,0,P|285:316|253:330,1,70,6|2,1:2|1:2,0:0:0:0:
174,375,75588,1,2,0:2:0:0:
94,330,75772,2,0,B|77:303|77:303|86:266,1,70,2|0,1:2|0:0,0:0:0:0:
131,189,76140,1,2,3:2:0:0:
131,189,76324,1,2,1:2:0:0:
61,130,76508,1,2,3:2:0:0:
124,65,76692,6,0,L|198:75,1,70,6|2,1:2|0:2,0:0:0:0:
274,29,77060,1,2,1:2:0:0:
274,29,77244,1,2,0:2:0:0:
301,115,77428,2,0,P|333:124|365:111,1,70,2|2,1:2|3:2,0:0:0:0:
436,52,77796,1,2,1:2:0:0:
436,52,77980,1,2,0:2:0:0:
509,114,78165,5,6,3:1:0:0:
509,114,78349,1,2,0:1:0:0:
483,201,78533,1,2,3:1:0:0:
392,197,78717,1,2,0:1:0:0:
362,110,78901,2,0,P|329:96|295:86,1,70,2|0,3:1|0:0,0:0:0:0:
214,47,79269,1,4,0:1:0:0:
50,3,79637,6,0,L|76:111,1,112,6|2,3:2|3:2,0:0:0:0:
71,193,80189,1,2,0:2:0:0:
71,193,80373,1,2,3:2:0:0:
8,338,80741,1,2,3:2:0:0:
8,338,80925,2,0,P|60:317|114:302,1,112,2|2,0:2|0:2,0:0:0:0:
173,251,81477,2,0,L|226:267,1,56,2|2,3:2|0:2,0:0:0:0:
265,335,81846,1,2,3:2:0:0:
414,383,82214,1,2,3:2:0:0:
456,232,82582,6,0,L|441:177,1,56,2|2,3:2|0:2,0:0:0:0:
363,166,82950,2,0,L|348:220,1,56,2|2,3:2|0:2,0:0:0:0:
322,249,83226,2,0,B|283:249|283:249|249:219,1,84,2|2,0:2|0:2,0:0:0:0:
184,185,83686,1,2,3:2:0:0:
184,185,83870,2,0,L|204:72,1,112,2|2,0:2|0:2,0:0:0:0:
253,15,84422,2,0,P|280:11|304:25,1,56,2|2,3:2|0:2,0:0:0:0:
369,67,84790,1,2,3:2:0:0:
269,188,85158,1,2,3:2:0:0:
326,341,85526,6,0,L|339:279,1,62.9999980773926,6|2,3:2|0:2,0:0:0:0:
395,219,85895,2,0,L|383:157,1,62.9999980773926,2|2,3:2|0:2,0:0:0:0:
331,93,86263,1,2,3:2:0:0:
196,7,86631,1,2,3:2:0:0:
196,7,86815,6,0,B|145:38|145:38|144:105,1,125.999996154785,2|2,0:2|0:2,0:0:0:0:
117,184,87367,1,2,3:2:0:0:
117,184,87551,1,2,0:2:0:0:
184,230,87735,1,2,3:2:0:0:
117,379,88103,2,0,L|178:365,1,62.9999980773926,2|0,3:2|0:0,0:0:0:0:
263,327,88471,5,2,3:2:0:0:
263,327,88655,1,2,3:2:0:0:
200,260,88839,1,2,3:2:0:0:
260,192,89023,1,2,3:2:0:0:
229,106,89207,2,0,L|247:76,2,35,2|0|2,1:2|1:2|1:2,0:0:0:0:
146,102,89576,1,2,1:2:0:0:
146,102,89668,1,0,1:2:0:0:
146,102,89760,6,0,B|49:83|49:83|19:111,1,140,2|2,1:2|0:2,0:0:0:0:
4,201,90312,2,0,L|72:214,1,70,2|2,3:2|0:2,0:0:0:0:
119,291,90680,2,0,L|187:277,1,70,2|0,3:2|0:0,0:0:0:0:
240,203,91048,1,4,1:1:0:0:
411,264,91416,6,0,L|401:333,2,70,2|2|2,0:2|0:2|0:2,0:0:0:0:
352,201,91968,1,2,0:2:0:0:
352,201,92152,1,2,0:2:0:0:
405,127,92336,1,0,3:2:0:0:
472,188,92520,1,4,1:1:0:0:
391,24,92888,6,0,L|322:38,1,70,6|2,1:2|0:2,0:0:0:0:
250,93,93256,2,0,L|181:78,1,70,2|2,1:2|0:2,0:0:0:0:
119,11,93624,2,0,L|50:25,1,70,2|0,1:2|0:0,0:0:0:0:
7,106,93992,1,2,1:2:0:0:
7,106,94176,1,2,0:2:0:0:
50,185,94360,6,0,P|83:192|111:172,1,70,2|2,1:2|1:2,0:0:0:0:
177,109,94728,2,0,P|210:101|238:121,1,70,2|2,1:2|1:2,0:0:0:0:
295,204,95096,1,2,1:2:0:0:
295,204,95188,1,0,1:2:0:0:
295,204,95280,2,0,L|302:238,2,35,0|0|2,1:2|1:2|0:2,0:0:0:0:
435,362,95832,6,0,L|449:279,1,83.9999974365235,6|2,1:2|3:2,0:0:0:0:
506,196,96200,1,2,1:2:0:0:
431,135,96384,1,2,3:2:0:0:
431,135,96476,2,0,B|347:117|347:117|313:139,1,125.999996154785,2|2,0:2|3:2,0:0:0:0:
229,195,96937,1,2,1:2:0:0:
214,95,97121,6,0,P|171:30|97:54,1,167.999994873047,2|2,3:2|3:2,0:0:0:0:
3,93,97673,2,0,L|21:176,1,83.9999974365235,2|2,1:2|3:2,0:0:0:0:
103,232,98041,1,2,1:2:0:0:
19,288,98225,1,0,3:0:0:0:
93,370,98409,1,14,1:2:0:0:
93,370,98501,1,8,0:2:0:0:
93,370,98593,1,8,3:2:0:0:
190,344,98777,6,0,B|235:353|235:353|266:331,1,83.9999974365235,6|2,1:2|3:2,0:0:0:0:
342,265,99145,1,2,1:2:0:0:
256,211,99329,1,2,3:2:0:0:
318,132,99513,2,0,B|363:123|363:123|394:144,1,83.9999974365235,2|0,1:2|3:0,0:0:0:0:
473,206,99881,2,0,L|490:124,1,83.9999974365235,2|2,1:2|3:2,0:0:0:0:
467,29,100249,5,2,1:2:0:0:
467,29,100434,1,2,3:2:0:0:
389,93,100618,1,2,1:2:0:0:
329,11,100802,1,2,3:2:0:0:
263,86,100986,2,0,L|178:66,1,83.9999974365235,2|0,1:2|3:0,0:0:0:0:
79,67,101354,2,0,P|92:106|100:147,1,83.9999974365235,2|0,1:2|3:0,0:0:0:0:
48,233,101722,6,0,P|76:261|116:256,1,83.9999974365235,2|2,1:2|3:2,0:0:0:0:
189,184,102090,1,2,1:2:0:0:
219,284,102274,1,2,3:2:0:0:
219,284,102366,2,0,L|349:259,1,125.999996154785,2|2,0:2|3:2,0:0:0:0:
415,330,102826,1,2,1:2:0:0:
456,238,103010,6,0,B|423:146|496:166|469:77,1,167.999994873047,2|2,3:2|1:2,0:0:0:0:
394,9,103562,1,2,1:2:0:0:
373,108,103746,1,2,1:2:0:0:
469,77,103930,2,0,L|511:84,2,41.9999987182618,2|0|0,1:2|3:2|3:2,0:0:0:0:
373,108,104299,1,14,1:2:0:0:
373,108,104391,1,8,0:2:0:0:
373,108,104483,1,8,0:2:0:0:
303,34,104667,6,0,L|221:54,1,83.9999974365235,6|2,1:2|2:2,0:0:0:0:
127,18,105035,1,2,1:2:0:0:
89,113,105219,1,2,3:0:0:0:
89,113,105311,2,0,P|120:168|145:226,1,125.999996154785,2|2,0:2|3:2,0:0:0:0:
160,329,105771,1,2,1:2:0:0:
160,329,105955,1,2,3:2:0:0:
233,260,106139,6,0,L|321:243,1,83.9999974365235,2|2,1:2|3:2,0:0:0:0:
373,164,106507,2,0,L|285:147,1,83.9999974365235,2|2,1:2|3:2,0:0:0:0:
243,59,106875,2,0,L|331:42,1,83.9999974365235,2|0,1:2|3:0,0:0:0:0:
418,4,107243,2,0,L|500:19,1,83.9999974365235,2|0,1:2|3:0,0:0:0:0:
511,120,107611,6,0,P|492:157|485:198,1,83.9999974365235,2|2,1:2|3:2,0:0:0:0:
459,296,107980,1,2,1:2:0:0:
382,238,108164,1,2,3:2:0:0:
382,238,108256,2,0,L|257:218,1,125.999996154785,2|2,0:2|0:2,0:0:0:0:
184,287,108716,1,10,1:2:0:0:
184,287,108808,1,8,0:2:0:0:
184,287,108900,1,10,1:2:0:0:
92,244,109084,6,0,P|56:223|46:184,1,83.9999974365235,2|0,0:2|0:0,0:0:0:0:
54,83,109452,1,2,0:2:0:0:
240,6,109820,2,0,P|275:26|285:65,1,83.9999974365235,2|0,0:2|0:0,0:0:0:0:
278,167,110188,1,2,0:2:0:0:
149,246,110556,6,0,L|211:235,1,62.9999980773926,2|2,3:2|0:2,0:0:0:0:
238,312,110924,2,0,L|300:301,1,62.9999980773926,2|2,3:2|0:2,0:0:0:0:
331,377,111292,2,0,L|393:366,1,62.9999980773926,2|2,3:2|0:2,0:0:0:0:
479,351,111661,1,2,3:2:0:0:
479,351,111753,1,2,3:2:0:0:
479,351,111845,1,2,3:2:0:0:
501,204,112213,5,2,1:2:0:0:
501,204,112397,2,0,P|486:175|460:158,1,62.9999980773926,2|0,3:2|0:0,0:0:0:0:
389,117,112765,1,2,3:2:0:0:
255,188,113133,1,2,3:2:0:0:
