osu file format v14

[General]
AudioFilename: audio.mp3
AudioLeadIn: 0
PreviewTime: 56728
Countdown: 0
SampleSet: Normal
StackLeniency: 0.5
Mode: 0
LetterboxInBreaks: 0
WidescreenStoryboard: 0

[Editor]
Bookmarks: 13682,26773,39864,52955,57865,70955,84046
DistanceSpacing: 0.8
BeatDivisor: 4
GridSize: 32
TimelineZoom: 1

[Metadata]
Title:Katayoku no Tori
TitleUnicode:片翼の鳥
Artist:Akiko Shikata
ArtistUnicode:志方あきこ
Creator:MrMenda
Version:Peccato
Source:うみねこのなく頃に
Tags:Umineko no Naku Koro ni Visual Novel Beatrice Usiromiya KnightC0re Opening Celektus
BeatmapID:1368487
BeatmapSetID:641855

[Difficulty]
HPDrainRate:6
CircleSize:4.2
OverallDifficulty:8
ApproachRate:8.2
SliderMultiplier:1.6
SliderTickRate:1

[Events]
//Background and Video events
0,0,"bg.jpg",0,0
//Break Periods
//Storyboard Layer 0 (Background)
//Storyboard Layer 1 (Fail)
//Storyboard Layer 2 (Pass)
//Storyboard Layer 3 (Foreground)
//Storyboard Sound Samples

[TimingPoints]
592,545.454545454546,3,3,0,50,1,0
592,-57.1428571428571,4,3,0,50,0,0
13682,-100,4,2,0,50,0,0
39864,-66.6666666666667,4,3,0,50,0,1
40955,-100,4,3,0,50,0,1
41228,-100,4,2,0,50,0,1
41501,-100,4,2,0,50,0,0
43137,-66.6666666666667,4,1,0,50,0,1
44228,-100,4,1,0,50,0,1
44501,-100,4,2,0,50,0,1
44773,-100,4,2,0,50,0,0
54592,-100,4,2,0,65,0,0
54728,-100,4,2,0,60,0,0
54864,-100,4,2,0,55,0,0
55137,-100,4,2,0,50,0,0
55273,-100,4,2,0,45,0,0
55410,-100,4,2,0,40,0,0
55546,-100,4,2,0,35,0,0
55682,-100,4,2,0,30,0,0
55819,-100,4,2,0,25,0,0
55955,-100,4,2,0,20,0,0
56092,-100,4,2,0,15,0,0
56228,500,3,2,0,10,1,0
56728,568.720379146919,3,2,0,50,1,0
57865,545.454545454546,3,1,0,50,1,1
57865,-66.6666666666667,4,1,0,50,0,1
73546,-66.6666666666667,3,3,0,5,0,1
73683,-66.6666666666667,3,3,0,50,0,1
80365,-66.6666666666667,3,3,0,5,0,1
80501,-66.6666666666667,3,3,0,50,0,1
81183,-66.6666666666667,3,3,0,5,0,1
81319,-66.6666666666667,3,3,0,50,0,1
84046,-80,4,3,0,50,0,0

[Colours]
Combo1 : 255,17,17
Combo2 : 128,64,0
Combo3 : 64,0,0
Combo4 : 128,0,0

[HitObjects]
64,75,592,6,0,P|134:65|200:45,1,140.000001335144,6|0,0:1|2:0,0:0:0:0:
384,128,1001,2,0,P|314:134|248:155,1,140.000001335144,0|0,0:0|2:0,0:0:0:0:
54,195,1410,1,0,0:0:0:0:
185,342,1682,1,0,0:0:0:0:
247,155,1955,1,0,0:0:0:0:
469,122,2228,6,0,P|459:191|439:258,1,140.000001335144,2|0,0:1|2:0,0:0:0:0:
298,384,2637,2,0,P|304:314|324:247,1,140.000001335144,0|0,0:0|2:0,0:0:0:0:
284,80,3047,1,0,0:0:0:0:
448,129,3319,1,0,0:0:0:0:
324,247,3592,1,4,0:1:0:0:
159,197,3864,6,0,P|91:180|27:154,1,140.000001335144,6|0,0:1|2:0,0:0:0:0:
219,61,4273,2,0,P|286:76|350:103,1,140.000001335144,0|0,0:0|2:0,0:0:0:0:
469,229,4683,1,0,0:0:0:0:
301,269,4955,1,0,0:0:0:0:
351,103,5228,1,0,0:0:0:0:
184,141,5501,2,0,P|96:229|190:310,1,280.000002670288,2|0,0:1|0:0,0:0:0:0:
295,154,6319,2,0,P|249:205|183:226,1,140.000001335144
81,310,6864,5,4,0:1:0:0:
271,354,7001,1,4,0:1:0:0:
27,258,7138,6,0,P|18:188|0:121,1,140.000001335144,6|0,0:1|2:0,0:0:0:0:
91,0,7547,2,0,P|96:69|117:136,1,140.000001335144,0|0,0:0|2:0,0:0:0:0:
169,305,7956,1,0,0:0:0:0:
117,136,8228,1,0,0:0:0:0:
289,175,8501,1,0,0:0:0:0:
338,349,8773,6,0,P|408:337|475:318,1,140.000001335144
512,213,9182,2,0,P|443:218|376:238,1,140.000001335144
172,308,9591,1,0,0:0:0:0:
338,349,9864,1,0,0:0:0:0:
291,185,10137,1,0,0:0:0:0:
82,153,10410,6,0,P|97:84|124:19,1,140.000001335144,6|0,0:1|2:0,0:0:0:0:
198,165,10819,2,0,P|181:232|154:296,1,140.000001335144,0|0,0:0|2:0,0:0:0:0:
120,384,11228,1,0,0:0:0:0:
81,218,11500,1,0,0:0:0:0:
246,266,11773,1,0,0:0:0:0:
484,212,12046,6,0,P|454:195|420:186,1,70.000000667572,4|0,0:3|2:0,0:0:0:0:
246,266,12319,2,0,P|275:249|300:223,1,70.000000667572,0|0,0:0|2:0,0:0:0:0:
310,54,12592,2,0,P|308:87|318:121,1,70.000000667572,0|0,0:0|2:0,0:0:0:0:
429,269,12864,2,0,P|501:209|397:103,1,280.000002670288,0|0,0:0|2:0,0:0:0:0:
420,186,13682,6,0,P|367:212|345:267,1,120,6|0,1:2|0:0,0:0:0:0:
340,364,14228,1,0,0:0:0:0:
156,303,14501,1,4,1:2:0:0:
208,374,14773,1,0,0:0:0:0:
113,376,15046,1,0,1:0:0:0:
79,299,15319,2,0,P|115:292|164:308,1,80,6|2,1:2|0:3,0:0:0:0:
182,312,15728,5,0,0:0:0:0:
218,331,15864,1,0,0:0:0:0:
334,269,16137,2,0,P|353:234|357:195,1,80,2|0,0:3|0:0,0:0:0:0:
347,78,16682,2,0,L|385:74,1,40,0|0,0:0|0:0,0:0:0:0:
292,13,16955,6,0,P|269:45|262:84,1,80,6|0,1:2|0:0,0:0:0:0:
265,116,17364,1,0,2:0:0:0:
283,146,17501,1,0,0:0:0:0:
378,245,17773,1,4,1:2:0:0:
380,148,18046,1,0,0:0:0:0:
281,243,18319,1,0,1:0:0:0:
189,103,18592,6,0,P|219:54|276:38,1,120,6|0,1:2|0:0,0:0:0:0:
302,48,19137,1,0,0:0:0:0:
383,121,19410,1,6,1:2:0:0:
383,121,19546,1,0,0:0:0:0:
383,121,19682,1,2,0:2:0:0:
273,122,19955,1,2,0:2:0:0:
273,122,20092,1,0,0:0:0:0:
273,122,20228,6,0,P|292:172|340:205,1,80,6|0,1:2|2:0,0:0:0:0:
333,206,20637,1,0,0:0:0:0:
356,221,20773,1,0,0:0:0:0:
358,118,21046,2,0,P|322:50|245:42,1,160,4|0,1:2|0:0,0:0:0:0:
210,163,21864,2,0,P|247:149|276:121,1,80,4|0,1:2|0:0,0:0:0:0:
293,99,22273,1,0,0:0:0:0:
305,70,22410,1,0,0:0:0:0:
211,44,22682,5,4,1:2:0:0:
185,138,22955,1,0,0:0:0:0:
91,112,23228,1,0,0:0:0:0:
117,18,23501,2,0,P|58:20|17:62,1,120,6|0,1:2|0:0,0:0:0:0:
9,93,24046,1,0,0:0:0:0:
7,206,24319,1,4,1:2:0:0:
115,195,24592,1,0,0:0:0:0:
71,294,24864,1,0,1:0:0:0:
242,310,25137,1,6,1:1:0:0:
249,227,25410,5,0,0:0:0:0:
287,237,25546,1,0,0:0:0:0:
315,265,25682,1,0,0:0:0:0:
327,303,25819,1,0,0:0:0:0:
321,342,25955,1,12,0:2:0:0:
389,221,26228,1,12,0:2:0:0:
301,158,26501,5,12,0:2:0:0:
414,241,26637,1,8,0:2:0:0:
247,110,26773,6,0,P|204:67|142:54,1,120,2|0,1:2|0:0,0:0:0:0:
104,51,27319,1,0,0:0:0:0:
162,141,27592,1,0,1:0:0:0:
113,238,27864,1,0,0:0:0:0:
222,232,28137,1,0,0:0:0:0:
282,323,28410,6,0,P|323:279|323:220,1,120,2|0,1:2|0:0,0:0:0:0:
319,190,28955,1,0,0:0:0:0:
362,108,29228,2,0,P|383:142|418:161,1,80,0|0,1:0|0:0,0:0:0:0:
442,82,29773,1,0,1:0:0:0:
442,82,29910,1,0,0:0:0:0:
442,82,30046,2,0,P|421:48|386:29,1,80,2|0,0:2|1:0,0:0:0:0:
358,24,30455,1,0,0:0:0:0:
330,20,30592,1,0,0:0:0:0:
362,108,30864,6,0,L|332:135,1,40,0|0,0:0|0:0,0:0:0:0:
452,119,31137,2,0,L|499:133,1,40,0|0,0:0|0:0,0:0:0:0:
422,38,31410,2,0,L|410:-10,1,40,0|0,1:0|0:0,0:0:0:0:
255,95,31682,2,0,P|247:153|277:203,1,120,6|0,1:2|0:0,0:0:0:0:
301,218,32228,1,0,0:0:0:0:
407,229,32501,6,0,P|356:307|266:315,1,160,0|0,0:0|1:0,0:0:0:0:
250,190,33319,2,0,P|286:205|316:232,1,80,6|0,1:2|0:0,0:0:0:0:
336,252,33728,1,0,0:0:0:0:
347,277,33864,1,0,0:0:0:0:
137,306,34137,6,0,P|96:239|113:163,1,160,2|0,1:2|1:0,0:0:0:0:
250,190,34955,2,0,P|219:213|180:226,1,80,2|0,1:2|0:0,0:0:0:0:
153,234,35364,1,0,0:0:0:0:
126,238,35501,1,0,0:0:0:0:
134,77,35773,2,0,P|167:100|185:134,2,80,2|0|0,1:2|0:0|0:0,0:0:0:0:
104,156,36592,6,0,P|57:190|44:248,1,120,6|0,1:2|0:0,0:0:0:0:
53,274,37137,1,0,0:0:0:0:
186,343,37410,2,0,P|233:308|246:250,1,120,2|0,1:2|0:0,0:0:0:0:
237,225,37955,1,0,0:0:0:0:
206,126,38228,6,0,P|147:176|139:254,1,160,6|0,1:2|0:0,0:0:0:0:
365,293,39046,2,0,P|314:233|236:225,1,160,2|0,1:2|0:0,0:0:0:0:
57,368,39864,6,0,L|63:249,1,120.000004577637,6|0,1:1|2:0,0:0:0:0:
169,121,40273,2,0,L|164:241,1,120.000004577637,4|0,1:1|2:0,0:0:0:0:
162,367,40682,1,4,1:1:0:0:
66,103,40955,1,4,1:1:0:0:
195,40,41228,5,0,0:2:0:0:
213,128,41501,1,2,1:2:0:0:
348,127,41773,1,0,0:0:0:0:
280,68,42046,1,0,0:0:0:0:
281,187,42319,1,0,0:0:0:0:
349,246,42592,2,0,L|380:282,1,40,0|0,0:0|0:0,0:0:0:0:
281,187,42864,2,0,L|250:151,1,40,0|0,0:0|0:0,0:0:0:0:
150,35,43137,6,0,L|269:40,1,120.000004577637,6|0,1:0|2:0,0:0:0:0:
397,147,43546,2,0,L|277:141,1,120.000004577637,4|0,1:0|2:0,0:0:0:0:
151,139,43955,1,4,1:0:0:0:
415,43,44228,1,4,1:0:0:0:
482,103,44500,5,0,0:0:0:0:
396,131,44773,1,2,1:2:0:0:
330,13,45045,1,0,0:0:0:0:
415,43,45318,1,0,0:0:0:0:
311,102,45591,1,0,0:0:0:0:
226,72,45864,2,0,L|179:63,1,40,0|0,0:0|2:0,0:0:0:0:
311,102,46136,2,0,L|357:110,1,40,4|0,0:3|2:0,0:0:0:0:
479,140,46410,6,0,P|469:217|409:267,1,160,6|0,0:2|0:0,0:0:0:0:
323,235,47228,1,2,0:2:0:0:
394,175,47501,1,0,0:0:0:0:
410,266,47773,1,0,0:0:0:0:
308,144,48046,2,0,P|248:194|238:271,1,160,2|0,1:2|0:0,0:0:0:0:
325,302,48864,1,2,0:2:0:0:
254,362,49138,1,0,0:0:0:0:
238,271,49410,1,0,0:2:0:0:
411,266,49682,6,0,P|461:302|476:335,1,80,2|0,1:2|0:0,0:0:0:0:
497,216,50092,1,0,0:0:0:0:
392,349,50228,2,0,L|346:383,1,40
326,284,50501,2,0,P|276:248|261:215,1,80,2|0,1:2|0:0,0:0:0:0:
240,334,50911,1,0,0:0:0:0:
345,201,51047,2,0,L|395:164,1,40
487,141,51319,6,0,P|437:83|360:86,1,160,2|0,1:2|0:0,0:0:0:0:
403,163,52137,2,0,L|438:242,1,80
496,355,52682,1,0,0:0:0:0:
362,348,52955,1,0,0:0:0:0:
256,192,53092,12,0,56228,0:0:0:0:
457,100,56728,6,0,P|484:47|489:20,2,80
361,160,57581,1,0,0:0:0:0:
399,33,57865,6,0,P|334:42|272:78,1,120.000004577637,6|0,1:1|2:0,0:0:0:0:
361,160,58274,2,0,P|420:153|474:126,1,120.000004577637,0|0,0:0|2:0,0:0:0:0:
500,93,58683,1,4,1:2:0:0:
151,182,58955,1,0,0:0:0:0:
361,160,59228,5,0,1:0:0:0:
226,172,59365,1,0,0:0:0:0:
158,93,59501,5,4,1:2:0:0:
109,279,59774,1,0,0:0:0:0:
69,152,60046,1,0,0:0:0:0:
152,97,60319,1,4,1:2:0:0:
123,10,60592,1,0,0:0:0:0:
203,226,60865,1,0,1:0:0:0:
286,34,61137,5,6,1:1:0:0:
70,152,61410,1,0,0:0:0:0:
313,244,61683,2,0,P|385:159|372:130,2,120.000004577637,0|2|0,0:0|0:3|0:0,0:0:0:0:
306,162,62501,1,0,0:0:0:0:
427,339,62774,5,6,1:1:0:0:
427,339,62910,2,0,L|234:335,1,180.000006866455,0|0,0:0|2:0,0:0:0:0:
94,325,63592,1,4,1:1:0:0:
251,88,63865,1,0,0:0:0:0:
402,297,64137,5,4,1:1:0:0:
231,254,64274,1,4,1:1:0:0:
480,310,64410,5,6,1:1:0:0:
240,297,64683,1,0,0:0:0:0:
371,95,64955,1,0,0:0:0:0:
362,351,65229,1,4,1:2:0:0:
251,88,65502,1,0,0:0:0:0:
491,101,65774,1,0,0:0:0:0:
305,196,66046,6,0,P|253:222|196:206,1,120.000004577637,6|0,1:1|0:0,0:0:0:0:
391,147,66592,1,0,0:0:0:0:
106,221,66865,2,0,P|109:162|151:121,1,120.000004577637,4|0,1:2|0:0,0:0:0:0:
219,48,67410,5,4,1:1:0:0:
59,109,67547,1,4,1:1:0:0:
292,13,67683,6,0,P|340:45|355:102,1,120.000004577637,6|0,1:1|2:0,0:0:0:0:
286,306,68229,1,0,0:0:0:0:
220,146,68501,2,0,P|234:120|258:102,1,60.0000022888184,4|0,0:2|0:0,0:0:0:0:
231,248,68774,2,0,P|201:248|173:236,1,60.0000022888184,0|0,0:0|0:0,0:0:0:0:
314,186,69046,2,0,P|329:211|332:241,1,60.0000022888184,0|0,0:0|0:0,0:0:0:0:
387,130,69319,6,0,P|359:79|301:67,1,120.000004577637,4|0,0:2|0:0,0:0:0:0:
139,127,69865,1,0,0:0:0:0:
363,234,70137,1,0,0:0:0:0:
302,68,70410,1,0,0:0:0:0:
198,291,70683,1,0,0:0:0:0:
187,10,70955,6,0,P|205:86|197:131,1,120.000004577637,6|0,1:1|2:0,0:0:0:0:
106,258,71365,2,0,P|88:182|96:137,1,120.000004577637,0|0,0:0|2:0,0:0:0:0:
92,11,71774,1,4,0:2:0:0:
199,127,72046,1,0,0:0:0:0:
198,291,72319,1,0,0:0:0:0:
51,206,72592,5,6,1:1:0:0:
51,376,72865,1,0,0:0:0:0:
195,378,73137,2,0,P|267:386|360:322,1,180.000006866455,0|0,0:0|2:0,0:0:0:0:
385,293,73683,1,0,0:0:0:0:
209,126,73955,5,4,1:1:0:0:
386,140,74092,1,4,1:1:0:0:
126,119,74228,5,6,1:1:0:0:
256,299,74501,1,0,0:0:0:0:
419,57,74774,2,0,P|486:145|472:187,2,120.000004577637,0|0|0,0:0|0:0|0:0,0:0:0:0:
266,148,75592,1,0,0:0:0:0:
400,144,75865,6,0,P|334:232|406:316,1,240.000009155274,2|0,1:1|0:0,0:0:0:0:
412,229,76683,2,0,P|357:248|322:296,1,120.000004577637
406,316,77228,1,4,0:1:0:0:
400,144,77501,6,0,P|288:182|219:278,1,240.000009155274,6|6,1:1|0:2,0:0:0:0:
190,107,78319,1,6,0:2:0:0:
356,262,78592,1,0,0:0:0:0:
139,329,78865,1,0,0:0:0:0:
254,61,79137,5,6,0:1:0:0:
356,262,79410,1,0,0:0:0:0:
131,251,79683,1,0,0:0:0:0:
254,61,79955,2,0,B|315:168|315:168|277:215,1,180.000006866455,4|0,1:2|0:0,0:0:0:0:
213,265,80501,5,4,1:1:0:0:
389,247,80638,1,4,1:1:0:0:
130,250,80774,6,0,L|232:78,1,180.000006866455,6|0,1:1|0:0,0:0:0:0:
254,61,81319,5,4,0:2:0:0:
213,265,81592,2,0,P|129:335|46:258,1,240.000009155274,4|4,0:2|0:2,0:0:0:0:
132,130,82410,2,0,L|129:253,1,120.000004577637,4|0,0:2|0:0,0:0:0:0:
129,292,82819,1,0,0:0:0:0:
129,343,82955,1,0,0:0:0:0:
272,281,83228,2,0,B|400:233|400:329|528:281,1,240.000009155274,0|6,0:0|0:2,0:0:0:0:
505,288,84046,5,6,0:2:0:0:
460,188,84319,1,0,0:0:0:0:
339,373,84592,1,0,0:0:0:0:
240,176,84865,1,4,1:2:0:0:
316,175,85137,2,0,L|416:173,2,100,0|0|0,1:0|1:0|1:0,0:0:0:0:
162,63,85955,5,0,0:0:0:0:
134,84,86092,2,0,L|61:86,1,50,0|0,1:0|0:0,0:0:0:0:
208,138,86365,1,0,0:0:0:0:
236,159,86502,2,0,L|309:161,1,50,0|0,1:0|0:0,0:0:0:0:
11,135,86774,6,0,P|-5:76|9:38,2,100,0|0|6,0:0|0:0|0:2,0:0:0:0:
279,74,87592,2,0,P|338:89|364:120,2,100,4|6|4,0:2|0:2|0:2,0:0:0:0:
259,292,88410,2,0,P|216:335|176:342,2,100,6|4|4,0:2|0:2|0:2,0:0:0:0:
