osu file format v14

[General]
AudioFilename: audio.mp3
AudioLeadIn: 0
PreviewTime: 95679
Countdown: 1
SampleSet: Soft
StackLeniency: 0.7
Mode: 2
LetterboxInBreaks: 0
WidescreenStoryboard: 1

[Editor]
Bookmarks: 95905
DistanceSpacing: 1.8
BeatDivisor: 4
GridSize: 4
TimelineZoom: 1.1

[Metadata]
Title:ama no jaku
TitleUnicode:天ノ弱
Artist:Akie
ArtistUnicode:秋絵
Creator:z406607505
Version:Insane
Source:Akie
Tags:Akie ama no jaku
BeatmapID:1563182
BeatmapSetID:714452

[Difficulty]
HPDrainRate:6
CircleSize:4
OverallDifficulty:7
ApproachRate:8.7
SliderMultiplier:2.10000000596046
SliderTickRate:2

[Events]
//Background and Video events
0,0,"f23793d138b5b535b8c61c38715359761c7dc7fb.jpg",0,0
//Break Periods
2,44224,56172
//Storyboard Layer 0 (Background)
//Storyboard Layer 1 (Fail)
//Storyboard Layer 2 (Pass)
//Storyboard Layer 3 (Foreground)
//Storyboard Sound Samples

[TimingPoints]
1844.87218045113,451.127819548872,4,2,1,40,1,8
12220,-133.333333333333,4,2,1,40,0,8
15378,-100,4,2,1,40,0,8
39739,-133.333333333333,4,2,1,40,0,8
41995,-100,4,2,1,40,0,8
84852,-83.3333333333333,4,2,1,40,0,8
95679,-83.3333333333333,4,2,1,40,0,1
123649,-100,4,2,1,40,0,0
206882,451.127819548872,4,2,0,60,1,1
206882,-83.3333333333333,4,2,1,40,0,1
240942,451.127819548872,4,2,0,60,1,1
240942,-83.3333333333333,4,2,0,60,0,1
249062,-100,4,2,1,40,0,0

[Colours]
Combo1 : 128,255,255
Combo2 : 0,202,0
Combo3 : 18,124,255
Combo4 : 242,24,57
Combo5 : 255,192,0

[HitObjects]
432,272,1844,5,0,0:0:0:0:
344,232,1957,1,0,0:0:0:0:
256,264,2070,1,0,0:0:0:0:
344,232,2183,1,0,0:0:0:0:
344,136,2296,1,0,0:0:0:0:
344,232,2408,1,0,0:0:0:0:
104,252,2521,2,0,P|84:200|56:160,1,105.000000298023,2|0,0:0|0:0,0:0:0:0:
156,128,2859,1,0,0:0:0:0:
236,48,2972,2,0,P|248:104|288:148,1,105.000000298023,0|2,0:0|0:0,0:0:0:0:
80,272,3648,5,0,0:0:0:0:
168,232,3762,1,0,0:0:0:0:
256,264,3874,1,0,0:0:0:0:
168,232,3987,1,0,0:0:0:0:
168,136,4100,1,0,0:0:0:0:
168,232,4213,1,0,0:0:0:0:
408,252,4326,2,0,P|428:200|456:160,1,105.000000298023,2|0,0:0|0:0,0:0:0:0:
356,128,4664,1,0,0:0:0:0:
276,48,4777,2,0,P|264:104|224:148,1,105.000000298023,0|2,0:0|0:0,0:0:0:0:
100,248,5228,1,0,0:0:0:0:
80,228,5341,1,2,0:0:0:0:
284,208,5453,1,0,0:0:0:0:
304,188,5566,1,0,0:0:0:0:
404,160,5679,6,0,P|448:140|504:152,1,105.000000298023,0|2,0:0|0:0,0:0:0:0:
448,256,6130,1,0,0:0:0:0:
244,304,6356,2,0,P|212:344|148:332,1,105.000000298023,0|2,0:0|0:0,0:0:0:0:
372,344,6807,1,0,0:0:0:0:
56,320,7032,1,2,0:0:0:0:
132,76,7258,5,0,0:0:0:0:
136,84,7371,1,2,0:0:0:0:
240,100,7483,1,0,0:0:0:0:
236,108,7596,1,2,0:0:0:0:
452,164,7822,2,0,P|444:200|408:232,2,52.5000001490115
48,212,8386,1,4,3:3:0:0:
44,204,8724,6,0,P|40:152|48:100,1,105.000000298023,0|2,0:0|0:0,0:0:0:0:
228,40,9175,1,0,0:0:0:0:
240,40,9401,2,0,P|284:76|288:128,1,105.000000298023,0|2,0:0|0:0,0:0:0:0:
420,260,9852,1,0,0:0:0:0:
172,280,10077,1,0,0:0:0:0:
44,192,10416,5,0,0:0:0:0:
48,184,10529,1,0,0:0:0:0:
52,176,10641,2,0,P|68:132|112:112,2,52.5000001490115,0|2|0,0:0|0:0|0:0,0:0:0:0:
428,156,11431,2,2,P|440:200|396:244,1,105.000000298023,0|2,0:0|0:0,0:0:0:0:
404,248,11769,1,0,0:0:0:0:
404,256,11882,1,0,0:0:0:0:
404,256,11995,1,0,0:0:0:0:
88,248,12220,6,0,P|88:188|116:160,1,78.7500032275915,0|2,0:0|0:0,0:0:0:0:
224,104,12671,2,0,P|264:116|316:104,2,78.7500032275915,0|2|0,0:0|0:0|0:0,0:0:0:0:
296,300,13574,2,0,P|248:304|212:284,1,78.7500032275915,0|2,0:0|0:0,0:0:0:0:
164,260,13912,1,2,0:0:0:0:
108,212,14025,1,6,3:3:0:0:
316,76,14702,5,0,0:0:0:0:
412,180,14927,1,0,0:0:0:0:
224,180,15153,1,0,0:0:0:0:
64,280,15378,2,0,P|36:236|28:160,1,105.000000298023,0|2,0:0|0:0,0:0:0:0:
256,280,15829,1,0,0:0:0:0:
80,108,16055,6,0,P|132:92|184:112,2,105.000000298023,0|2|0,0:0|0:0|0:0,0:0:0:0:
304,48,16732,2,0,P|356:64|376:124,1,105.000000298023,0|2,0:0|0:0,0:0:0:0:
512,240,17183,2,0,P|488:288|428:288,1,105.000000298023,0|2,0:0|0:0,0:0:0:0:
128,280,17634,2,0,P|84:240|88:184,1,105.000000298023,0|2,0:0|0:0,0:0:0:0:
360,252,18085,2,0,P|396:228|404:156,1,105.000000298023,0|2,0:0|0:0,0:0:0:0:
52,48,18762,6,0,P|16:88|4:160,1,105.000000298023
24,296,19213,1,2,0:0:0:0:
280,272,19438,2,0,P|328:244|332:164,2,105.000000298023,0|2|0,0:0|0:0|0:0,0:0:0:0:
128,192,20002,1,0,0:0:0:0:
416,64,20341,2,0,P|456:92|492:176,1,105.000000298023,0|2,0:0|0:0,0:0:0:0:
300,180,20792,2,0,P|260:216|196:228,1,105.000000298023,0|2,0:0|0:0,0:0:0:0:
504,244,21243,2,0,P|448:236|408:200,2,105.000000298023,0|2|0,0:0|0:0|0:0,0:0:0:0:
120,296,21920,1,4,3:3:0:0:
32,104,22371,6,0,P|88:88|128:40,1,105.000000298023
256,64,22709,1,0,0:0:0:0:
404,60,22822,1,2,0:0:0:0:
400,72,23047,2,0,P|400:120|460:172,1,105.000000298023
376,280,23499,2,0,P|348:324|288:336,1,105.000000298023,2|0,0:0|0:0,0:0:0:0:
124,268,23950,2,0,P|60:252|28:188,1,105.000000298023,2|0,0:0|0:0,0:0:0:0:
52,156,24288,1,0,0:0:0:0:
84,96,24401,2,2,P|136:84|152:24,1,105.000000298023,0|0,0:0|0:0,0:0:0:0:
388,48,24852,2,0,P|440:48|488:96,2,105.000000298023,6|2|0,3:3|0:0|0:0,0:0:0:0:
292,212,25529,5,0,0:0:0:0:
156,312,25754,2,0,B|84:312|84:312|40:232,2,157.500000447035,0|2|0,0:0|0:0|0:0,0:0:0:0:
416,304,26544,1,0,0:0:0:0:
452,296,26656,1,2,0:0:0:0:
472,272,26769,1,0,0:0:0:0:
412,276,26882,2,0,P|392:232|416:168,1,105.000000298023,0|2,0:0|0:0,0:0:0:0:
292,84,27333,2,0,P|240:108|184:96,1,105.000000298023,0|2,0:0|0:0,0:0:0:0:
120,120,27671,1,0,0:0:0:0:
120,120,27784,1,0,0:0:0:0:
120,120,27897,1,0,0:0:0:0:
56,180,28010,2,0,P|104:264|224:296,1,210.000000596046,0|2,0:0|0:0,0:0:0:0:
360,304,28686,2,2,P|412:288|444:232,1,105.000000298023,6|0,3:3|0:0,0:0:0:0:
480,152,29138,6,0,L|372:152,1,105.000000298023
260,200,29476,1,0,0:0:0:0:
148,236,29589,2,0,L|24:236,1,105.000000298023,2|0,0:0|0:0,0:0:0:0:
300,80,29927,1,0,0:0:0:0:
280,80,30040,1,2,0:0:0:0:
260,80,30153,1,0,0:0:0:0:
264,80,30265,2,0,L|140:80,1,105.000000298023
168,208,30717,1,2,0:0:0:0:
408,200,30942,2,0,L|404:324,1,105.000000298023
92,264,31393,1,4,3:3:0:0:
440,140,31844,1,6,3:3:0:0:
64,68,32747,6,0,P|112:92|124:156,1,105.000000298023,0|2,0:0|0:0,0:0:0:0:
72,112,33085,1,0,0:0:0:0:
276,128,33198,2,0,P|300:68|352:48,1,105.000000298023,2|0,0:0|0:0,0:0:0:0:
276,128,33536,1,0,0:0:0:0:
424,168,33649,2,0,L|420:292,1,105.000000298023,0|2,0:0|0:0,0:0:0:0:
352,184,33987,1,0,0:0:0:0:
300,324,34100,2,0,L|284:212,1,105.000000298023
424,168,34438,1,0,0:0:0:0:
308,120,34551,2,0,P|276:76|228:56,2,105.000000298023,0|2|0,0:0|0:0|0:0,0:0:0:0:
112,120,35228,2,0,P|84:72|28:60,1,105.000000298023
248,256,35679,1,4,3:3:0:0:
328,60,36243,6,0,L|444:60,1,105.000000298023,0|2,0:0|0:0,0:0:0:0:
496,132,36581,1,0,0:0:0:0:
312,128,36694,2,0,L|432:128,1,105.000000298023,0|2,0:0|0:0,0:0:0:0:
496,132,37145,1,0,0:0:0:0:
384,316,37371,2,0,L|264:316,1,105.000000298023,6|0,3:3|0:0,0:0:0:0:
148,328,37822,2,0,P|92:308|60:260,2,105.000000298023,0|2|0,0:0|0:0|0:0,0:0:0:0:
232,240,38386,1,0,0:0:0:0:
68,208,38499,2,0,P|100:144|168:128,1,105.000000298023,0|2,0:0|0:0,0:0:0:0:
184,152,38837,1,0,0:0:0:0:
260,132,38950,1,0,0:0:0:0:
148,104,39062,1,0,0:0:0:0:
270,71,39175,1,0,0:0:0:0:
384,320,39739,6,0,L|476:304,1,78.7500032275915,0|2,0:0|0:0,0:0:0:0:
192,320,40190,2,0,L|112:296,1,78.7500032275915,0|2,0:0|0:0,0:0:0:0:
300,140,40642,1,0,0:0:0:0:
300,140,40754,1,0,0:0:0:0:
340,84,40867,2,0,L|376:180,1,78.7500032275915,0|2,0:0|0:0,0:0:0:0:
200,284,41318,1,0,0:0:0:0:
224,280,41544,2,0,L|316:272,1,78.7500032275915,0|2,0:0|0:0,0:0:0:0:
472,192,41995,6,0,P|448:144|384:104,2,105.000000298023,0|2|0,0:0|0:0|0:0,0:0:0:0:
300,324,42671,2,0,B|196:332|196:332,1,105.000000298023,0|2,0:0|0:0,0:0:0:0:
64,296,43010,1,0,0:0:0:0:
48,264,43123,1,0,0:0:0:0:
76,224,43235,1,0,0:0:0:0:
196,88,43348,2,0,L|308:48,1,105.000000298023
268,172,43686,1,0,0:0:0:0:
480,232,43799,2,0,L|484:120,1,105.000000298023,4|2,3:3|0:0,0:0:0:0:
84,124,57108,6,0,P|104:80|160:56,1,105.000000298023,0|2,0:0|0:0,0:0:0:0:
84,124,57446,1,0,0:0:0:0:
224,72,57559,2,0,P|272:92|332:72,1,105.000000298023,0|2,0:0|0:0,0:0:0:0:
392,48,57897,1,0,0:0:0:0:
428,108,58010,2,0,P|408:168|432:256,2,157.500000447035,2|0|2,0:0|0:0|0:0,0:0:0:0:
304,140,58912,2,0,L|180:144,2,105.000000298023,0|2|0,0:0|0:0|0:0,0:0:0:0:
132,272,59589,1,4,3:3:0:0:
124,272,59702,1,0,0:0:0:0:
116,272,59814,1,0,0:0:0:0:
124,248,60491,6,0,L|16:248,1,105.000000298023,0|2,0:0|0:0,0:0:0:0:
248,180,60942,2,0,L|136:180,1,105.000000298023
304,248,61393,2,0,L|416:248,2,105.000000298023,0|2|0,0:0|0:0|0:0,0:0:0:0:
56,160,62070,2,0,L|168:160,2,105.000000298023,0|2|0,0:0|0:0|0:0,0:0:0:0:
292,40,62747,1,0,3:3:0:0:
300,64,62859,1,2,0:0:0:0:
140,40,62972,1,0,3:3:0:0:
128,72,63085,1,2,0:0:0:0:
212,176,63198,1,0,0:0:0:0:
140,212,63311,1,0,0:0:0:0:
64,244,63423,2,0,P|64:288|124:344,1,105.000000298023,6|0,3:3|0:0,0:0:0:0:
244,328,63987,6,0,P|296:336|352:292,1,105.000000298023,0|2,0:0|0:0,0:0:0:0:
240,256,64326,1,0,0:0:0:0:
464,248,64438,2,0,P|404:232|360:172,1,105.000000298023,0|2,0:0|0:0,0:0:0:0:
296,208,64777,1,0,0:0:0:0:
256,128,64889,2,0,B|204:112|149:113|100:144,2,157.500000447035,0|2|0,0:0|0:0|0:0,0:0:0:0:
460,60,65792,1,4,3:3:0:0:
384,236,66017,1,2,0:0:0:0:
384,284,66243,2,0,P|352:332|288:332,1,105.000000298023,2|2,0:0|0:0,0:0:0:0:
124,272,66694,2,0,P|40:204|0:112,1,210.000000596046,4|0,3:3|0:0,0:0:0:0:
240,36,67483,5,0,0:0:0:0:
256,36,67596,2,0,L|368:36,1,105.000000298023,2|0,0:0|0:0,0:0:0:0:
484,112,68047,1,2,0:0:0:0:
464,136,68160,1,0,0:0:0:0:
408,208,68273,2,0,L|276:208,1,105.000000298023,0|2,0:0|0:0,0:0:0:0:
132,136,68724,2,0,P|80:148|44:200,1,105.000000298023
176,192,69062,1,0,0:0:0:0:
112,296,69175,1,2,0:0:0:0:
232,248,69288,1,0,0:0:0:0:
56,228,69401,1,6,3:3:0:0:
344,296,69626,2,0,P|376:264|356:204,1,105.000000298023,2|0,0:0|0:0,0:0:0:0:
372,44,70077,2,0,B|308:32|273:29|216:48,2,157.500000447035,0|0|4,0:0|0:0|3:3,0:0:0:0:
252,116,70980,6,2,P|208:104|176:56,1,105.000000298023,0|0,0:0|0:0,0:0:0:0:
284,180,71318,1,0,0:0:0:0:
140,164,71431,2,2,P|160:212|120:268,1,105.000000298023,0|0,0:0|0:0,0:0:0:0:
24,272,71882,2,0,P|48:312|124:340,1,105.000000298023
160,344,72220,1,0,0:0:0:0:
300,340,72446,2,0,L|424:332,2,105.000000298023,0|4|0,0:0|3:3|0:0,0:0:0:0:
432,244,73123,2,0,P|484:236|508:172,1,105.000000298023,0|2,0:0|0:0,0:0:0:0:
268,240,73574,2,0,P|192:224|180:172,1,105.000000298023,6|2,3:3|0:0,0:0:0:0:
48,196,74476,6,0,P|64:240|136:280,1,105.000000298023
240,332,74927,2,0,L|352:332,2,105.000000298023,2|0|2,0:0|0:0|0:0,0:0:0:0:
396,260,75491,2,0,P|452:256|484:188,1,105.000000298023
296,84,75942,1,2,0:0:0:0:
420,152,76168,1,2,0:0:0:0:
220,208,76393,1,6,3:3:0:0:
32,120,76619,2,0,P|16:176|48:236,1,105.000000298023
188,320,77070,1,2,0:0:0:0:
352,324,77295,2,0,P|408:328|456:288,1,105.000000298023,0|4,0:0|3:3,0:0:0:0:
480,180,77859,6,0,P|468:128|424:92,1,105.000000298023
144,80,78311,1,0,0:0:0:0:
136,80,78423,1,2,0:0:0:0:
128,80,78536,1,0,0:0:0:0:
116,80,78762,2,0,P|68:96|16:152,2,105.000000298023,0|2|0,0:0|0:0|0:0,0:0:0:0:
256,184,79438,1,0,0:0:0:0:
156,308,79664,2,2,P|204:292|272:320,1,105.000000298023,0|0,0:0|0:0,0:0:0:0:
412,256,80115,1,0,0:0:0:0:
460,188,80228,1,0,0:0:0:0:
472,96,80341,2,0,P|440:60|384:36,2,105.000000298023,2|0|2,0:0|0:0|0:0,0:0:0:0:
280,120,81017,6,0,P|232:132|172:120,1,105.000000298023
88,36,81468,2,0,P|80:88|16:120,1,105.000000298023,2|0,0:0|0:0,0:0:0:0:
108,140,81807,1,0,0:0:0:0:
48,244,81920,2,0,P|92:212|104:144,1,105.000000298023,2|0,0:0|0:0,0:0:0:0:
200,288,82371,1,0,0:0:0:0:
312,344,82596,1,4,3:3:0:0:
448,280,82822,6,0,P|484:248|492:184,2,105.000000298023
404,170,83499,1,6,3:3:0:0:
298,34,83724,1,2,0:0:0:0:
234,89,83837,1,0,0:0:0:0:
196,170,83950,1,6,3:3:0:0:
345,294,84175,1,2,0:0:0:0:
164,292,84401,2,0,L|56:288,1,105.000000298023,4|0,3:3|0:0,0:0:0:0:
68,156,84852,6,0,P|92:96|48:40,1,125.999996512413
200,44,85303,1,2,0:0:0:0:
200,44,85416,1,2,0:0:0:0:
200,44,85529,1,2,0:0:0:0:
200,44,85641,1,0,0:0:0:0:
368,48,85754,6,2,P|420:72|476:32,1,125.999996512413,0|0,0:0|0:0,0:0:0:0:
448,168,86205,1,0,0:0:0:0:
448,168,86318,1,0,0:0:0:0:
448,168,86431,1,0,0:0:0:0:
364,280,86656,6,0,P|324:328|264:316,1,125.999996512413,6|0,3:3|0:0,0:0:0:0:
88,288,87108,2,0,P|32:276|28:200,2,125.999996512413,2|0|2,0:0|0:0|0:0,0:0:0:0:
264,100,87784,2,2,P|360:156|348:132,1,377.999989537239,0|0,0:0|0:0,0:0:0:0:
284,180,88686,1,0,0:0:0:0:
284,180,88799,1,0,0:0:0:0:
284,180,88912,1,0,0:0:0:0:
88,52,89138,2,0,B|56:104|56:104|96:160,1,125.999996512413
220,140,89589,6,0,B|248:80|248:80|212:24,1,125.999996512413,2|2,0:0|0:0,0:0:0:0:
112,100,89927,1,0,0:0:0:0:
152,168,90040,2,2,B|132:196|152:224|152:224|144:256|164:288,2,125.999996512413,0|0|0,0:0|0:0|0:0,0:0:0:0:
156,160,90604,1,0,0:0:0:0:
160,156,90717,1,0,0:0:0:0:
164,152,90829,1,0,0:0:0:0:
328,64,91168,6,0,P|376:96|448:80,1,125.999996512413,6|2,3:3|0:0,0:0:0:0:
484,236,91619,1,0,0:0:0:0:
420,312,91732,1,4,3:3:0:0:
452,280,91844,1,0,0:0:0:0:
188,316,92070,2,0,P|160:272|88:268,2,125.999996512413,0|2|0,0:0|0:0|0:0,0:0:0:0:
216,136,92747,1,0,0:0:0:0:
68,112,93198,6,0,P|88:56|152:40,1,125.999996512413,4|2,3:3|0:0,0:0:0:0:
444,76,93649,2,0,P|388:100|356:48,1,125.999996512413,4|2,3:3|0:0,0:0:0:0:
64,264,93987,2,0,P|84:316|148:336,1,125.999996512413,4|2,3:3|0:0,0:0:0:0:
444,296,94438,2,0,P|392:264|344:300,1,125.999996512413,4|2,3:3|0:0,0:0:0:0:
56,188,94889,1,6,0:0:0:0:
128,188,95679,5,0,0:0:0:0:
176,208,95792,1,2,0:0:0:0:
132,236,95904,1,0,0:0:0:0:
180,264,96017,1,2,0:0:0:0:
224,236,96130,1,0,0:0:0:0:
336,292,96356,1,0,0:0:0:0:
340,300,96468,2,0,P|392:340|448:316,2,125.999996512413,0|2|0,0:0|0:0|0:0,0:0:0:0:
128,188,97145,1,0,0:0:0:0:
472,236,97371,6,0,P|420:236|384:176,1,125.999996512413,0|2,0:0|0:0,0:0:0:0:
244,32,97822,1,4,3:3:0:0:
244,32,97935,1,0,0:0:0:0:
244,32,98047,1,0,0:0:0:0:
24,60,98273,1,2,0:0:0:0:
28,136,98386,1,0,0:0:0:0:
44,256,98499,2,2,L|176:256,2,125.999996512413,0|0|2,0:0|0:0|0:0,0:0:0:0:
400,300,99175,6,0,P|444:216|472:216,1,125.999996512413,2|2,0:0|0:0,0:0:0:0:
260,76,99626,1,2,0:0:0:0:
230,83,99739,1,0,0:0:0:0:
260,76,99852,1,2,0:0:0:0:
230,83,99965,1,0,0:0:0:0:
248,136,100077,2,0,P|192:164|188:224,1,125.999996512413,0|2,0:0|0:0,0:0:0:0:
404,264,100529,2,0,P|460:236|464:176,1,125.999996512413,0|2,0:0|0:0,0:0:0:0:
364,176,100867,1,0,0:0:0:0:
264,156,100980,2,0,P|264:92|212:64,2,125.999996512413,0|0|6,0:0|0:0|3:3,0:0:0:0:
192,196,101544,1,0,0:0:0:0:
220,208,101656,1,0,0:0:0:0:
248,192,101769,1,0,0:0:0:0:
200,132,101882,2,0,P|264:120|288:68,1,125.999996512413,0|4,0:0|0:0,0:0:0:0:
312,176,102333,5,0,0:0:0:0:
172,52,102559,2,0,L|72:152,1,125.999996512413,0|2,0:0|0:0,0:0:0:0:
80,52,102897,1,0,0:0:0:0:
224,164,103010,2,0,L|224:28,1,125.999996512413,2|0,0:0|0:0,0:0:0:0:
80,52,103348,1,0,0:0:0:0:
176,192,103461,2,0,L|8:192,1,125.999996512413,2|6,0:0|3:3,0:0:0:0:
84,256,103799,1,0,0:0:0:0:
32,304,103912,6,0,P|88:328|144:296,1,125.999996512413,0|4,0:0|3:3,0:0:0:0:
332,124,104363,2,0,L|240:216,1,125.999996512413
32,304,104814,2,2,P|48:240|104:224,3,125.999996512413,0|0|0|2,0:0|0:0|0:0|0:0,0:0:0:0:
408,240,105717,1,4,0:0:0:0:
56,260,106168,5,6,3:3:0:0:
384,332,106619,1,6,3:3:0:0:
456,48,107070,1,6,0:0:0:0:
384,256,107408,2,0,P|320:192|280:192,2,125.999996512413,0|2|0,3:3|0:0|0:0,0:0:0:0:
316,264,107972,1,0,0:0:0:0:
308,264,108085,2,0,L|172:264,1,125.999996512413
448,120,108423,5,0,0:0:0:0:
448,120,108536,1,4,0:0:0:0:
448,120,108649,1,0,0:0:0:0:
452,124,108762,2,0,L|172:124,1,251.999993024826,0|6,0:0|3:3,0:0:0:0:
296,300,109664,6,2,B|352:300|352:300|364:324|420:324,2,125.999996512413,0|0|0,0:0|0:0|0:0,0:0:0:0:
200,296,110228,1,0,0:0:0:0:
104,300,110341,2,0,B|60:300|60:300|16:160|16:160|72:120,1,251.999993024826,0|2,0:0|0:0,0:0:0:0:
164,72,110905,1,0,0:0:0:0:
188,72,111017,1,0,0:0:0:0:
140,72,111130,1,0,0:0:0:0:
212,76,111243,2,0,B|312:68|376:68|464:76,1,251.999993024826
192,200,111920,2,0,L|176:328,1,125.999996512413
416,320,112371,2,0,B|400:168,1,125.999996512413,2|0,0:0|0:0,0:0:0:0:
68,124,113047,6,0,P|120:96|120:32,1,125.999996512413,0|2,0:0|0:0,0:0:0:0:
360,80,113499,2,0,P|304:104|304:164,1,125.999996512413,0|2,0:0|0:0,0:0:0:0:
112,232,113950,2,0,B|184:356|184:356|76:356,1,251.999993024826
36,256,114626,1,2,0:0:0:0:
36,248,114739,2,0,B|36:208|36:208|156:88,1,188.999994768619
280,84,115303,1,0,0:0:0:0:
288,84,115416,1,6,3:3:0:0:
296,84,115529,1,0,0:0:0:0:
324,80,115754,6,0,P|436:80|436:204,1,251.999993024826,4|0,3:3|0:0,0:0:0:0:
112,192,116431,1,0,0:0:0:0:
40,164,116656,2,0,P|112:276|180:152,1,314.999991281032,4|0,3:3|0:0,0:0:0:0:
252,180,117559,5,0,0:0:0:0:
331,180,117671,1,0,0:0:0:0:
252,180,117784,1,0,0:0:0:0:
331,180,117897,1,0,0:0:0:0:
294,184,118010,5,0,0:0:0:0:
244,183,118123,1,0,0:0:0:0:
339,184,118235,1,0,0:0:0:0:
252,180,118348,5,0,0:0:0:0:
331,180,118461,1,0,0:0:0:0:
252,180,118574,1,0,0:0:0:0:
331,180,118686,1,0,0:0:0:0:
504,240,118912,5,0,0:0:0:0:
492,256,119138,2,0,L|360:256,2,125.999996512413,0|2|0,0:0|0:0|0:0,0:0:0:0:
284,192,119814,2,0,P|224:168|192:216,1,125.999996512413,0|2,0:0|0:0,0:0:0:0:
104,336,120265,1,0,0:0:0:0:
104,336,120378,1,0,0:0:0:0:
96,332,120491,2,0,L|24:204,4,125.999996512413,0|2|0|0|0,0:0|0:0|0:0|0:0|0:0,0:0:0:0:
196,328,121506,1,0,0:0:0:0:
292,324,121619,2,0,L|448:116,1,251.999993024826,2|0,0:0|0:0,0:0:0:0:
60,56,122295,2,0,L|340:60,1,251.999993024826,2|0,0:0|0:0,0:0:0:0:
176,236,122972,1,2,0:0:0:0:
240,272,123085,1,2,0:0:0:0:
176,308,123198,1,2,0:0:0:0:
192,312,123874,6,0,L|52:312,2,105.000000298023,0|2|0,0:0|0:0|0:0,0:0:0:0:
192,312,124438,2,0,P|240:292|288:312,1,105.000000298023,0|2,0:0|0:0,0:0:0:0:
286,310,124777,2,0,L|392:312,2,105.000000298023,2|0|0,0:0|0:0|0:0,0:0:0:0:
56,192,125453,1,4,3:3:0:0:
256,180,125679,2,2,P|304:176|320:112,1,105.000000298023,0|0,0:0|0:0,0:0:0:0:
348,44,126130,2,0,L|144:44,2,157.500000447035,2|0|2,0:0|0:0|0:0,0:0:0:0:
408,192,127032,1,0,0:0:0:0:
80,176,127483,5,0,0:0:0:0:
80,168,127596,2,0,L|160:88,1,105.000000298023
360,128,128047,1,2,0:0:0:0:
336,100,128160,1,0,0:0:0:0:
308,60,128273,1,0,0:0:0:0:
332,52,128386,2,0,L|452:52,1,105.000000298023,2|0,0:0|0:0,0:0:0:0:
80,68,128950,6,0,B|208:68,2,105.000000298023,0|2|0,0:0|0:0|0:0,0:0:0:0:
384,224,129626,1,4,3:3:0:0:
192,224,129852,1,2,0:0:0:0:
288,320,130077,1,4,3:3:0:0:
456,228,130303,1,2,0:0:0:0:
232,320,130529,2,0,P|184:332|143:279,1,105.000000298023,4|0,3:3|0:0,0:0:0:0:
376,228,130980,6,2,L|484:228,1,105.000000298023,0|0,0:0|0:0,0:0:0:0:
240,172,131431,1,6,3:3:0:0:
96,120,131656,2,0,L|176:200,2,105.000000298023,0|2|0,0:0|0:0|0:0,0:0:0:0:
352,192,132333,2,0,L|444:96,1,105.000000298023
160,112,132784,2,0,L|60:212,1,105.000000298023
256,56,133235,1,4,0:0:0:0:
460,292,133574,1,6,3:3:0:0:
452,296,133686,2,2,B|420:72,1,210.000000596046
156,136,134363,6,2,B|252:136|252:136|152:36,1,210.000000596046
160,56,134927,1,0,0:0:0:0:
152,60,135040,1,0,0:0:0:0:
144,64,135153,1,0,0:0:0:0:
136,68,135265,2,0,L|36:136,1,105.000000298023
272,192,135717,6,0,L|400:192,1,105.000000298023,2|0,0:0|0:0,0:0:0:0:
204,192,136168,1,2,0:0:0:0:
324,192,136393,1,0,0:0:0:0:
100,156,136619,2,0,L|180:236,1,105.000000298023,2|0,0:0|0:0,0:0:0:0:
216,236,136957,1,0,0:0:0:0:
176,240,137070,1,0,0:0:0:0:
136,244,137183,1,0,0:0:0:0:
116,248,137295,2,0,L|-4:248,1,105.000000298023,0|6,0:0|3:3,0:0:0:0:
464,240,137972,6,0,L|352:240,1,105.000000298023
276,240,138311,1,2,0:0:0:0:
184,240,138423,1,2,0:0:0:0:
276,240,138536,1,2,0:0:0:0:
359,240,138649,2,0,B|496:240,2,105.000000298023,4|0|0,3:3|0:0|0:0,0:0:0:0:
296,240,139213,1,0,0:0:0:0:
232,240,139326,1,0,0:0:0:0:
292,120,139438,1,2,0:0:0:0:
300,116,139551,2,0,L|376:40,1,105.000000298023
224,124,139889,1,2,0:0:0:0:
456,128,140115,1,6,3:3:0:0:
168,328,140566,1,6,3:3:0:0:
20,104,140905,6,0,L|20:228,1,105.000000298023
88,104,141356,2,0,L|196:104,1,105.000000298023,0|2,0:0|0:0,0:0:0:0:
400,144,141808,1,0,0:0:0:0:
412,152,141920,1,0,0:0:0:0:
400,160,142033,1,0,0:0:0:0:
125,209,142259,2,0,L|9:209,1,105.000000298023,2|0,0:0|0:0,0:0:0:0:
174,339,142935,5,0,0:0:0:0:
64,256,143160,1,0,0:0:0:0:
284,264,143386,1,0,0:0:0:0:
0,192,143611,1,0,0:0:0:0:
348,192,143837,1,0,0:0:0:0:
174,189,143950,1,0,0:0:0:0:
174,344,144401,1,4,3:3:0:0:
52,320,144965,6,0,L|140:232,1,105.000000298023,2|2,0:0|0:0,0:0:0:0:
196,244,145303,2,0,L|296:292,2,105.000000298023
356,288,145980,2,0,L|356:172,1,105.000000298023,2|2,0:0|0:0,0:0:0:0:
196,176,146431,1,0,0:0:0:0:
384,84,146656,2,0,P|344:44|284:44,2,105.000000298023,4|0|4,3:3|0:0|3:3,0:0:0:0:
304,100,147220,1,0,0:0:0:0:
224,88,147333,2,0,P|152:88|88:24,2,157.500000447035,2|0|2,0:0|0:0|0:0,0:0:0:0:
0,144,148235,6,0,L|96:240,2,105.000000298023,0|2|0,0:0|0:0|0:0,0:0:0:0:
192,232,148799,1,0,0:0:0:0:
256,232,148912,1,0,0:0:0:0:
320,232,149025,1,0,0:0:0:0:
384,232,149138,2,0,L|516:232,2,105.000000298023,0|2|0,0:0|0:0|0:0,0:0:0:0:
44,128,149814,6,0,L|152:128,1,105.000000298023,2|0,0:0|0:0,0:0:0:0:
320,128,150265,1,2,0:0:0:0:
384,64,150491,2,0,L|460:140,1,105.000000298023,0|2,0:0|0:0,0:0:0:0:
248,64,150942,2,0,L|172:140,1,105.000000298023,0|2,0:0|0:0,0:0:0:0:
336,240,151393,1,0,0:0:0:0:
388,240,151506,1,0,0:0:0:0:
440,240,151619,1,0,0:0:0:0:
84,280,151844,6,0,P|64:228|84:184,1,105.000000298023,4|4,3:3|3:3,0:0:0:0:
136,64,152295,2,0,L|252:64,2,105.000000298023,0|2|0,0:0|0:0|0:0,0:0:0:0:
242,165,152859,1,0,0:0:0:0:
158,165,152972,1,0,0:0:0:0:
242,165,153085,1,0,0:0:0:0:
158,165,153198,1,0,0:0:0:0:
242,165,153311,1,0,0:0:0:0:
158,165,153423,1,0,0:0:0:0:
242,165,153536,1,0,0:0:0:0:
136,64,153649,2,0,L|248:64,2,105.000000298023,0|2|0,0:0|0:0|0:0,0:0:0:0:
112,288,154326,6,0,P|148:320|212:332,1,105.000000298023
336,332,154777,2,0,P|384:328|440:280,1,105.000000298023,2|2,0:0|0:0,0:0:0:0:
300,180,155228,2,0,P|252:168|192:196,1,105.000000298023,0|2,0:0|0:0,0:0:0:0:
56,68,155679,1,2,0:0:0:0:
64,68,155792,2,0,B|104:64|132:76|168:64,1,105.000000298023
72,144,156130,1,2,0:0:0:0:
168,68,156243,2,0,B|212:76|232:64|272:68,1,105.000000298023
172,144,156581,1,2,0:0:0:0:
272,68,156694,2,0,B|316:64|336:72|380:64,1,105.000000298023
428,80,157032,2,0,B|352:156|352:156|444:248,2,210.000000596046
12,288,158611,6,0,B|84:216|84:216|-4:128,1,210.000000596046,2|2,0:0|0:0,0:0:0:0:
112,80,159288,1,0,0:0:0:0:
140,80,159401,1,0,0:0:0:0:
168,80,159514,1,0,0:0:0:0:
196,80,159739,2,0,L|312:80,2,105.000000298023,2|6|0,0:0|3:3|0:0,0:0:0:0:
412,60,160416,2,0,B|500:148,2,105.000000298023
384,152,161092,6,0,L|384:264,1,105.000000298023
104,296,161544,2,0,L|408:140,1,315.000000894069
164,120,162333,1,0,0:0:0:0:
244,48,162559,6,0,L|300:48,7,52.5000001490115
284,132,163461,1,0,0:0:0:0:
280,128,163574,1,0,0:0:0:0:
276,124,163686,1,0,0:0:0:0:
156,80,163799,6,0,L|48:80,1,105.000000298023,2|2,0:0|0:0,0:0:0:0:
364,276,164476,1,6,3:3:0:0:
360,84,165265,2,0,B|440:168,1,105.000000298023
248,212,165717,5,0,0:0:0:0:
396,328,165942,1,2,0:0:0:0:
216,272,166168,2,0,L|104:272,1,105.000000298023,0|2,0:0|0:0,0:0:0:0:
280,192,166619,1,0,0:0:0:0:
24,76,166844,2,0,L|136:76,1,105.000000298023
280,80,167295,1,2,0:0:0:0:
24,76,167521,2,0,L|136:76,1,105.000000298023
304,80,167972,1,2,0:0:0:0:
92,304,168198,2,0,L|192:204,2,105.000000298023,0|2|0,0:0|0:0|0:0,0:0:0:0:
384,264,169100,6,0,L|504:264,1,105.000000298023
484,208,169438,1,2,0:0:0:0:
484,200,169551,1,2,0:0:0:0:
484,192,169664,1,2,0:0:0:0:
480,144,169777,2,0,L|404:68,1,105.000000298023,0|2,0:0|0:0,0:0:0:0:
364,48,170115,6,0,L|244:48,2,105.000000298023,0|2|0,0:0|0:0|0:0,0:0:0:0:
356,116,170679,2,0,P|320:152|256:152,1,105.000000298023,2|0,0:0|0:0,0:0:0:0:
120,104,171130,1,4,3:3:0:0:
44,272,171356,2,0,L|172:272,2,105.000000298023,6|2|2,3:3|0:0|0:0,0:0:0:0:
388,272,172483,5,0,0:0:0:0:
388,272,172596,2,0,L|268:272,1,105.000000298023,2|0,0:0|0:0,0:0:0:0:
188,276,172935,1,2,0:0:0:0:
331,272,173047,2,0,L|443:272,1,105.000000298023
496,208,173386,1,0,0:0:0:0:
308,200,173499,2,0,L|124:200,2,157.500000447035,2|0|2,0:0|0:0|0:0,0:0:0:0:
160,112,174288,1,0,0:0:0:0:
184,104,174401,1,0,0:0:0:0:
208,96,174514,1,0,0:0:0:0:
232,88,174626,6,0,B|328:112|352:-4|428:44,1,210.000000596046,2|0,0:0|0:0,0:0:0:0:
472,140,175303,2,0,L|464:256,1,105.000000298023,2|0,0:0|0:0,0:0:0:0:
332,188,175754,2,0,L|352:296,1,105.000000298023,2|0,0:0|0:0,0:0:0:0:
328,292,176092,1,0,0:0:0:0:
304,292,176205,1,0,0:0:0:0:
280,292,176318,1,0,0:0:0:0:
256,292,176431,2,0,L|136:292,1,105.000000298023,2|4,0:0|3:3,0:0:0:0:
428,80,177220,5,4,3:3:0:0:
128,304,177671,1,4,3:3:0:0:
428,316,177897,1,4,3:3:0:0:
128,88,178348,1,4,3:3:0:0:
256,192,179138,5,0,0:0:0:0:
256,184,179250,1,0,0:0:0:0:
256,176,179363,1,0,0:0:0:0:
184,168,179589,2,0,P|253:104|324:188,2,210.000000596046,0|2|0,0:0|0:0|0:0,0:0:0:0:
260,276,180717,2,0,L|376:276,2,105.000000298023,2|2|2,0:0|0:0|0:0,0:0:0:0:
72,276,181393,2,0,L|188:276,1,105.000000298023
400,276,181844,2,0,L|288:276,1,105.000000298023,2|2,0:0|0:0,0:0:0:0:
348,212,182295,6,0,P|296:188|252:220,1,105.000000298023
256,216,182634,1,2,0:0:0:0:
252,220,182747,1,0,0:0:0:0:
248,224,182859,1,0,0:0:0:0:
244,228,182972,2,0,P|220:268|140:268,2,105.000000298023,2|0|0,0:0|0:0|0:0,0:0:0:0:
180,212,183536,1,2,3:3:0:0:
176,208,183649,1,2,3:3:0:0:
172,204,183762,1,2,3:3:0:0:
44,164,183987,5,6,3:3:0:0:
84,76,184100,2,0,L|300:76,1,210.000000596046,0|2,0:0|0:0,0:0:0:0:
96,284,184777,1,2,3:3:0:0:
120,272,184889,1,2,3:3:0:0:
144,260,185002,1,2,3:3:0:0:
288,252,185228,2,0,L|504:252,1,210.000000596046,0|2,0:0|0:0,0:0:0:0:
344,184,185905,1,0,0:0:0:0:
56,40,186130,6,0,L|168:40,1,105.000000298023
372,40,186581,2,0,L|256:40,1,105.000000298023,2|2,0:0|0:0,0:0:0:0:
484,224,187032,2,0,B|360:224,1,105.000000298023
288,256,187371,1,2,0:0:0:0:
236,220,187484,1,2,0:0:0:0:
288,192,187597,1,0,0:0:0:0:
184,188,187710,1,2,0:0:0:0:
236,156,187823,1,0,0:0:0:0:
180,128,187935,1,6,0:0:0:0:
204,56,188160,6,0,P|108:60|48:152,1,210.000000596046,2|2,0:0|0:0,0:0:0:0:
152,152,188724,1,2,3:3:0:0:
140,160,188837,1,2,3:3:0:0:
128,168,188950,1,2,3:3:0:0:
120,180,189062,2,0,L|64:304,2,105.000000298023,0|2|0,0:0|0:0|0:0,0:0:0:0:
0,276,189739,1,0,0:0:0:0:
188,256,189965,6,0,L|296:256,1,105.000000298023,0|2,0:0|0:0,0:0:0:0:
236,192,190303,1,0,0:0:0:0:
180,128,190416,2,0,L|304:128,1,105.000000298023,0|2,0:0|0:0,0:0:0:0:
420,216,190867,5,0,0:0:0:0:
436,200,190980,1,0,0:0:0:0:
452,184,191092,1,0,0:0:0:0:
184,280,191318,5,0,0:0:0:0:
164,280,191431,1,0,0:0:0:0:
144,280,191544,1,0,0:0:0:0:
356,164,191769,5,0,0:0:0:0:
344,176,191882,1,0,0:0:0:0:
332,188,191995,1,0,0:0:0:0:
80,88,192220,5,0,0:0:0:0:
88,84,192333,1,0,0:0:0:0:
100,80,192446,2,0,L|216:80,1,105.000000298023,0|4,0:0|3:3,0:0:0:0:
224,296,193123,6,0,P|184:272|112:272,2,105.000000298023,0|0|2,0:0|0:0|0:0,0:0:0:0:
376,308,193799,2,0,P|408:284|476:284,2,105.000000298023,0|0|2,0:0|0:0|0:0,0:0:0:0:
456,176,194476,2,0,P|416:116|448:64,2,105.000000298023,0|0|2,0:0|0:0|0:0,0:0:0:0:
320,208,195152,1,0,0:0:0:0:
308,212,195265,1,0,0:0:0:0:
296,216,195378,1,0,0:0:0:0:
160,216,195604,2,0,P|108:228|60:208,1,105.000000298023,2|6,0:0|3:3,0:0:0:0:
132,80,196280,6,0,P|184:60|224:84,1,105.000000298023
404,32,196732,2,0,P|464:32|504:76,1,105.000000298023
432,248,197183,2,0,P|396:248|344:204,2,105.000000298023,2|0|2,0:0|0:0|0:0,0:0:0:0:
356,248,197747,1,0,0:0:0:0:
336,264,197859,1,0,0:0:0:0:
316,280,197972,1,0,0:0:0:0:
296,288,198085,6,0,B|276:308|248:308|248:308|248:340|224:364,1,105.000000298023,2|0,0:0|0:0,0:0:0:0:
36,336,198536,2,0,P|36:288|88:288,2,105.000000298023,2|0|2,0:0|0:0|0:0,0:0:0:0:
224,224,199213,2,0,L|4:224,1,210.000000596046,0|2,0:0|0:0,0:0:0:0:
128,80,199889,1,0,0:0:0:0:
284,28,200115,2,0,L|284:156,2,105.000000298023,2|0|0,0:0|0:0|0:0,0:0:0:0:
225,256,200905,5,0,0:0:0:0:
225,245,201017,1,0,0:0:0:0:
225,233,201130,1,0,0:0:0:0:
28,74,201468,5,0,0:0:0:0:
483,74,201920,1,0,0:0:0:0:
180,192,202371,1,0,0:0:0:0:
464,210,202709,5,0,0:0:0:0:
464,199,202822,1,0,0:0:0:0:
464,188,202935,1,0,0:0:0:0:
199,93,203273,5,0,0:0:0:0:
460,256,203724,1,0,0:0:0:0:
271,13,204175,1,0,0:0:0:0:
430,70,204401,5,0,0:0:0:0:
430,81,204514,1,0,0:0:0:0:
430,93,204626,1,0,0:0:0:0:
430,222,204852,5,0,0:0:0:0:
134,283,205529,2,0,L|1:283,2,105.000000298023
184,76,206882,6,0,L|36:76,1,125.999996512413
312,72,207333,2,0,L|488:72,2,125.999996512413,0|2|0,0:0|0:0|0:0,0:0:0:0:
184,76,207897,2,0,L|-72:76,1,251.999993024826,0|6,0:0|3:3,0:0:0:0:
116,112,208460,1,0,0:0:0:0:
140,80,208573,1,0,0:0:0:0:
172,48,208686,1,0,0:0:0:0:
204,32,208799,1,0,0:0:0:0:
244,32,208912,1,0,0:0:0:0:
340,80,209024,6,2,L|468:80,1,125.999996512413
284,168,209363,1,0,0:0:0:0:
272,176,209475,1,0,0:0:0:0:
440,192,209588,2,0,L|344:288,2,125.999996512413,0|2|0,0:0|0:0|0:0,0:0:0:0:
284,168,210265,5,0,0:0:0:0:
132,164,210491,2,0,L|-4:164,1,125.999996512413,0|2,0:0|0:0,0:0:0:0:
256,328,210942,2,0,L|396:328,1,125.999996512413
452,316,211393,2,0,P|532:252|532:92,1,251.999993024826,2|2,0:0|0:0,0:0:0:0:
342,112,211957,5,0,0:0:0:0:
370,96,212069,1,0,0:0:0:0:
398,80,212182,1,0,0:0:0:0:
132,296,212408,1,0,0:0:0:0:
160,284,212521,1,0,0:0:0:0:
188,268,212633,1,0,0:0:0:0:
104,300,212746,2,0,P|48:300|0:252,1,125.999996512413,0|2,0:0|0:0,0:0:0:0:
4,56,213197,2,0,L|264:56,1,251.999993024826,0|2,0:0|0:0,0:0:0:0:
28,288,213874,6,0,P|64:324|140:324,1,125.999996512413,0|2,0:0|0:0,0:0:0:0:
60,228,214212,1,0,0:0:0:0:
80,204,214325,1,2,0:0:0:0:
100,196,214438,1,0,0:0:0:0:
120,192,214551,2,0,L|248:192,1,125.999996512413
416,124,214889,1,0,0:0:0:0:
436,96,215002,1,2,0:0:0:0:
456,72,215115,1,0,0:0:0:0:
320,124,215227,2,0,L|192:124,1,125.999996512413,0|2,0:0|0:0,0:0:0:0:
16,132,215678,1,0,0:0:0:0:
236,260,215904,1,0,0:0:0:0:
8,260,216130,6,0,L|168:260,1,125.999996512413,0|2,0:0|0:0,0:0:0:0:
80,328,216468,1,0,0:0:0:0:
300,328,216581,2,0,L|436:328,1,125.999996512413,2|0,0:0|0:0,0:0:0:0:
200,324,216919,1,0,0:0:0:0:
376,224,217032,2,0,L|512:224,1,125.999996512413,2|0,0:0|0:0,0:0:0:0:
256,236,217483,2,0,L|164:144,1,125.999996512413
392,304,217934,5,0,0:0:0:0:
200,48,218160,1,0,0:0:0:0:
452,48,218385,2,0,L|156:48,1,251.999993024826,2|0,0:0|0:0,0:0:0:0:
44,76,219062,2,2,L|144:176,1,125.999996512413
0,192,219513,1,0,0:0:0:0:
40,232,219626,1,0,0:0:0:0:
80,264,219739,1,0,0:0:0:0:
332,264,219964,2,0,L|72:264,1,251.999993024826,0|4,0:0|3:3,0:0:0:0:
304,108,220979,5,0,0:0:0:0:
264,100,221092,1,0,0:0:0:0:
224,112,221205,1,0,0:0:0:0:
400,144,221318,2,0,L|528:240,2,125.999996512413,0|2|0,0:0|0:0|0:0,0:0:0:0:
176,304,221994,1,0,0:0:0:0:
204,316,222107,1,0,0:0:0:0:
228,324,222220,1,0,0:0:0:0:
20,188,222445,2,0,P|72:160|72:92,2,125.999996512413,0|2|0,0:0|0:0|0:0,0:0:0:0:
256,128,223122,2,0,L|256:256,1,125.999996512413,0|2,0:0|0:0,0:0:0:0:
448,116,223573,2,0,L|91:322,1,377.999989537239,0|6,0:0|3:3,0:0:0:0:
244,72,224475,6,0,B|96:72,1,125.999996512413
388,156,224927,2,0,L|256:156,1,125.999996512413,2|0,0:0|0:0,0:0:0:0:
476,160,225378,1,2,0:0:0:0:
212,156,225603,1,0,0:0:0:0:
108,104,225829,2,0,P|52:80|52:16,2,125.999996512413,0|0|2,0:0|0:0|0:0,0:0:0:0:
108,256,226506,1,4,3:3:0:0:
108,104,226731,6,0,L|240:104,1,125.999996512413,2|2,0:0|0:0,0:0:0:0:
396,28,227069,1,0,0:0:0:0:
412,56,227182,1,0,0:0:0:0:
424,88,227295,1,0,0:0:0:0:
428,116,227408,1,0,0:0:0:0:
424,140,227520,1,0,0:0:0:0:
72,192,227746,5,2,0:0:0:0:
360,264,227972,1,0,0:0:0:0:
352,296,228085,1,0,0:0:0:0:
336,316,228197,1,0,0:0:0:0:
268,316,228310,1,2,0:0:0:0:
256,316,228423,2,0,L|128:316,1,125.999996512413,2|0,0:0|0:0,0:0:0:0:
18,156,228761,6,0,L|86:38,2,125.999996512413,2|2|0,0:0|0:0|0:0,0:0:0:0:
100,96,229438,1,0,0:0:0:0:
112,88,229663,2,0,P|172:56|224:80,1,125.999996512413,2|0,0:0|0:0,0:0:0:0:
472,116,230115,2,0,B|412:188|412:272|484:360,1,251.999993024826,0|2,0:0|0:0,0:0:0:0:
284,292,230791,5,0,0:0:0:0:
120,208,231017,1,2,0:0:0:0:
292,140,231242,1,0,0:0:0:0:
132,48,231468,1,0,0:0:0:0:
88,76,231806,1,0,0:0:0:0:
116,64,231919,1,0,0:0:0:0:
152,68,232032,1,0,0:0:0:0:
260,68,232145,6,0,P|408:68|480:140,1,251.999993024826,6|2,3:3|0:0,0:0:0:0:
360,132,232709,1,0,0:0:0:0:
464,204,232821,2,0,P|324:204|232:112,1,251.999993024826,2|2,0:0|0:0,0:0:0:0:
40,192,233498,1,0,0:0:0:0:
200,172,233724,5,0,0:0:0:0:
216,104,233949,2,0,P|260:104|260:188,1,125.999996512413,2|0,0:0|0:0,0:0:0:0:
272,192,234288,1,0,0:0:0:0:
272,200,234400,1,0,0:0:0:0:
124,328,234626,1,2,0:0:0:0:
384,324,234851,2,0,B|328:324|328:324|272:268,1,125.999996512413,0|2,0:0|0:0,0:0:0:0:
380,260,235190,1,0,0:0:0:0:
276,212,235303,2,2,B|308:180|308:180|392:180,1,125.999996512413,0|2,0:0|0:0,0:0:0:0:
92,180,235754,5,6,3:3:0:0:
76,72,235979,2,0,P|136:44|176:84,1,125.999996512413
232,108,236318,1,2,0:0:0:0:
296,80,236430,2,0,P|348:112|396:72,1,125.999996512413
324,232,236882,1,0,0:0:0:0:
288,292,236994,1,0,0:0:0:0:
360,292,237107,1,0,0:0:0:0:
416,104,237558,5,0,0:0:0:0:
360,120,237671,2,0,P|288:120|248:80,1,125.999996512413,2|0,0:0|0:0,0:0:0:0:
328,52,238009,1,0,0:0:0:0:
424,220,238122,1,0,0:0:0:0:
380,264,238235,1,0,0:0:0:0:
320,256,238348,1,0,0:0:0:0:
76,200,238460,1,0,0:0:0:0:
380,80,239137,6,0,L|512:80,1,125.999996512413,0|2,0:0|0:0,0:0:0:0:
356,316,239588,1,0,0:0:0:0:
128,324,239814,2,0,L|28:224,2,125.999996512413
280,172,240491,1,0,0:0:0:0:
420,276,240942,5,2,0:0:0:0:
428,248,241054,1,0,0:0:0:0:
428,212,241167,2,0,P|340:136|236:224,1,251.999993024826,0|2,0:0|0:0,0:0:0:0:
132,272,241844,1,0,0:0:0:0:
112,220,241957,1,0,0:0:0:0:
116,168,242069,1,0,0:0:0:0:
148,124,242182,1,2,0:0:0:0:
176,112,242295,2,0,P|252:112|252:160,1,125.999996512413,2|0,0:0|0:0,0:0:0:0:
324,176,242633,5,0,0:0:0:0:
384,208,242746,1,2,0:0:0:0:
444,240,242859,1,0,0:0:0:0:
380,216,242972,2,0,P|304:216|304:292,1,125.999996512413,0|2,0:0|0:0,0:0:0:0:
132,280,243423,1,2,0:0:0:0:
36,160,243648,6,0,P|68:120|144:120,1,125.999996512413,0|2,0:0|0:0,0:0:0:0:
36,228,243987,1,0,0:0:0:0:
144,252,244099,2,0,P|112:292|36:292,1,125.999996512413,0|2,0:0|0:0,0:0:0:0:
336,252,244551,2,0,P|404:252|440:300,1,125.999996512413,0|2,0:0|0:0,0:0:0:0:
76,316,245002,1,0,0:0:0:0:
256,176,245227,1,4,3:3:0:0:
340,324,245678,2,0,P|392:292|432:332,1,125.999996512413
440,164,246129,6,0,P|480:204|496:272,1,125.999996512413,2|2,0:0|0:0,0:0:0:0:
360,88,246581,2,0,P|256:40|224:156,1,251.999993024826,0|2,0:0|0:0,0:0:0:0:
16,252,247257,1,0,0:0:0:0:
40,224,247370,1,0,0:0:0:0:
56,196,247483,1,2,0:0:0:0:
284,192,247708,2,0,P|384:144|464:240,1,251.999993024826
224,260,248723,1,6,3:3:0:0:
488,140,249626,6,0,P|528:224|452:300,1,210.000000596046,0|2,0:0|0:0,0:0:0:0:
244,144,250302,1,6,3:3:0:0:
24,148,250528,2,4,P|-16:228|64:308,1,210.000000596046,2|2,0:0|0:0,0:0:0:0:
208,248,251092,1,0,0:0:0:0:
184,256,251205,1,0,0:0:0:0:
160,264,251317,1,0,0:0:0:0:
328,308,251430,1,6,3:3:0:0:
476,312,251881,6,0,L|448:196,1,105.000000298023,0|2,0:0|0:0,0:0:0:0:
500,172,252332,2,0,P|516:120|488:72,1,105.000000298023,0|2,0:0|0:0,0:0:0:0:
408,80,252671,1,6,3:3:0:0:
56,148,253122,5,0,0:0:0:0:
56,156,253235,1,0,0:0:0:0:
156,292,253460,2,0,L|276:292,1,105.000000298023,2|0,0:0|0:0,0:0:0:0:
204,148,253911,1,2,0:0:0:0:
364,232,254137,1,0,0:0:0:0:
112,200,254363,2,0,L|28:116,1,105.000000298023,2|0,0:0|0:0,0:0:0:0:
288,64,254814,5,4,3:3:0:0:
456,320,255265,1,6,3:3:0:0:
140,56,255716,1,4,3:3:0:0:
304,312,256167,1,6,3:3:0:0:
52,40,256618,6,0,B|84:72|84:72|84:136,1,105.000000298023,0|2,0:0|0:0,0:0:0:0:
28,40,257069,1,0,0:0:0:0:
212,152,257295,2,0,B|212:104|212:104|252:64,1,105.000000298023,0|2,0:0|0:0,0:0:0:0:
184,152,257746,1,6,3:3:0:0:
184,152,257859,1,0,0:0:0:0:
184,152,257972,1,0,0:0:0:0:
460,216,258197,6,0,B|424:180|424:180|476:128,1,105.000000298023,0|2,0:0|0:0,0:0:0:0:
236,40,258648,2,0,L|128:40,1,105.000000298023,0|2,0:0|0:0,0:0:0:0:
36,140,258987,1,0,0:0:0:0:
16,148,259099,1,0,0:0:0:0:
36,156,259212,1,0,0:0:0:0:
84,260,259325,2,0,L|200:308,1,105.000000298023,0|2,0:0|0:0,0:0:0:0:
188,300,259663,1,6,3:3:0:0:
44,28,260114,5,4,3:3:0:0:
462,81,260566,1,6,3:3:0:0:
44,134,261017,1,4,3:3:0:0:
462,187,261468,1,6,3:3:0:0:
44,240,261919,1,4,3:3:0:0:
462,292,262370,1,6,3:3:0:0:
160,172,262708,5,0,0:0:0:0:
165,163,262821,1,0,0:0:0:0:
170,153,262935,1,0,0:0:0:0:
175,148,263047,1,0,0:0:0:0:
179,144,263160,1,0,0:0:0:0:
184,139,263272,1,0,0:0:0:0:
376,144,263498,2,0,P|424:156|452:200,1,105.000000298023,2|4,0:0|3:3,0:0:0:0:
